#TITLE:In Scottish Highlands;
#SUBTITLE:;
#ARTIST:Thomas Howard Lichtenstein;
#TITLETRANSLIT:;
#SUBTITLETRANSLIT:;
#ARTISTTRANSLIT:;
#GENRE:Pop;
#CREDIT:;
#BANNER:;
#BACKGROUND:;
#LYRICSPATH:;
#CDTITLE:;
#MUSIC:In Scottish Highlands.ogg;
#OFFSET:-0.305000;
#SAMPLESTART:19.939999;
#SAMPLELENGTH:13.000004;
#SELECTABLE:YES;
#BPMS:0.000000=145.000000
;
#STOPS:
;
#BGCHANGES:;
#KEYSOUNDS:;
#ATTACKS:;

//---------------dance-single - ----------------
#NOTES:
     dance-single:
     :
     Hard:
     10:
     0.456858,0.500857,0.301111,0.508774,0.000000,308.000000,279.000000,29.000000,49.000000,0.000000,0.000000,0.456858,0.500857,0.301111,0.508774,0.000000,308.000000,279.000000,29.000000,49.000000,0.000000,0.000000:
0000
0000
0000
0000
,
0000
0000
0000
0000
,
0000
0000
0000
0000
,
0000
0000
0000
0000
,
2000
0000
0000
3200
0000
0310
0100
1000
,
0002
0000
0000
0023
0000
0130
0010
0001
,
1000
0000
0110
0000
0001
0000
0100
0010
,
2000
0000
3001
0000
0110
0100
0001
0010
,
0002
0000
0000
0203
0000
0310
1000
0100
,
2000
0000
0000
3020
0000
0130
0010
0000
,
1000
1000
1000
0000
0100
0100
0100
0000
,
0001
0100
1000
0001
1000
0000
1001
0000
,
0001
0000
1100
0000
0001
0001
0000
0000
,
1000
0000
0101
0000
1000
1000
0000
0000
,
0002
0203
0320
2030
,
3001
0100
0010
0100
1000
0100
0010
0100
,
0001
0000
1100
0000
0001
0001
0000
0000
,
1000
0000
0101
0000
1000
1000
0000
0000
,
0020
0000
0230
0000
0302
0000
1003
0001
,
0000
1001
1001
1001
0000
0000
0000
0000
,
2000
0000
0000
3200
0000
0301
0100
1000
,
0002
0000
0000
0203
0000
1300
0100
0001
,
1000
1100
0001
0101
,
1000
0010
0100
0000
0001
0010
0100
1000
,
0002
0000
0000
0023
0000
1030
0010
0001
,
2000
0000
0000
3020
0000
0031
0010
0000
,
1000
1000
1000
0000
0100
0100
0100
0000
,
0010
0001
1000
0100
0010
0100
1000
0100
,
2100
0000
3001
1000
0001
0100
0000
0100
,
0020
0200
0000
0330
0000
0001
0010
0002
,
0000
0003
1001
0000
0010
1000
0010
0100
,
0010
0001
0010
0100
0010
0010
0010
0000
,
1000
0100
0010
0200
0000
1300
0001
1000
,
0001
0010
0100
0020
0000
0031
0000
1000
,
0000
0001
1000
0100
0010
0001
0010
0100
,
1000
0001
0100
0010
0110
0000
1000
0001
,
1000
0000
0011
0000
1000
1000
0000
0000
,
0001
0000
1010
0000
0001
0001
0000
0000
,
0002
0203
0320
2030
,
3001
1000
0100
1000
0010
1000
0100
1000
,
0001
0000
1010
0000
0001
0001
0000
0000
,
1000
0000
0011
0000
1000
1000
0000
0000
,
0002
0000
2003
0000
3020
0000
0130
0010
,
0000
0110
0110
0110
0000
0000
0000
0000
,
0002
0000
0000
0023
0000
0130
1000
0100
,
0020
0000
0000
0032
0000
1003
0001
0010
,
0001
0000
0110
0000
1000
0000
0001
0100
,
0020
0000
1030
0000
1001
0001
1000
0100
,
2000
0000
0000
3200
0000
0310
0001
0010
,
0200
0000
0000
2300
0000
3001
1000
0010
,
0100
0100
0100
0000
0001
0001
0001
0000
,
0010
0100
0010
0100
0110
0000
1001
0000
,
2000
0000
0100
0000
0001
0001
3001
0000
,
0002
0000
0100
0000
1000
1000
1003
0000
,
2000
0000
0100
0000
0001
0001
3001
0000
,
0001
0010
0100
1000
0010
0100
0110
0000
,
1000
0100
0010
0001
1001
0000
0110
0000
;

//---------------dance-double - ----------------
#NOTES:
     dance-double:
     :
     Hard:
     10:
     0.446475,0.500857,0.269962,0.508774,0.000000,301.000000,275.000000,26.000000,49.000000,0.000000,0.000000,0.446475,0.500857,0.269962,0.508774,0.000000,301.000000,275.000000,26.000000,49.000000,0.000000,0.000000:
00000000
00000000
00000000
00000000
,
00000000
00000000
00000000
00000000
,
00000000
00000000
00000000
00000000
,
00000000
00000000
00000000
00000000
,
20000000
00000000
00000000
32000000
00000000
03010000
00001000
00000100
,
00000002
00000000
00000000
00000203
00000000
00001300
00010000
00000000
,
00001000
00000000
00100000
00000000
00110000
00000000
01000000
00010000
,
10000000
00000000
10100000
00000000
10010000
00010000
10000000
00010000
,
20000000
00000000
00000000
30200000
00000000
00310000
00001000
00000010
,
00000002
00000000
00000000
00000023
00000000
00001030
00010000
00000000
,
00001000
00001000
00001000
00000000
00000100
00000100
00000100
00000000
,
00000001
00001000
00000001
00001000
00001001
00000000
00000110
00000000
,
00000001
00000000
00001100
00000000
00010000
00010000
00000000
00000000
,
01000000
00000000
10100000
00000000
00010000
00010000
00000000
00000000
,
00002000
00003200
00000302
00001003
,
00000001
00000010
00000100
00010000
00001000
00100000
01000000
00000000
,
10000000
00000000
01010000
00000000
00001000
00001000
00000000
00000000
,
00000100
00000000
00000011
00000000
00001000
00001000
00000000
00000000
,
00020000
00000000
00230000
00000000
20300000
00000000
31000000
00010000
,
00000000
00001000
00010000
00011000
00000000
00000000
00000000
00000000
,
00000002
00000000
00000000
00000023
00000000
00001030
00010000
00100000
,
20000000
00000000
00000000
32000000
00000000
03010000
00001000
00000000
,
00010000
00000000
00000100
00000000
00001100
00000000
00000010
00000100
,
00000001
00000000
00001010
00000000
00000101
00000000
00000001
00001000
,
00000002
00000000
00000000
00000203
00000000
00001300
00010000
01000000
,
20000000
00000000
30000000
00200000
00000000
00310000
00001000
00000000
,
00010000
00010000
00010000
00000000
00100000
00100000
00100000
00000000
,
10000000
00010000
10000000
00010000
10000000
00100000
01000000
00100000
,
02000000
00000000
03001000
00010000
00001000
00200000
00000000
00301000
,
00010000
00000200
00000000
00000300
00000000
00001000
00000010
00000210
,
00000000
00000000
00000302
00000000
00000013
00001000
00000010
00001000
,
00010000
00100000
00010000
00100000
10000000
00010000
10000000
00000000
,
01000000
00010000
00001000
00000200
00000000
00000301
00001000
00000001
,
00000100
00001000
00010000
02000000
00000000
13000000
00000000
10010000
,
00000000
01000000
00010000
01000000
00001000
00010000
00000010
00000100
,
00000001
00001000
00000001
00000100
00000100
00000000
00000001
00001000
,
00000001
00000000
00001010
00000000
00010000
00010000
00000000
00000000
,
00100000
00000000
11000000
00000000
00010000
00010000
00000000
00000000
,
00002000
00003200
00000302
00001003
,
00000010
00010000
00001000
01000000
00100000
10000000
00010000
00000000
,
10000000
00000000
00110000
00000000
00001000
00001000
00000000
00000000
,
00000100
00000000
00000011
00000000
00001000
00001000
00000000
00000000
,
00020000
00000000
00230000
00000000
20300000
00000000
31000000
00010000
,
00000000
00001000
00010000
00011000
00000000
00000000
00000000
00000000
,
00000200
00000000
00000000
00000320
00000000
00001030
00010000
01000000
,
00200000
00000000
00000000
02300000
00000000
13000000
00010000
10000000
,
00100000
00000000
01010000
00000000
00100000
00000000
01000000
00001000
,
00010000
00000000
00001010
00000000
00010000
00001000
01000000
00100000
,
02000000
00000000
00000000
03200000
00000000
00310000
00001000
00000100
,
00000020
00000000
00000000
00000230
00000000
00000310
00001000
00000001
,
00000100
00000100
00000100
00000000
00000010
00000010
00000010
00000000
,
00001000
00000100
00001000
00000100
00001100
00000000
00000100
00010000
,
00002000
00000000
00203000
00000000
00310000
00010000
00010000
00000000
,
02000000
00000000
03200000
00000000
10300000
10000000
10000000
00000000
,
02000000
00000000
03020000
00000000
00031000
00001000
00001000
00000000
,
00000100
00000001
00000100
00000001
00001000
00000001
00001001
00000000
,
00000010
00010000
00000010
00010000
00010010
00000000
00011000
00000000
;

//---------------dance-single - ----------------
#NOTES:
     dance-single:
     :
     Beginner:
     1:
     0.105315,0.147311,0.010383,0.000000,0.000000,71.000000,70.000000,1.000000,0.000000,0.000000,0.000000,0.105315,0.147311,0.010383,0.000000,0.000000,71.000000,70.000000,1.000000,0.000000,0.000000,0.000000:
// measure 0
0000
0000
0000
0000
,  // measure 1
0000
0000
0000
0000
,  // measure 2
0000
0000
0000
0000
,  // measure 3
0000
0000
0000
0000
,  // measure 4
1000
0000
0000
1000
,  // measure 5
1000
0000
0000
0000
,  // measure 6
0001
0000
0000
0001
,  // measure 7
0001
0000
0000
0000
,  // measure 8
0100
0000
0000
0100
,  // measure 9
0100
0000
0000
0000
,  // measure 10
0010
0000
0010
0000
,  // measure 11
0010
0000
0000
0000
,  // measure 12
1000
0000
0000
0000
,  // measure 13
0100
0000
0000
0000
,  // measure 14
1000
0000
0000
0000
,  // measure 15
0100
0100
0100
0000
,  // measure 16
0010
0000
0000
0000
,  // measure 17
0001
0000
0000
0000
,  // measure 18
0010
0000
0000
0000
,  // measure 19
0000
0000
0000
0000
,  // measure 20
0001
0000
0000
0001
,  // measure 21
0001
0000
0000
0000
,  // measure 22
1000
0000
0000
1000
,  // measure 23
1000
0000
0000
0000
,  // measure 24
0010
0000
0000
0010
,  // measure 25
0010
0000
0000
0000
,  // measure 26
0100
0000
0100
0000
,  // measure 27
0100
0000
0000
0000
,  // measure 28
0001
0000
0000
0000
,  // measure 29
0010
0000
0000
0000
,  // measure 30
0100
0000
0000
0000
,  // measure 31
0010
0000
0010
0000
,  // measure 32
0010
0000
0000
0000
,  // measure 33
0001
0000
0000
0000
,  // measure 34
0000
0000
0000
0000
,  // measure 35
1000
0000
1000
0000
,  // measure 36
1000
0000
0000
0000
,  // measure 37
0010
0000
0000
0000
,  // measure 38
1000
0000
0000
0000
,  // measure 39
0100
0000
0000
0000
,  // measure 40
0010
0000
0000
0000
,  // measure 41
0001
0000
0000
0000
,  // measure 42
0010
0000
0000
0000
,  // measure 43
0000
0000
0000
0000
,  // measure 44
0100
0000
0000
0100
,  // measure 45
0100
0000
0000
0000
,  // measure 46
1000
0000
0000
1000
,  // measure 47
1000
0000
0000
0000
,  // measure 48
0001
0000
0000
0001
,  // measure 49
0001
0000
0000
0000
,  // measure 50
0010
0000
0010
0000
,  // measure 51
0010
0000
0000
0000
,  // measure 52
0001
0000
0001
0000
,  // measure 53
1000
0000
1000
0000
,  // measure 54
0001
0000
0001
0000
,  // measure 55
1000
0000
0000
0000
,  // measure 56
0010
0000
0000
0110
;

//---------------dance-single - ----------------
#NOTES:
     dance-single:
     :
     Easy:
     5:
     0.240295,0.265159,0.145364,0.083065,0.000000,162.000000,148.000000,14.000000,8.000000,0.000000,0.000000,0.240295,0.265159,0.145364,0.083065,0.000000,162.000000,148.000000,14.000000,8.000000,0.000000,0.000000:
0000
0000
0000
0000
,
0000
0000
0000
0000
,
0000
0000
0000
0000
,
0000
0000
0000
0000
,
1000
0000
0000
0100
0000
0000
1000
0000
,
0010
0000
0000
1000
0000
0000
0000
0000
,
0001
0001
1000
1000
,
0001
1000
0001
0000
,
0001
0000
0000
0010
0000
0000
0001
0000
,
0100
0000
0000
0001
0000
0000
0000
0000
,
0110
0000
1001
0000
,
0100
0010
0100
0000
,
0001
0001
1001
0000
,
1000
1000
1001
0000
,
0010
0100
0010
0100
,
0020
0000
0000
0000
,
0130
0100
0110
0000
,
0010
0010
0110
0000
,
1000
0001
1000
0001
,
0000
0000
0000
0000
,
0100
0000
0000
0010
0000
0000
0100
0000
,
0001
0000
0000
0100
0000
0000
0000
0000
,
0010
0010
1000
1000
,
0010
1000
0010
0000
,
0100
0000
0000
0001
0000
0000
0100
0000
,
0010
0000
0000
0100
0000
0000
0000
0000
,
1001
0000
0110
0000
,
1000
0001
1000
0000
,
0001
0001
0020
0000
,
0130
0000
0000
1000
,
0100
0010
0200
0000
,
1300
1000
0001
0001
,
0200
0000
0300
0010
,
2000
0000
3000
0100
,
0000
0010
0001
1000
,
0010
0010
0010
0000
,
1000
1000
1001
0000
,
0010
0010
0110
0000
,
0100
0001
0100
0001
,
0200
0000
0300
0000
,
0001
0001
1001
0000
,
0010
0010
0110
0000
,
0100
1000
0100
1000
,
0000
0000
0000
0000
,
0001
0000
0000
0100
0000
0000
0001
0000
,
0010
0000
0000
0001
0000
0000
0000
0000
,
0100
0100
0010
0010
,
0100
0010
0100
0000
,
1000
0000
0000
0010
0000
0000
1000
0000
,
0100
0000
0000
1000
0000
0000
0000
0000
,
1001
0000
0110
0000
,
1000
0001
1000
0000
,
0001
0010
0100
0100
,
1000
0010
0100
0100
,
0001
0010
0100
0100
,
2000
0000
0001
3001
,
0002
0000
1000
1003
;

//---------------dance-single - ----------------
#NOTES:
     dance-single:
     :
     Medium:
     7:
     0.326327,0.441932,0.020766,0.373793,0.000000,220.000000,218.000000,2.000000,36.000000,0.000000,0.000000,0.326327,0.441932,0.020766,0.373793,0.000000,220.000000,218.000000,2.000000,36.000000,0.000000,0.000000:
0000
0000
0000
0000
,
0000
0000
0000
0000
,
0000
0000
0000
0000
,
0000
0000
0000
0000
,
2000
0000
0000
3020
0000
0000
0130
0000
,
0020
0000
0000
2030
0000
0000
3000
0000
,
0001
0000
0010
0000
0001
0000
0100
0001
,
0100
0000
0001
0000
0010
0000
0001
1000
,
0002
0000
0000
0023
0000
0000
0130
0000
,
0020
0000
0000
0032
0000
0000
0003
0000
,
1000
1000
1000
0000
0010
0010
0010
0000
,
0100
0010
0100
0010
0100
0000
0000
0000
,
0001
0000
0010
0000
0100
1000
0000
0000
,
1000
0000
0100
0000
0010
0001
0000
0000
,
1000
1000
0001
0001
,
1000
0001
1000
0001
1000
0000
0000
0000
,
0010
0000
1000
0000
0001
0100
0000
0000
,
0100
0000
0001
0000
1000
0010
0000
0000
,
0100
0100
0010
0010
,
0000
0100
0010
0100
0000
0000
0000
0000
,
0020
0000
0000
2030
0000
0000
3100
0000
,
2000
0000
0000
3020
0000
0000
0030
0000
,
0100
0000
0001
0000
0100
0000
0010
1000
,
0010
0100
0001
0000
,
0200
0000
0000
0302
0000
0000
0013
0000
,
0002
0000
0000
0203
0000
0000
0300
0000
,
0001
0001
0001
0000
0010
0010
0010
0000
,
0100
0010
0100
0010
0100
0000
0000
0000
,
2000
0000
3001
0010
0001
0200
0000
0000
,
0010
0310
0000
0000
0000
0010
0100
0000
,
2000
3002
0203
0320
,
2030
0000
3200
0000
0310
0001
0010
0000
,
0001
0100
0001
0100
0000
0000
0010
0000
,
1000
0100
1000
0100
0000
0010
0000
0001
,
0000
1000
0010
0100
,
0010
1000
0001
1000
0010
0000
0000
0000
,
1000
0000
0100
0000
0001
0100
0000
0000
,
1000
0000
0010
0000
0001
0010
0000
0000
,
1000
1000
0001
0001
,
1000
0001
1000
0001
1000
0000
0000
0000
,
0001
0000
0010
0000
1000
0010
0000
0000
,
0001
0000
0100
0000
1000
0100
0000
0000
,
0001
0001
1000
1000
,
0000
0010
0100
0110
0000
0000
0000
0000
,
0200
0000
0000
0302
0000
0000
1003
0000
,
0002
0000
0000
0103
0000
0000
0000
0000
,
0010
0000
1000
0000
0010
0000
0100
0001
,
0100
0010
1000
0000
,
0020
0000
0000
2030
0000
0000
3001
0000
,
2000
0000
0000
3010
0000
0000
0000
0000
,
0100
0100
0100
0000
0001
0001
0001
0000
,
1000
0010
1000
0010
1000
0000
0000
0000
,
0002
0000
0203
0000
0301
0001
0001
0000
,
2000
0000
3020
0000
1030
1000
1000
0000
,
0002
0000
0203
0000
0301
0001
0001
0000
,
1000
0100
0010
0001
1000
0001
1000
0000
,
0001
0010
0100
1000
0001
0000
1001
0000
;

//---------------dance-double - ----------------
#NOTES:
     dance-double:
     :
     Medium:
     7:
     0.344127,0.412470,0.134981,0.664521,0.000000,232.000000,219.000000,13.000000,64.000000,0.000000,0.000000,0.344127,0.412470,0.134981,0.664521,0.000000,232.000000,219.000000,13.000000,64.000000,0.000000,0.000000:
00000000
00000000
00000000
00000000
,
00000000
00000000
00000000
00000000
,
00000000
00000000
00000000
00000000
,
00000000
00000000
00000000
00000000
,
20000000
00000000
00000000
32000000
00000000
03100000
01000000
00000000
,
20000000
00000000
00000000
32000000
00000000
00000000
03000000
00000000
,
00010000
00001000
00010000
00001000
,
00000100
00000001
00000100
00000001
,
00000002
00000000
00000000
00000023
00000000
00000130
00000010
00000000
,
00000002
00000000
00000000
00002003
00000000
00003010
00000100
00000000
,
00000010
00001000
00000010
00000000
00010000
00001000
00010000
00000000
,
00001000
01000000
00001000
00000000
01001000
00000000
00000000
00000000
,
00200000
00000000
20300000
00000000
30100000
10000000
00000000
00000000
,
20000000
00000000
30020000
00000000
10030000
00010000
00000000
00000000
,
01000000
00000000
00001000
00000000
00010000
00000100
00010000
00000000
,
00000010
00000100
00000110
00000000
,
00000002
00000000
00000203
00000000
00000301
00000100
00000000
00000000
,
00000020
00000000
00020030
00000000
00030010
00010000
00000000
00000000
,
00001000
00000000
01000000
00000000
00100000
00000000
10000000
00010000
,
00000000
10000000
00010000
10010000
00000000
00000000
00000000
00000000
,
02000000
00000000
00000000
03020000
00000000
00130000
00010000
00000000
,
02000000
00000000
00000000
03200000
00000000
00300000
00000000
00000000
,
10000000
01000000
10000000
01000000
,
00010000
00001000
00010000
00001000
,
00020000
00000000
00000000
00030020
00000000
00000130
00000010
00000000
,
00020000
00000000
00000000
00032000
00000000
01003000
00100000
00000000
,
10000000
00010000
10000000
00000000
00010000
00100000
00010000
00000000
,
00100000
00001000
00011000
00000000
,
00000200
00000000
00001300
00000010
00000100
00000001
00000000
00000001
,
00001000
00000001
00000000
00000000
00000000
00000001
00000100
00000000
,
00002000
00023000
02030000
23000000
,
30200000
00000000
02300000
00000000
03100000
01000000
00100000
00000000
,
20000000
00000000
00000000
30100000
00000000
00000000
00010000
00000000
,
00002000
00000000
00000000
00003010
00000000
00000001
00000000
00001000
,
00000000
00000001
00000200
00000000
00000320
00000000
00020030
00000000
,
00031000
00010000
00001000
00000000
00011000
00000000
00000000
00000000
,
02000000
00000000
03200000
00000000
01300000
00100000
00000000
00000000
,
20000000
00000000
30020000
00000000
10030000
00010000
00000000
00000000
,
00200000
00000000
00302000
00000000
00023000
00000000
00030100
00001000
,
00000010
00000100
00000010
00000100
00000010
00000000
00000000
00000000
,
00000200
00000000
00000320
00000000
00000130
00000010
00000000
00000000
,
00002000
00000000
00003002
00000000
00001003
00000001
00000000
00000000
,
00002000
00000000
00003200
00000000
00020300
00000000
00031000
00100000
,
00000000
00010000
01000000
00010000
00000000
00000000
00000000
00000000
,
02000000
00000000
00000000
03200000
00000000
10300000
00010000
00000000
,
02000000
00000000
00000000
03002000
00000000
00003000
00000000
00010000
,
00000010
00000000
00001010
00000000
00000101
00000000
00000001
00000010
,
00000001
00000011
00001100
00000002
,
00000000
00000203
00000000
00000000
00000300
00001000
00010000
00000000
,
00200000
00000000
00000000
20300000
00000000
00000000
30000000
00000000
,
00010000
10000000
00010000
00000000
10000000
00010000
10000000
00000000
,
00100000
01000000
01100000
10010000
,
20000000
00000000
32000000
00000000
03100000
00001000
00100000
00000000
,
00002000
00000000
00023000
00000000
00030010
00000100
00000010
00000000
,
00000200
00000000
00000302
00000000
00001003
00000010
00001000
00000000
,
00000010
00010000
00000010
00000000
00010000
00000000
00011000
00000000
,
01000000
00001000
01000000
00000000
00001000
00000000
00011000
00000000
;

//---------------dance-double - ----------------
#NOTES:
     dance-double:
     :
     Easy:
     5:
     0.223979,0.265159,0.031149,0.114215,0.000000,151.000000,148.000000,3.000000,11.000000,0.000000,0.000000,0.223979,0.265159,0.031149,0.114215,0.000000,151.000000,148.000000,3.000000,11.000000,0.000000,0.000000:
00000000
00000000
00000000
00000000
,
00000000
00000000
00000000
00000000
,
00000000
00000000
00000000
00000000
,
00000000
00000000
00000000
00000000
,
00000010
00000000
00000000
00000100
,
00000010
00000000
00000000
00000000
,
00010000
00001000
00010000
00001000
,
01000000
00100000
01000000
00000000
,
00100000
00000000
00000000
10000000
,
00100000
00000000
00000000
00000000
,
00010000
00000000
00001000
00000000
,
00010000
00000010
00000100
00000000
,
00000001
00000001
00000001
00000000
,
00000010
00000010
00000010
00000000
,
00000100
00010000
00000100
00010000
,
00001000
00100000
00001000
00100000
,
00001000
00001000
00001000
00000000
,
01000000
01000000
01000000
00000000
,
00010000
10000000
00100000
00000000
,
00000000
10010000
00000000
00000000
,
10000000
00000000
00000000
02000000
,
13000000
00000000
00000000
00000000
,
00100000
01000000
00100000
01000000
,
00001000
00010000
00001000
00010000
,
00000010
00000000
00000000
00000200
,
00000310
00000000
00000000
00000000
,
00001000
00000000
00000100
00000000
,
00010000
00001000
00010000
00000000
,
00000010
00000010
00000100
00000000
,
00000001
00000000
00000010
00000100
,
00001000
00000000
00000100
00010000
,
00001000
00100000
00010000
00010000
,
20000000
00000000
30010000
01000000
,
00200000
00000000
01300000
00000000
,
00000000
00010000
00100000
00001000
,
00010000
00010000
00011000
00000000
,
00000010
00001000
00000010
00000000
,
00010000
00001000
00010000
00000000
,
00000010
00000100
00000010
00001000
,
00000002
00000203
00002300
00023000
,
01030000
10000000
01000000
00000000
,
10000000
00100000
10000000
00000000
,
00200000
02300000
03002000
00013000
,
00000000
00011000
00000000
00000000
,
00000100
00000000
00000000
00001000
,
00000100
00000000
00000000
00000000
,
00000010
00000001
00001000
00000000
,
00000010
00010000
00001000
00000000
,
01000000
00000000
00000000
00010000
,
01000000
00000000
00000000
00000000
,
00100000
00000000
10000000
00000000
,
01000000
00010000
01000000
00010000
,
00001000
00000100
00001000
00001000
,
00000100
00000001
00000100
00000100
,
00000001
00001000
00000001
00000001
,
00000010
00000100
00010000
00010000
,
00001000
01000000
00100000
00100000
;
