#TITLE:Izana;
#SUBTITLE:;
#ARTIST:t+pazolite vs P*Light;
#TITLETRANSLIT:;
#SUBTITLETRANSLIT:;
#ARTISTTRANSLIT:;
#GENRE:Hardcore;
#CREDIT:;
#BANNER:izana-bn.png;
#BACKGROUND:izana-bg.png;
#LYRICSPATH:;
#CDTITLE:;
#MUSIC:IZANA.mp3;
#OFFSET:-0.040000;
#SAMPLESTART:8.680000;
#SAMPLELENGTH:11.999990;
#SELECTABLE:YES;
#BPMS:0.000000=111.000000
,16.000000=444.000000
,72.000000=222.000000
,76.000000=444.000000
,132.000000=222.000000
,135.000000=444.000000
,137.000000=222.000000
,137.500000=444.000000
,139.500000=222.000000
,140.000000=444.000000
,141.000000=222.000000
,141.500000=444.000000
,143.500000=222.000000
,144.000000=444.000000
,146.000000=222.000000
,147.000000=444.000000
,149.000000=222.000000
,149.500000=444.000000
,151.500000=222.000000
,152.000000=444.000000
,153.000000=222.000000
,153.500000=444.000000
,155.500000=222.000000
,158.000000=444.000000
,182.000000=222.000000
,185.000000=888.000000
,189.000000=444.000000
,213.000000=222.000000
,217.000000=444.000000
,233.000000=222.000000
,241.000000=444.000000
,302.000000=111.000000
,334.000000=222.000000
,350.000000=444.000000
,374.000000=222.000000
,378.000000=444.000000
,426.000000=222.000000
,427.500000=444.000000
,429.500000=222.000000
,430.000000=444.000000
,432.000000=222.000000
,432.500000=444.000000
,434.500000=222.000000
,437.000000=444.000000
,499.000000=888.000000
,503.000000=444.000000
,551.000000=222.000000
,552.500000=444.000000
,554.500000=222.000000
,555.000000=444.000000
,557.000000=222.000000
,557.500000=444.000000
,559.500000=222.000000
,562.000000=444.000000
,618.000000=222.000000
,621.000000=444.000000
,623.000000=222.000000
,623.500000=444.000000
,625.500000=222.000000
,626.000000=444.000000
,627.000000=222.000000
,627.500000=444.000000
,629.500000=222.000000
,630.000000=444.000000
,632.000000=222.000000
,633.000000=444.000000
,635.000000=222.000000
,635.500000=444.000000
,637.500000=222.000000
,638.000000=444.000000
,639.000000=222.000000
,639.500000=444.000000
,641.500000=222.000000
,644.000000=444.000000
,668.000000=222.000000
,671.000000=888.000000
,674.000000=222.000000
;
#STOPS:132.000000=0.270000,
146.500000=0.135000,
157.500000=0.135000,
265.000000=0.101000,
265.750000=0.101000,
266.500000=0.101000,
267.250000=0.101000,
618.000000=0.270000,
632.500000=0.135000,
643.500000=0.135000
;
#BGCHANGES:;
#KEYSOUNDS:;
#ATTACKS:;

//---------------dance-single - ----------------
#NOTES:
     dance-single:
     :
     Challenge:
     19:
     1.099836,1.309664,1.129056,0.687252,0.073634,941.000000,803.000000,138.000000,84.000000,0.000000,0.000000,1.099836,1.309664,1.129056,0.687252,0.073634,941.000000,803.000000,138.000000,84.000000,0.000000,0.000000:
0000
0000
0000
0000
,
0000
0000
0000
0000
,
1010
0000
0000
0000
0000
0000
0100
0000
0011
0000
0000
0000
1001
0000
0000
0002
,
2000
0000
0000
3003
1000
0100
0001
0010
,
1000
0000
0000
0000
1000
0100
0010
0100
,
0001
0100
1100
0000
,
0001
0000
0010
0000
0100
0010
0001
0000
,
0101
0000
0001
1000
0100
0000
1000
0000
,
0002
0023
0130
0020
,
0031
1000
1001
0000
0101
0000
1010
0000
,
1100
0000
0000
1000
0001
0000
0010
0000
,
0100
1000
0100
0001
,
0101
0000
0000
1100
0000
0000
0010
0000
,
1000
0010
0001
0010
1000
0000
0000
0000
,
0001
0100
1000
0100
0001
1000
0001
1000
,
0001
0100
0110
0000
,
0100
0010
1001
0000
,
0001
0010
0001
0010
0001
0010
0001
0000
,
2200
3300
0220
0330
0022
0033
0101
0000
,
1001
0000
0000
0000
0001
0100
0010
0100
,
1000
0100
0101
0000
,
0010
0000
1000
0000
0001
0100
1000
0100
,
0001
1000
1001
0000
,
2000
3002
0103
0002
,
1003
0010
1010
0000
0101
0000
1001
0000
,
0100
0000
0000
0010
1000
0000
0001
0000
,
0010
1000
0010
0001
,
1001
0000
1000
0100
0001
0100
1000
0000
,
1010
0000
0001
0100
1000
0100
0001
0000
,
0011
0000
1000
0100
0001
0100
1000
0000
,
1010
0000
0001
0100
1000
0100
0001
0000
,
0100
0001
0100
0010
0100
1000
0100
0001
,
0010
0100
0010
1000
0010
0100
0010
0001
,
2000
0000
0002
0000
0000
3003
2200
0000
,
3300
0000
0000
0000
0010
0000
0022
0000
0000
0000
0033
0000
0000
0000
0001
0100
,
1000
0000
0100
0202
0000
0303
0000
0010
,
2020
0000
3030
0000
0100
0011
0202
0000
,
0303
0000
0000
0000
0010
0000
2020
0000
0000
0000
3030
0000
0000
0000
1000
0010
,
0001
0000
0010
2020
0000
3030
0000
1000
,
0100
0011
0000
1100
0001
0000
0010
0000
,
0001
0010
1000
0000
0001
0000
0100
0000
,
0001
0100
1000
0000
1000
0000
0100
0000
,
1000
0100
0001
0000
1000
0000
0010
0000
,
1000
0010
0001
0000
0100
0010
0001
0010
,
1000
0100
0010
1000
0010
0001
0100
0010
,
0001
0010
1000
0000
0001
0100
1000
0100
,
0001
2002
0000
0000
,
3003
0000
0010
0100
0010
0100
0010
0100
,
0010
0000
1000
0000
0100
0000
0010
0001
,
0010
0001
0010
0000
0000
0001
0100
0000
,
0010
1100
0000
0101
,
0000
0000
0100
0010
0100
0010
0100
0010
,
1000
0000
0001
0000
0100
0000
0010
1000
,
0010
1000
0010
0000
1100
0000
0101
0000
,
1001
0000
0100
0010
0100
0010
0100
0010
,
0100
0010
1000
0000
0010
0000
0100
0001
,
0100
0001
0100
0000
0000
0010
0110
0000
,
1000
0000
0001
0000
0010
0000
0100
1000
,
0100
1000
0100
0000
1000
1100
0000
0001
,
0101
0010
1100
0010
0100
1001
0010
0000
,
1001
0000
0010
1000
0010
1000
0010
1000
,
0001
0010
0001
0000
0100
0000
0001
0010
,
0001
0010
0001
0000
0000
0001
1001
0000
,
0100
0110
0000
1001
,
0000
0000
0010
0001
0010
0001
0010
0001
,
1000
0010
1000
0000
0001
0000
1000
0010
,
1000
0000
0010
0000
1000
0000
0000
1001
0000
0000
0101
0000
0000
0011
0000
0000
,
2002
3003
0220
0330
,
0100
0010
0100
0010
,
0100
0010
1000
0001
,
1000
0001
1000
0001
,
1000
0000
0001
0000
1000
0100
0001
0100
,
1000
0100
0001
0100
1000
0010
0001
0010
,
1000
0010
0001
0010
1000
0100
0001
0100
,
1000
0100
0001
0100
1000
0000
0000
0000
,
0001
0000
0000
0000
1001
0000
0000
1100
,
0101
0000
0000
0000
0000
0000
0000
0000
0010
0000
0000
0000
0001
0000
0000
0001
,
1000
0000
0000
0000
0100
0000
0000
0011
,
1010
0000
0101
0110
,
1010
0000
0000
0000
1200
0000
0010
1000
,
1000
0000
0000
0000
0310
0000
0000
0000
0201
0000
0000
0000
0010
0000
0000
0001
,
0001
0000
0310
0000
2001
0000
0010
0001
,
0100
0000
0000
0000
3010
0000
0000
1000
1002
0000
0000
0000
0010
0000
0200
0000
,
0000
0300
0023
0000
0100
0100
0100
0100
,
0100
0100
0100
0100
0100
0100
0100
0100
,
0100
0100
0100
0100
0130
0000
1000
0100
,
0001
0100
1000
0010
0000
0000
0001
0100
,
1000
0100
0001
0010
0100
0000
1000
0000
,
0100
0001
0010
1000
,
0010
0001
0100
1000
,
0100
0001
0010
1000
,
0010
0000
0001
0000
1000
0100
0010
0001
,
0100
0010
1000
0100
0010
0001
0100
0010
,
1000
0100
0010
0001
1000
0000
0001
0100
,
0101
1000
1010
0000
1002
0000
0000
0000
,
0013
0001
0010
1010
,
0000
0000
0001
0100
1000
0000
0100
0000
,
0001
1000
0010
0000
,
0011
0000
2010
0000
,
3100
0001
0100
1100
,
0000
0000
1000
0100
0001
0000
0100
0000
,
1000
0010
1000
0000
,
1100
0000
0120
0000
,
1030
0010
0001
0101
,
0000
0000
0100
0010
0001
0000
0010
0000
,
1000
0001
1000
0000
,
0110
0000
0000
0000
1001
0000
1010
2200
,
0000
3300
0000
0011
0202
0000
0303
0000
,
0110
2020
0000
3030
0000
0101
0011
0000
,
1001
0201
0000
1300
,
0100
0001
0011
0000
,
1000
0100
0001
0000
0100
0000
1000
0000
,
0010
0101
0000
1100
,
0000
1020
0000
0031
,
0010
1000
1100
0000
,
0001
0100
1000
0000
0001
0000
0100
0000
,
0010
0000
1000
0100
0000
0000
0010
0001
,
0000
0120
0000
0031
,
0010
0000
1000
0000
1001
0001
1000
0000
,
0010
0110
0101
1001
,
0000
0000
1000
0100
0010
0100
1000
0000
,
0010
0001
0010
1000
,
0100
0000
0001
0100
1000
0100
0010
0000
,
0100
0001
0100
1000
0010
0100
1000
0100
,
0001
1000
0001
0000
0000
0000
0220
0000
,
0000
0000
0330
0110
,
0000
0000
1000
0010
0100
0010
0001
0000
,
0010
1010
0000
0001
,
0100
0000
1000
0100
0001
0100
0010
0000
,
0000
1001
0000
0100
,
0011
0001
1000
1010
,
1000
0011
0110
1001
,
1000
0100
0001
0000
1000
0010
0001
0000
,
1000
0001
1000
0011
,
0000
0110
0000
0000
1100
0000
1000
0100
,
0010
0100
0001
0000
0000
0000
1000
0100
,
0001
0100
1000
0010
0100
0000
1001
0000
,
0000
0110
0000
1001
,
1100
2020
0000
3030
0000
0101
0022
0000
,
0033
0000
1001
0202
0000
0303
0000
1100
,
0001
0100
0000
0000
1000
0100
0000
0000
0101
0000
0000
0000
0000
0000
0000
0000
,
1000
0100
0001
0100
1000
0000
0000
0000
,
1100
0000
0001
1000
,
0001
0010
1000
0010
0001
0000
0100
0000
,
0101
0000
0010
0101
,
0010
0000
1000
0000
1100
0000
1000
0001
,
0100
0001
1000
0000
0010
0100
0001
1000
,
0001
0010
0100
1000
0001
0000
0100
0010
,
0100
0010
0100
0010
1010
0000
0100
0010
,
0001
0010
1000
0000
0011
0000
0010
0100
,
0001
0100
1000
0000
1010
0000
0010
0100
,
1000
0100
0001
0000
0011
0000
0010
0100
,
0001
0100
1000
0000
0010
0100
0010
0001
,
0010
0100
0010
0001
0010
1000
0100
0010
,
0100
0001
0100
0010
0200
0000
0020
0000
,
0330
0000
0000
0000
2002
0000
0000
0000
0000
0000
3003
0000
0010
0002
2000
0000
,
0000
0000
3003
0000
0000
0000
0010
2000
0002
0000
0000
0000
3003
0000
0220
0000
,
0000
0000
0000
0000
0330
0000
0010
0200
0002
0000
0000
0000
0303
0000
0000
0000
,
0100
0010
1000
0000
2002
0000
0000
0000
0000
0000
3003
0000
0010
0200
0002
0000
,
0000
0000
0303
0000
0000
0000
0100
0020
0002
0000
0000
0030
0013
2000
0002
0000
,
0000
0000
3003
0000
0000
0000
0100
0001
1000
0000
0011
0000
0000
0000
1100
0000
,
1000
0000
0100
0000
1000
0100
0001
0000
,
1000
0000
0010
0000
1000
0010
0001
0000
,
0001
0000
0010
0000
0001
0010
1000
0000
,
0001
0000
0100
0000
0001
0100
1000
0000
,
0001
0100
1000
0100
0001
0010
1000
0010
,
0001
0100
1000
0100
0001
0010
1000
0010
,
0001
0100
1000
0010
0001
0000
0022
0000
,
0000
0000
0033
0000
;

//---------------dance-single - ----------------
#NOTES:
     dance-single:
     :
     Hard:
     18:
     1.054253,1.309664,1.079967,0.409078,0.044999,902.000000,770.000000,132.000000,50.000000,0.000000,0.000000,1.054253,1.309664,1.079967,0.409078,0.044999,902.000000,770.000000,132.000000,50.000000,0.000000,0.000000:
0000
0000
0000
0000
,
0000
0000
0000
0000
,
1200
0000
0000
0000
0000
0000
0010
0000
0010
0000
0000
0000
1000
0000
0000
0010
,
0010
0000
0000
0000
1300
0100
0001
0010
,
1001
0000
0000
0000
0100
0001
0100
1000
,
0100
0000
1001
0000
,
0001
0000
0010
0000
0100
0010
0001
0010
,
1000
0000
0110
0000
,
1000
0100
0000
0001
,
0100
0000
1000
0001
0100
0001
1000
0000
,
0010
0000
0100
0001
0010
0000
0011
0000
,
1100
0210
0001
1300
,
0100
0000
0000
0001
0000
0000
1010
0000
,
1000
0100
0001
0000
,
0100
0000
1000
0000
0010
0001
0010
0000
,
1000
0000
1001
0000
,
0001
1000
0000
0000
,
0001
1000
0001
1000
0001
1000
0001
0000
,
0102
0003
1200
0300
2010
3000
0021
0030
,
1001
0000
0000
0000
0010
1000
0010
0001
,
0010
0000
1001
0000
,
1000
0000
0100
0000
0010
0100
1000
0100
,
0001
0000
1001
0000
,
0001
0010
0000
1000
,
0010
0000
0001
1000
0010
1000
0001
0000
,
0100
0000
0010
1000
0100
0000
1100
0000
,
0011
0201
0010
1300
,
0010
1000
0001
1000
0010
0000
0110
0000
,
0100
0001
1000
0001
0100
0000
0110
0000
,
1000
0100
0010
0100
1000
0000
1001
0000
,
0001
0100
0010
0100
0001
0000
1001
0000
,
1000
0100
0010
0001
0010
0100
1000
0001
,
0100
0010
1000
0010
0100
0001
1000
0000
,
2002
0000
3003
0000
0100
0010
0100
0010
0100
0010
0100
0000
0002
0000
0000
0000
,
0003
0000
1000
0202
0000
0303
0000
0001
,
1100
0000
0020
0200
0000
0330
0000
0010
,
2020
0000
0000
3030
1100
1001
0202
0000
,
0303
0000
0001
2200
0000
3300
0000
0010
,
1000
0000
0001
0200
0000
0000
0000
0310
,
0100
0101
0000
1010
0020
0000
0000
0000
,
0130
0001
1010
0000
,
0100
1000
0011
0000
,
0100
0001
1010
0000
,
1000
0000
0001
0000
0100
0001
0100
0010
,
0100
1000
0100
0010
0100
0001
0100
0010
,
0100
1000
0100
0010
0100
0001
1000
0010
,
0100
2002
0000
0000
,
3003
0000
0001
0010
0001
0010
0001
0010
,
0001
0010
0001
0000
0100
0000
0010
1000
,
0100
1000
0100
0000
0000
0010
0010
0000
,
0100
1000
0000
1001
,
0000
0000
1000
0010
1000
0010
1000
0010
,
1000
0010
1000
0000
0100
0000
0010
0001
,
0010
0001
0100
0000
1000
0000
0010
0000
,
0001
0000
1000
0100
1000
0100
1000
0100
,
1000
0100
1000
0000
0010
0000
0100
0001
,
0010
0100
0010
0000
0000
0100
1000
0000
,
0010
0000
0100
0000
0001
1000
0001
1000
,
0001
0000
0101
0000
1000
1010
0000
0100
,
0001
0010
0011
0100
1000
0100
1100
0000
,
1001
0000
0001
0100
0001
0100
0001
0100
,
0001
0100
0001
0000
0010
0000
0100
1000
,
0010
0100
0010
0000
0000
0100
0100
0000
,
0001
1000
0000
1001
,
0000
0000
0010
1000
0010
1000
0010
1000
,
0010
1000
0010
0000
0100
0000
0001
1000
,
0010
0000
0100
0000
0010
0000
0000
1001
0000
0000
0110
0000
0000
1001
0000
0000
,
0110
0000
1001
0000
,
1000
0100
1000
0100
,
1000
0100
0010
0001
,
0010
0001
0010
0001
,
0010
0000
0001
0000
1000
0100
0010
0001
,
1000
0100
0010
0001
0100
0010
1000
0001
,
0100
0010
1000
0100
0010
0001
1000
0100
,
0010
0001
0100
0010
1000
0000
0000
0000
,
0001
0000
0000
0000
0110
0000
0000
0010
,
0010
0000
0000
0000
0000
0000
0000
0000
1000
0000
0000
0000
0001
0000
0000
1000
,
1100
0000
0000
0000
0110
0000
0000
0100
,
0100
0000
0001
1000
,
0101
0000
0000
0000
0020
0000
1000
0100
,
0100
0000
0000
0000
1000
0000
0000
0000
0001
0000
0000
0000
1000
0000
0000
0100
,
0100
0000
1000
0000
0001
0000
1000
0100
,
0100
0000
0000
0000
1000
0000
0000
0001
0001
0000
0000
0000
1000
0000
0200
0000
,
0000
0300
1030
0000
1001
0000
0001
0100
,
1000
0100
0001
0100
1000
0000
1000
0100
,
0001
0100
1000
0100
0001
0000
0001
0010
,
1000
0010
0001
0010
1000
0000
1000
0010
,
0001
0010
1000
0010
0001
0100
0010
0000
,
1000
0000
0001
0000
1000
0100
0010
0000
,
0001
0000
1000
0000
0001
0010
0100
0000
,
1000
0000
0001
0000
1000
0010
0100
0000
,
0001
0000
1000
0000
0001
0100
1000
0001
,
0010
1000
0100
0001
1000
0010
0001
0100
,
1000
0001
0010
1000
0001
0000
1000
0100
,
0011
0101
1001
0000
0110
0000
0000
0000
,
0100
0001
1000
1010
,
0000
0000
1000
0100
0001
0000
0100
0000
,
1000
0000
1100
0000
,
0110
0000
0011
0000
,
0010
0001
1000
0011
,
0000
0000
0001
0100
1000
0000
0100
0000
,
0001
0000
0011
0000
,
1010
0000
1001
0000
,
1000
0100
0010
0101
,
0000
0000
1000
0100
0001
0000
0100
0000
,
1000
0000
1100
0000
,
0101
0000
0000
0000
1010
0000
1000
0202
,
0000
0000
0303
0001
2200
0000
0000
3300
,
1000
0022
0000
0000
0033
0001
1010
0000
,
1001
0000
0110
0000
0000
0000
0001
0010
,
1000
0010
0001
0000
1001
0000
0000
0000
,
1000
0010
0001
0010
1000
0000
0001
0000
,
0000
0101
0000
1010
,
0000
0000
1001
0000
0000
0000
0001
0100
,
1000
0100
0001
0000
1001
0000
0000
0000
,
1000
0100
0001
0100
1000
0000
0100
0000
,
0010
0011
0000
1010
,
0000
0000
1001
0000
0000
0000
0001
0010
,
1000
0010
0001
0000
1001
1000
0001
0000
,
1010
0101
1010
1001
,
0000
0000
1001
0000
1000
0010
0001
0000
,
1010
1001
0101
0110
,
1001
0000
1000
0010
0001
0010
1000
0000
,
0001
0100
0010
0001
0010
1000
0100
0010
,
1000
0010
0001
0000
0000
0000
2020
0000
,
0000
0000
3030
1001
,
0000
0000
1000
0100
0001
0100
1000
0000
,
0000
0110
0000
0001
,
0100
0010
0001
0010
1000
0000
0001
0000
,
0000
1001
0000
1000
,
0010
0000
0001
0010
,
1000
0100
0001
0100
1000
0000
1001
0000
,
0000
0010
0100
0000
0001
0010
1000
0000
,
0010
0001
1000
1010
,
0000
0110
0000
0000
0101
0000
0001
0000
,
1000
0001
0000
1000
,
0100
0000
0010
1000
0010
0001
1000
0000
,
0000
1001
0000
0110
,
0001
2200
0000
0000
3300
0010
0202
0000
,
0000
0303
1000
0220
0000
0000
0330
0010
,
1100
1001
1100
0000
,
0001
0100
1000
0100
0001
0000
0000
0000
,
0110
0000
0001
0100
,
0010
0001
0010
1000
0001
0000
0000
0000
,
1001
0000
0001
0100
,
0000
0000
1000
0000
0100
0000
0001
1000
,
0001
1000
0001
0000
1001
0000
0000
0100
,
0010
0000
1000
0100
0001
0000
0100
0000
,
1000
0000
0001
0000
1001
0000
1000
0010
,
0001
0010
1000
0000
1001
0000
0001
0010
,
1000
0010
0001
0000
1001
0000
1000
0100
,
0001
0100
1000
0000
1001
0000
0001
0100
,
1000
0100
0001
0000
1000
0100
0010
0001
,
0100
0010
1000
0100
0010
0001
0100
0010
,
1000
0100
0010
0001
2000
0000
0002
0000
,
3000
0003
2200
0000
3300
0000
1000
0101
,
0000
0000
0000
0000
0000
0000
0001
1000
0001
0000
0000
0000
0100
0000
0202
0000
,
0000
0303
0000
0001
1100
0000
0000
0000
,
1000
0001
0022
0000
0033
0000
0001
1010
,
0000
0000
0000
0000
0000
0000
1000
0001
1000
0000
0000
0000
1000
0000
0101
0000
,
0000
0000
0000
0010
1000
1010
0000
0101
,
1100
0000
0000
0000
0010
0001
1000
0000
,
0101
0000
0010
1000
,
1100
0000
0000
0000
0010
1000
0001
0000
,
1100
0000
0010
1000
,
0001
0100
1000
0001
0010
1000
0100
0001
,
1000
0010
0001
0100
1000
0001
0010
1000
,
0001
0010
1000
0100
0001
0000
2002
0000
,
0000
0000
3003
0000
;

//---------------dance-single - ----------------
#NOTES:
     dance-single:
     :
     Medium:
     15:
     0.726991,1.171805,0.621799,0.376352,0.016363,622.000000,546.000000,76.000000,46.000000,0.000000,0.000000,0.726991,1.171805,0.621799,0.376352,0.016363,622.000000,546.000000,76.000000,46.000000,0.000000,0.000000:
0000
0000
0000
0000
,
0000
0000
0000
0000
,
0002
0000
0000
0000
0003
0000
0010
0000
0200
0000
0000
0000
2300
0000
0000
0100
,
3020
0000
0000
0000
0031
0100
1000
0010
,
0001
0000
0000
0000
0100
0010
0100
0010
,
0100
0000
1001
0000
,
0010
1000
0001
0100
,
0010
0000
0101
0000
,
0010
0020
0000
1000
,
2030
0100
0100
3100
,
0010
0000
0000
0001
1000
0000
0001
0000
,
0100
0010
1000
0010
,
1000
0000
0000
0100
0000
0000
0010
0000
,
0011
0000
0101
0000
,
0010
0000
1000
0000
0001
1000
0001
1000
,
0001
0000
0110
0000
,
0100
0200
0000
0000
,
0010
0000
0010
0000
,
0310
1000
0001
0110
,
1001
0000
0000
0000
1000
0100
1000
0100
,
1000
0000
0010
0000
,
0100
0001
0010
0001
,
1000
0000
1001
0000
,
0010
0020
0000
0100
,
0230
0001
0001
0301
,
0010
0000
0000
0100
0000
0000
1000
0000
,
0010
0100
0001
0100
,
0101
0000
0010
1000
,
1010
0000
1000
0100
,
1100
0000
0010
0001
,
0011
0000
0100
0001
,
1000
0010
1000
0010
,
1000
0010
1000
0010
,
0200
0000
0000
0302
,
0000
0003
0001
1000
0000
0000
0000
0000
,
0000
0000
0000
2000
0000
0000
3000
1000
,
0001
0000
0000
0020
,
0000
0030
0010
0100
0000
0000
0000
0000
,
0000
0000
0000
0200
0000
0000
0300
0001
,
1000
0010
0000
1001
2000
0000
0000
0000
,
3010
0001
1010
0000
,
0010
1000
0011
0000
,
0100
1000
0101
0000
,
0010
0000
0010
0000
1000
0100
0010
0001
,
0100
0010
1000
0100
0010
0001
0100
0010
,
1000
0100
0010
0001
0100
0100
0100
0100
,
0100
0220
0000
0000
,
0330
2002
0000
3003
,
1000
0010
1000
0010
1000
0000
0001
0000
,
0100
0010
0000
0010
,
0100
0001
0000
1100
,
0000
2002
0000
3003
,
0001
0100
0001
0100
0001
0000
1000
0000
,
0010
0000
0200
0300
0200
0300
0200
0300
,
0110
2002
0000
3003
,
0001
0010
0001
0010
0001
0000
1000
0010
,
1000
0010
1000
0000
0000
0010
0100
0000
,
0001
1000
0000
0101
,
0000
0000
1001
0000
0001
0020
0000
1030
,
0010
0001
0100
1000
0100
0001
1000
0000
,
0101
2020
0000
3030
,
1000
0100
1000
0100
1000
0000
0001
0000
,
0100
1010
0000
1000
,
0001
0100
0000
0101
,
0000
0022
0000
0033
,
0001
1000
0001
1000
0001
0000
0100
0000
,
0010
2000
0000
0000
,
3000
0000
2002
0000
,
0000
0000
0000
0000
,
0000
0003
0020
0000
,
0000
0000
0000
0000
,
0000
0000
3000
0000
0130
0010
0100
0010
,
0100
0010
0100
0010
1000
0001
1000
0001
,
1000
0001
1000
0001
0100
0010
0100
0010
,
0100
0010
0100
0010
0100
0000
0000
0000
,
0010
0000
0000
0000
1001
0000
0000
1000
,
0100
0000
0000
0000
0000
0000
0000
0000
0010
0000
0000
0000
0001
0000
0000
0100
,
0010
0000
0000
0000
1001
0000
0000
0001
,
0100
0000
0010
1000
,
0100
0000
0000
0000
0020
0000
0130
0010
,
0010
0000
0000
0000
1001
0000
0000
0000
0200
0000
0000
0000
0310
0000
0000
1000
,
0010
0000
1001
0000
0100
0000
2000
0010
,
3100
0000
0000
0000
1001
0000
0000
0001
2000
0000
0000
0000
0000
0000
0010
0000
,
0000
0000
0002
0000
3003
0000
0001
0100
,
1000
0100
0001
0100
1000
0000
1000
0100
,
0001
0100
1000
0100
0001
0000
0001
0010
,
1000
0010
0001
0010
1000
0000
1000
0010
,
0001
0010
1000
0010
0001
0000
0000
0000
,
1000
0100
0011
0000
,
0001
0100
1010
0000
,
1000
0100
0011
0000
,
0100
0010
1000
0000
,
0001
0000
0100
0000
,
0010
0000
0000
0000
1001
0000
1000
0100
,
0001
0100
1000
0000
1001
0000
0000
0000
,
1000
0100
0010
0001
,
0000
0100
0000
0010
,
0000
0000
1000
0000
,
0001
0000
0000
0000
,
0001
0010
0100
1000
,
0000
0010
0000
0100
,
0000
0000
0001
0000
,
1000
0000
0000
0000
,
1000
0001
0100
0010
,
0000
0100
0000
0001
,
0000
0000
1000
0000
,
0010
0000
0000
0000
1010
0000
0000
1010
,
0000
0000
0101
0000
,
0000
0101
0000
0000
0000
0000
1000
0000
,
0001
1001
0000
0010
,
0100
0001
1000
0000
,
0100
0000
1000
0000
,
0000
0010
0000
0100
,
0000
0000
0000
0001
,
1000
0100
0010
0000
,
0100
0000
1000
0000
,
0000
0000
1000
0010
0000
0000
0100
0001
,
0000
0000
0000
0010
,
0001
0000
1000
0000
0100
0010
0001
0000
,
1000
1000
1000
0010
,
0000
0000
0100
0000
0001
1000
0001
0000
,
0100
0010
1000
0010
,
1000
0000
0100
0010
0100
0010
0100
0000
,
0010
0001
0010
0001
0010
0000
0001
1000
,
0001
1000
0001
0000
0000
0000
2002
0000
,
0000
0000
3003
1001
,
0000
0000
1000
0100
0010
0100
1000
0000
,
0000
0101
0000
0001
,
0010
0100
1000
0010
,
0000
0101
0000
0010
,
0100
0000
0010
0100
,
1000
1000
1000
0010
,
0000
0100
0001
0000
0100
0000
0010
0000
,
1000
0001
1000
0001
,
0000
0100
0000
0000
0010
0000
1000
0000
,
0000
0101
0000
0100
,
0010
0000
1000
0001
1000
0001
1000
0000
,
0000
0110
0000
1100
,
0000
1100
0000
0000
0000
0000
0011
0000
,
0000
0000
0000
0011
0000
0000
0000
0000
,
0001
1000
1001
0000
,
0001
0100
0001
0100
0001
0000
0000
0000
,
1010
0000
1000
0100
,
0010
0001
0100
0000
,
0101
0000
0010
1000
,
0000
1000
0100
0010
,
0010
0000
0010
0000
0001
0000
0000
1000
,
0010
0100
0001
0010
,
0100
1000
1100
0000
,
0000
0000
0011
0000
,
0000
0000
1001
0000
,
0000
0000
0110
0000
,
0000
0000
0100
0010
,
0100
0010
1000
0001
,
1000
0001
2002
0000
,
3003
0000
0101
0000
0000
0000
0000
1001
,
0000
0000
0000
0000
0000
0000
0000
1100
,
0000
0000
1001
0000
,
0000
0000
0110
0000
0000
0000
0000
0101
,
0000
0000
0000
0000
0000
0000
0000
0110
,
0000
0000
1010
0000
,
1100
0000
1000
0100
,
0011
0000
0001
0100
,
1010
0000
1000
0001
,
0110
0000
1000
0001
,
1000
0100
0001
0100
,
1000
0010
0001
0010
,
1000
0010
0001
0010
1000
0000
2002
0000
,
0000
0000
3003
0000
;

//---------------dance-single - ----------------
#NOTES:
     dance-single:
     :
     Beginner:
     8:
     0.298043,0.620367,0.237265,0.171813,0.000000,255.000000,226.000000,29.000000,21.000000,0.000000,0.000000,0.298043,0.620367,0.237265,0.171813,0.000000,255.000000,226.000000,29.000000,21.000000,0.000000,0.000000:
0000
0000
0000
0000
,
0000
0000
0000
0000
,
1001
0000
0110
0000
,
1001
0000
0010
0010
,
0010
0000
0000
0000
,
1000
0000
0000
0000
,
0001
0000
1000
0000
,
0010
0000
0000
0000
,
0100
0000
0000
0000
,
0100
0000
0000
0000
,
0100
0000
0001
0000
,
1000
0000
0000
0000
,
0010
0000
0000
0000
,
1000
0000
1000
0000
,
1000
0000
0000
0000
,
0001
0000
0001
0000
,
0100
0000
0000
0000
,
0200
0000
0000
0300
,
0100
0100
0100
0100
,
0100
0000
0000
0000
,
0010
0000
0000
0000
,
0100
0000
0001
0000
,
0010
0000
0000
0000
,
0100
0000
0000
0000
,
0100
0000
0000
0000
,
1000
0000
0010
0000
,
0100
0000
0000
0000
,
0110
0000
0000
0000
,
1001
0000
0000
0000
,
0110
0000
0000
0000
,
1001
0000
0000
0000
,
0010
0000
0010
0000
,
0010
0000
0010
0000
,
0010
0000
0000
2000
,
0000
3000
0000
0000
,
0000
0000
0000
0000
,
0200
0300
0000
0020
,
0000
0030
0000
0000
,
0002
0000
0003
0000
,
0000
0000
1001
0000
,
0000
0000
0110
0000
,
0000
0000
1001
0000
,
0000
0000
0110
0000
,
0000
0000
1001
0000
,
0110
0000
1001
0000
,
0110
0000
1000
1000
,
1000
1000
0000
0000
,
0000
0002
0000
0003
,
0000
0100
0000
0000
,
0000
0010
0000
0000
,
0000
0100
0000
0000
,
0000
0020
0000
0030
,
0000
1000
0000
0100
,
0000
1000
0000
0000
,
0000
2000
0000
3000
,
0000
0010
0000
0000
,
0000
0100
0000
0000
,
0000
0010
0000
0000
,
0000
1000
0000
0100
,
0000
0001
0000
0010
,
0010
0020
0000
0030
,
0000
2000
0000
3000
,
0000
0001
0000
0000
,
0000
0100
0000
0000
,
0000
0020
0000
0030
,
0000
0100
0000
0000
,
0000
0220
0000
0000
,
0330
0000
2002
0000
,
0000
0000
0000
0000
,
0000
0000
0000
0000
,
0000
0000
0000
0000
,
0000
0000
0000
0000
,
0000
0000
0000
0000
,
0000
0000
0000
0000
,
3003
0000
0100
0000
,
0100
0000
0100
0000
,
0010
0000
0100
0000
,
0010
0000
0100
0000
,
0010
0000
0100
0100
,
0100
0000
0001
0000
,
1000
0000
0001
0000
,
1000
0000
0001
0000
,
1000
0000
0001
0000
,
0000
0000
0000
0100
,
0100
0100
0000
0010
,
0010
0010
0000
1000
,
1000
1000
0000
0001
,
0001
0001
0001
0000
,
0000
0000
0100
0000
,
0000
0000
0010
0000
,
0000
0000
1000
0000
,
0000
0000
0001
0000
,
1000
0000
0001
0000
,
1000
0000
0001
0000
,
0000
0000
0110
0000
,
0010
0000
1000
0000
,
0000
0000
0100
0000
,
0010
0000
0001
0000
,
0001
0000
0000
0000
,
1000
0000
0010
0000
,
0000
0000
0100
0000
,
0010
0000
1000
0000
,
1000
0000
0000
0000
,
0010
0000
1000
0000
,
0000
0000
0001
0000
,
0100
0000
0010
0000
,
0010
0000
0000
0000
0020
0000
0000
0030
,
0000
0000
0000
0000
,
0000
0000
0000
0000
,
0000
0000
0000
0100
,
0000
0001
0000
0000
,
0000
1000
0000
0010
,
0000
1000
0000
1000
,
0000
0000
0000
0001
,
0000
0100
0000
0000
,
0000
0010
0000
0000
,
0000
0100
0000
0100
,
0000
0000
0000
0001
,
0000
1000
0000
0010
,
0000
1000
0000
0001
,
0000
0100
0000
0100
,
0000
0100
0000
0010
,
0000
1000
0000
0001
,
0000
0100
0000
0010
,
0000
1000
0000
2000
,
0000
0000
0000
3000
,
0000
1000
0000
0001
,
0000
0100
0000
0010
,
0000
0100
0000
0001
,
0000
1000
0000
0010
,
0000
0000
0000
0010
,
0000
0000
0000
0100
,
0000
0100
0000
0100
,
0000
0000
0000
0001
,
0000
0010
0000
0100
,
0000
0100
0000
1000
,
0000
0010
0000
0100
,
0000
0100
0000
0110
,
0000
0000
0000
0000
,
0000
0000
0000
0000
,
0000
0000
0000
0000
,
0001
0000
1000
0000
,
1000
0000
0010
0000
,
0100
0000
0001
0000
,
0001
0000
0010
0000
,
0000
0000
0010
0000
,
0000
0000
0100
0000
,
0100
0000
0100
0000
,
0000
0000
1001
0000
,
0000
0000
0110
0000
,
0000
0000
1001
0000
,
0000
0000
0110
0000
,
0000
0000
1000
0000
,
1000
0000
0001
0000
,
0001
0000
1001
0000
,
0000
0020
0000
0030
,
0000
0000
0000
0000
,
0000
0000
0000
0000
,
0000
0002
0000
0003
,
0000
0000
0000
0000
,
0000
0000
0000
0000
,
1001
0000
0000
0000
,
0110
0000
0000
0000
,
1001
0000
0000
0000
,
0110
0000
0000
0000
,
0010
0000
0010
0000
,
0010
0000
0010
0000
,
0010
0000
0000
0220
,
0000
0000
0330
0000
;

//---------------dance-single - ----------------
#NOTES:
     dance-single:
     :
     Easy:
     13:
     0.481544,1.033945,0.433623,0.376352,0.016363,412.000000,359.000000,53.000000,46.000000,0.000000,0.000000,0.481544,1.033945,0.433623,0.376352,0.016363,412.000000,359.000000,53.000000,46.000000,0.000000,0.000000:
0000
0000
0000
0000
,
0000
0000
0000
0000
,
1001
0000
0000
0000
0000
0000
0010
0000
0100
0000
0000
0000
1000
0000
0000
1000
,
0001
0000
0000
0000
0100
0100
0100
0110
,
1001
0000
0001
0010
,
0001
0000
1001
0000
,
1000
0010
1000
0010
,
1000
0000
1001
0000
,
0001
0100
0000
0100
,
0001
0000
1000
0000
,
0001
0000
0100
0000
,
0010
0000
1010
0000
,
1000
0000
0000
0000
,
0100
0000
0010
0000
,
0011
0000
0000
0000
,
0001
0000
1000
0000
,
0110
0000
0000
0000
,
0010
0000
0010
0000
,
0100
0001
1000
0010
,
1000
0000
0100
1000
,
0010
0000
0101
0000
,
0100
0001
1000
0010
,
0100
0000
0110
0000
,
0100
0001
0000
0001
,
1000
0000
0000
0000
,
0010
0000
1000
0000
,
0001
0000
0000
0000
,
1001
0000
0000
0000
,
0110
0000
0000
0000
,
0101
0000
0000
0000
,
1010
0000
0000
0000
,
1000
0000
0100
0000
,
0010
0000
0001
0000
,
1001
0000
0000
2000
,
0000
0000
3000
0000
,
0000
0000
0000
0002
0000
0000
0000
0000
,
0000
0000
0000
0003
0000
0000
0200
0000
,
0000
0300
0000
0000
,
0000
0000
0000
0020
0000
0000
0000
0030
,
0000
0000
1100
0000
,
0000
0000
0110
0000
,
0000
0000
0011
0000
,
0000
0000
1001
0000
,
0000
0000
0001
0000
,
0100
0000
0010
0000
,
1000
0000
0000
0000
1000
0001
1000
0001
,
1000
0220
0000
0000
,
0330
0202
0000
0000
,
0303
0001
0010
0100
,
0010
0001
0000
1000
,
0100
0010
0000
0001
,
0000
2002
0000
0000
,
3003
1000
0100
0010
,
0100
1000
0000
0000
,
0000
0220
0000
0000
,
0330
0010
1000
0001
,
1000
0010
0000
0100
,
0001
1000
0000
1001
,
0000
0000
0020
0000
0130
0020
0000
1030
,
0001
0100
0010
1000
0010
1000
0010
0000
,
1001
2200
0000
0000
,
3300
1000
0100
0010
,
0001
1000
0000
0001
,
1000
0001
0000
1100
,
0000
2002
0000
0000
,
3003
0001
0010
0100
,
1000
0002
0000
0000
,
0003
0000
0002
0000
,
0000
0000
0000
0000
,
0000
0000
2003
0000
,
0000
0000
0000
0000
,
0000
0000
3020
0000
,
0000
0000
0000
0000
,
0000
0000
0000
0000
,
0000
0000
0130
0000
,
0010
0000
0000
0000
1001
0000
0000
1000
,
0100
0000
0000
0000
0000
0000
0000
0000
0010
0000
0000
0000
0001
0000
0000
0001
,
1000
0000
0000
0000
1001
0000
0000
0001
,
0100
0000
0010
1000
,
0100
0000
0000
0000
0220
0000
0330
0002
,
2000
0000
0000
0000
3003
0000
0000
0000
0101
0000
0000
0000
0010
0000
0000
0010
,
2000
0000
3000
0000
2002
0000
3003
0100
,
0020
0000
0000
0000
0031
0000
0000
0001
2000
0000
0000
0000
0000
0000
0002
0000
,
0000
3003
2002
0000
3003
0000
0001
0100
,
0010
1000
0010
0100
0001
0000
1000
0100
,
0010
0001
0010
0100
1000
0000
0001
0100
,
0010
1000
0010
0100
0001
0000
1000
0100
,
0010
0001
0010
0100
1000
0000
0000
0000
,
0000
0000
1000
0000
,
0000
0000
0001
0000
,
0000
0000
0001
0000
,
0000
0000
0100
0000
,
0010
0000
0100
0000
,
0010
0000
0110
0000
,
0000
0000
1001
0000
,
1000
0100
0010
0001
,
0000
1000
0000
0001
,
0000
0000
1000
0000
,
0001
0000
0000
0000
,
0001
0010
0100
1000
,
0000
0001
0000
1000
,
0000
0000
0001
0000
,
1000
0000
0000
0000
,
1000
0001
0100
0010
,
0000
0100
0000
0010
,
0000
0000
0100
0000
,
0010
0000
0000
0000
2000
0000
0000
3000
,
0000
0000
0002
0000
,
0003
0000
0000
0100
,
0010
1001
0000
0001
,
0100
0010
1000
0000
,
1000
0000
0010
0000
,
0000
0100
0000
0001
,
0000
0000
0000
1000
,
0100
0010
0001
0000
,
0001
0000
1000
0000
,
0000
0010
0000
0010
,
0000
0000
0000
1000
,
0001
0100
0010
0000
,
0100
0001
0100
0000
,
0000
0010
0000
0010
,
0000
1000
0000
0100
,
0000
0010
0000
0001
,
0000
0000
0001
0100
,
0010
1000
0000
2002
,
0000
0000
3003
1100
,
0000
1000
0100
0010
,
0000
0011
0000
0001
,
0000
0100
0000
0010
,
0000
1010
0000
1000
,
0001
0000
0001
1000
,
0000
0010
0000
0100
,
0000
0010
0000
1001
,
0000
0100
0000
0010
,
0000
0001
0000
1000
,
0000
1000
0000
0010
,
1000
0010
0100
0001
,
0000
1001
0000
2000
,
0000
3000
0000
0000
0000
0000
0002
0000
,
0000
0000
0000
0003
0000
0000
0000
0000
,
0100
0010
1001
0000
,
0001
0010
0100
0000
,
1100
0000
1000
0000
,
0010
0000
0100
0000
,
0101
0000
0001
1000
,
0000
1000
0001
0000
,
0100
0000
0010
0000
,
0100
0000
1001
0000
,
0010
0000
0100
0000
,
0001
0000
1000
0000
,
0010
0000
0100
0000
,
0010
0000
1000
0000
,
0001
0000
0010
0100
,
0010
0100
0010
0100
,
0010
0000
0110
0000
,
0000
2000
0000
3000
,
0000
0000
0000
0000
0000
0000
0000
0002
,
0000
0000
0003
0000
,
0000
0200
0000
0300
,
0000
0000
0000
0000
0000
0000
0000
0020
,
0000
0000
0000
0030
0000
0000
0000
0000
,
1001
0000
0000
0000
,
0101
0000
0000
0000
,
1001
0000
0000
0000
,
1100
0000
0000
0000
,
1000
0000
0100
0000
,
0001
0000
0010
0000
,
1000
0100
0001
0010
1000
0000
2002
0000
,
0000
0000
3003
0000
;

//---------------dance-double - ----------------
#NOTES:
     dance-double:
     :
     Easy:
     13:
     0.513101,1.033945,0.417260,0.417260,0.020454,439.000000,388.000000,51.000000,51.000000,0.000000,0.000000,0.513101,1.033945,0.417260,0.417260,0.020454,439.000000,388.000000,51.000000,51.000000,0.000000,0.000000:
00000000
00000000
00000000
00000000
,
00000000
00000000
00000000
00000000
,
00002002
00000000
00000000
00000000
00003003
00000000
00000010
00000000
00000100
00000000
00000000
00000000
00000001
00000000
00000000
00000002
,
00002000
00000000
00000000
00000000
00003003
00000000
00000000
00000000
00000001
00000000
00000100
00000000
00001000
00000000
00010000
01000000
,
10000000
00000000
00100000
01000000
,
00010000
00000000
11000000
00000000
,
00100000
01000000
00010000
01000000
,
00100000
00000000
10000000
00000000
,
01000000
00010000
00000000
01000000
,
00010000
00000000
00001000
00000100
,
00000001
00000000
00001000
00000000
,
00000001
00000000
00000100
00000000
,
00000010
00000000
00001000
00000000
,
00000010
00000100
00000001
00000000
,
00000100
00000000
00000010
00000000
,
00001100
00000000
00000001
00000000
,
00000100
00001000
00000000
00000000
,
00010000
01000000
10000000
00100000
,
02000000
03020000
20030000
30200000
,
10300000
00000000
01000000
00010000
,
00001000
00000000
00000100
00000000
,
00000001
00001000
00000001
00000100
,
00000001
00000000
00001100
00000000
,
00000001
00001000
00000000
00000001
,
00001000
00000000
00000010
00000000
,
00000100
00000000
00000101
00000000
,
00000010
00000000
00001000
00000000
,
00001010
00000000
00000000
00000000
,
00000101
00000000
00000000
00000000
,
00001001
00000000
00000000
00000000
,
00010100
00000000
00000000
00000000
,
00000100
00000000
00000100
00000000
,
00010000
00000000
00010000
00000000
,
00011000
00000000
00000000
00200000
,
00000000
00300000
00000000
00000000
,
00000000
00000000
00000000
02000000
00000000
00000000
00000000
00000000
,
03000000
00000000
00000000
20000000
,
00000000
30000000
00000000
00000000
,
00000000
00000000
00000000
00020000
00000000
00000000
00000000
00030000
,
00000000
00000000
11000000
00000000
,
00000000
00000000
10010000
00000000
,
00000000
00000000
01010000
00000000
,
00000000
00000000
00101000
00000000
,
00000000
00000000
00001000
00000000
,
00010000
00000000
00000010
00000000
,
00000100
00000000
00000000
00000000
00000001
00000100
00001000
00000100
,
00000001
00002002
00000000
00000000
,
00003003
00020020
00000000
00000000
,
00030030
00010000
00001000
01000000
,
00100000
10000000
00000000
00010000
,
10000000
00010000
00000000
10010000
,
00000000
22000000
00000000
00000000
,
33000000
10000000
01000000
00010000
,
00001000
00000100
00000100
00000001
,
00000001
00002002
00000000
00000000
,
00003003
00000001
00000100
00000010
,
00001000
00000001
00000000
00001000
,
00000001
00001000
00000000
00001001
,
00000000
00000000
00000020
00000000
00000130
00000020
00000000
00000031
,
00000100
00001000
00010000
01000000
10000000
01000000
00010000
00000000
,
10010000
20200000
00000000
00000000
,
30300000
10000000
00100000
01000000
,
00010000
10000000
00000000
00010000
,
10000000
00010000
00000000
11000000
,
00000000
00220000
00000000
00000000
,
00330000
01000000
00100000
00010000
,
00001000
00000020
00000000
00000000
,
00000000
00000000
00000032
00000000
,
00000000
00000000
00000000
00000000
,
00000000
00000000
00002003
00000000
,
00000000
00000000
00000000
00000000
,
00000000
00000000
00003200
00000000
,
00000000
00000000
00000000
00000000
,
00000000
00000000
00000000
00000000
,
00000000
00000000
00010300
00000000
,
00001000
00000000
00000000
00000000
00011000
00000000
00000000
00100000
,
01000000
00000000
00000000
00000000
00000000
00000000
00000000
00000000
10000000
00000000
00000000
00000000
00010000
00000000
00000000
10000000
,
00010000
00000000
00000000
00000000
11000000
00000000
00000000
10000000
,
00010000
00000000
02000000
03200000
,
00320000
00000000
00030000
00000000
00011000
00000000
00010000
00001000
,
00000010
00000000
00000000
00000000
00000011
00000000
00000000
00000000
00000001
00000000
00000000
00000000
00001000
00000000
00000000
00000001
,
00000100
00000000
00001100
00000000
00001000
00000000
00010000
01000000
,
10000000
00000000
00000000
00000000
00100000
00000000
00000000
01000000
00100000
00000000
00000000
00000000
10000000
00000000
00010000
00000000
,
10000000
00000000
20020000
00000000
30030000
00000000
10000000
01000000
,
00100000
00010000
00100000
01000000
10000000
00000000
10000000
01000000
,
00010000
00001000
00000100
00000001
00001000
00000000
00001000
00000100
,
00000010
00000001
00000010
00000100
00001000
00000000
00000001
00000100
,
00001000
00010000
01000000
10000000
00100000
00000000
00000000
00000000
,
01000000
00000000
00010000
00000000
,
10000000
00000000
01000000
00000000
,
00010000
00000000
00001000
00000000
,
00000010
00000000
00000001
00001000
,
00000001
00001000
00000001
00001000
,
00000001
00001000
00001001
00000000
,
00000000
00000000
00010100
00000000
,
00010000
00000100
00001000
00000100
,
00000000
00010000
00000000
00001000
,
00000000
00000000
00010000
00000000
,
00001000
00000000
00000000
00000000
,
01000000
00001000
00010000
00001000
,
00000000
01000000
00000000
00100000
,
00000000
00000000
01000000
00000000
,
00100000
00000000
00000000
00000000
,
10000000
01000000
00100000
00010000
,
00000000
10000000
00000000
00010000
,
00000000
00000000
00010000
00000000
,
10000000
00000000
02000000
00000000
,
03000000
00000000
00200000
00000000
,
00000000
00300000
00000000
00000000
00000000
00000000
00010000
00000000
,
10000000
10010000
00000000
00100000
,
00001000
00010000
00001000
00000000
,
00010000
00000000
00000100
00000000
,
00000000
00010000
00000000
00000100
,
00000000
00000000
00000000
00001000
,
00000010
00001000
00000010
00000000
,
00000100
00000000
00000001
00000000
,
00000000
00000001
00000000
00001000
,
00000000
00000000
00000000
00000001
,
00000010
00000100
00001000
00000000
,
00001100
00000000
00010100
00000000
,
00000000
00010000
00000000
00001000
,
00000000
00022000
00000000
00000000
,
00000000
00033000
00000000
00000000
,
00000000
00000000
00001000
00100000
,
01000000
10000000
00000000
22000000
,
00000000
00000000
33000000
10010000
,
00000000
10000000
01000000
00010000
,
00000000
00001000
00000000
00000100
,
00000001
00000100
00000001
00000100
,
00000000
00000101
00000000
00000001
,
00001000
00000000
00000001
00001000
,
00000000
00000000
00000000
00000010
,
00000000
00000100
00000000
00001001
,
00000000
00000000
00000000
00000010
,
00000000
00010000
00000000
00000100
,
00000000
00001000
00000000
00000010
,
00000100
00000001
00001000
00000001
,
00000000
00001001
00000000
00000020
,
00000000
00000030
00000000
00000000
00000000
00000000
00020000
00000000
,
00000000
00030000
00000000
00000000
,
00001000
00010000
00011000
00000000
,
00001000
00100000
01000000
00000000
,
11000000
00000000
10000000
00100000
,
00010000
00001000
00000010
00000000
,
00000011
00000000
00000001
00000100
,
00000000
00001000
00010000
00000000
,
01000000
00000000
10000000
00000000
,
10000000
00000000
10010000
00000000
,
00000000
00000000
01010000
00000000
,
00000000
00000000
10100000
00000000
,
00000000
00000000
10010000
00000000
,
00000000
00000000
01001000
00000000
,
00000000
00000000
00001000
00010000
,
00001000
00010000
00001000
00010000
,
00001000
00010000
00011000
00000000
,
00000000
00000200
00000000
00000300
,
00000000
00000000
00000000
00000000
00000020
00000000
00000000
00000030
,
00000000
00000000
00000000
00000000
,
00000000
00000000
00000002
00000000
00000000
00000003
00000000
00000000
,
00000000
00000000
00000000
00000000
00002000
00000000
00000000
00003000
,
00000000
00000000
00000000
00000000
00000000
00000100
00000000
00000100
,
00011000
00000000
00001000
00100000
,
01000000
00000000
10000000
00100000
,
01000000
00000000
00001000
00010000
,
00000100
00000000
00000010
00000001
,
00000010
00000000
00000010
00000000
,
00000001
00000000
00000001
00000000
,
00000200
00002300
00023000
00230000
,
00000000
00000000
00300000
00000000
;

//---------------dance-double - ----------------
#NOTES:
     dance-double:
     :
     Medium:
     15:
     0.760886,1.171805,0.523620,0.515439,0.016363,651.000000,587.000000,64.000000,63.000000,0.000000,0.000000,0.760886,1.171805,0.523620,0.515439,0.016363,651.000000,587.000000,64.000000,63.000000,0.000000,0.000000:
00000000
00000000
00000000
00000000
,
00000000
00000000
00000000
00000000
,
20020000
00000000
00000000
00000000
30030000
00000000
00010000
00000000
20000000
00000000
00000000
00000000
31000000
00000000
00000000
00010000
,
00002000
00000000
00003000
00000000
00000100
00000001
00001000
00000010
,
00001001
00000000
00000000
00000000
00000001
00000100
00000001
00000100
,
00000001
00000000
00001001
00000000
,
00000001
00000100
00001000
00010000
,
01000000
00000000
11000000
00000000
,
10000000
00010000
00000000
00010000
,
10000000
00100000
01000000
00100000
,
10000000
00000000
00000000
01000000
00000000
00000000
00100000
00000000
,
00010000
10000000
00010000
10000000
,
10010000
00000000
00000000
00100000
00000000
00000000
00001000
00000000
,
00010000
00000000
00000100
00000000
,
00001000
00000010
00000100
00000001
,
00000010
00000000
00001100
00000000
,
00000001
00001000
00000000
00000000
,
00001000
00000001
00001000
00000001
,
00000200
00002300
00023000
02030000
,
23000000
00000000
30010000
00100000
,
01000000
00000000
11000000
00000000
,
10000000
01000000
00010000
00001000
,
00000010
00000000
00000011
00000000
,
00000001
00001000
00000000
00001000
,
00000001
00000000
00000100
00000000
,
00001000
00000000
00000000
00010000
00000000
00000000
01000000
00000000
,
10000000
00100000
01000000
00010000
,
10000000
00000000
10000000
00010000
,
01000000
00000000
01000000
00100000
,
10000000
00000000
10000000
01000000
,
00010000
00000000
00010000
00001000
,
00000100
00000000
00000001
00000000
,
00001000
00000000
00000010
00000000
,
00001010
00000000
00000000
00000020
,
00000000
00000000
00010030
00002000
00000000
00000000
00000000
00103000
,
02000000
00000000
00000000
23000000
00000000
00000000
00000000
30100000
,
02000000
00000000
03000000
02020000
,
03030000
00000000
01000000
00001000
00000000
00000000
00000000
00001000
,
00020000
00000000
00030010
00000200
00000000
00000000
00000300
00000001
,
00001000
00000001
00000000
00000101
00010010
00000000
00000000
00000000
,
00010000
00000010
00011000
00000000
,
00001000
00100000
00011000
00000000
,
00010000
00000010
00011000
00000000
,
00001000
00100000
01000000
00000000
,
01000000
00000000
10000000
00000000
,
10000000
00000000
00000000
00000000
10000000
01000000
00010000
00001000
,
00000100
00000202
00000000
00000000
,
00000303
00002002
00000000
00003003
,
00000001
00000100
00000001
00000100
00000001
00000100
00000001
00000000
,
00000010
00000100
00000000
00001000
,
00000010
00000100
00000000
00000101
,
00000000
00000000
00000001
00001000
00000001
00001000
00000001
00001000
,
00000001
00001000
00000001
00000000
00000100
00000000
00001000
00000000
,
00010000
00000000
02000000
03000000
02000000
03000000
20000000
30000000
,
20000000
30000000
10010000
00000000
00000000
00000000
10000000
00100000
,
10000000
00100000
10000000
00100000
10000000
00000000
00010000
00000000
,
01000000
00100000
00000000
10000000
,
01000000
00010000
00000000
00001000
,
00000100
00000000
00000002
00000000
00001003
00000002
00000000
00000103
,
00001000
00010000
01000000
10000000
01000000
10000000
01000000
00000000
,
10010000
02200000
00000000
03300000
,
10000000
00100000
01000000
00100000
10000000
00000000
01000000
00000000
,
00010000
00001000
00000000
00010000
,
00001000
00000100
00000000
00000101
,
00000000
00002002
00000000
00003003
,
00000001
00000100
00000010
00000100
00000001
00000000
00001000
00000000
,
00000010
00000200
00000000
00000000
,
00000000
00000300
00000001
00001000
,
00000001
00001000
00000100
00010000
,
00000100
00010000
00000100
00010000
,
00001000
00010000
00001000
00100000
,
00010000
00000000
00100000
00000000
00010000
00000000
10000000
01000000
,
00100000
00010000
01000000
00100000
10000000
01000000
00100000
00010000
,
01000000
00100000
10000000
01000000
00100000
00010000
01000000
00100000
,
10000000
01000000
00100000
00010000
01000000
00000000
00000000
00000000
,
00100000
00000000
00000000
00000000
10010000
00000000
00000000
10000000
,
01000000
00000000
00000000
00000000
00000000
00000000
00000000
00000000
00010000
00000000
00000000
00000000
00001000
00000000
00000000
00000100
,
00000001
00000000
00000000
00000000
00001001
00000000
00000000
00000001
,
00000100
00000000
00001000
00010000
,
01000000
00000000
00000000
00000000
10020000
00000000
01000000
10000000
,
10030000
00000000
00000000
00000000
11000000
00000000
00000000
00000000
00010000
00000000
00000000
00000000
00001000
00000000
00000000
00000100
,
00000001
00000000
00000000
00000000
00002001
00000000
00000100
00000001
,
00003001
00000000
00000000
00000000
00000100
00000000
00000000
00001000
00010000
00000000
00000000
00000000
01000000
00000000
20000000
00000000
,
00000000
00000000
00020000
00000000
30030000
00000000
10000000
01000000
,
00100000
01000000
10000000
01000000
00010000
00000000
00001000
00000100
,
00000010
00000100
00000001
00000100
00001000
00000000
00010000
01000000
,
00100000
01000000
10000000
01000000
00010000
00000000
00001000
00000100
,
00000010
00000100
00000001
00000100
00000010
00000000
00001000
00000000
,
00000001
00000010
00000100
00010000
,
00001000
01000000
00100000
10000000
,
01000000
00100000
00010000
01000000
,
00100000
10000000
01000000
00010000
,
01000000
00010000
00001000
00000010
,
00001000
00000000
00000010
00000000
00000001
00000000
00000100
00000010
,
00001000
00000001
00001001
00000000
00000110
00000000
00000000
00000000
,
00000100
00000001
00001000
00000010
,
00000000
00001100
00000000
00010100
,
00000000
00000000
00011000
00000000
,
01001000
00000000
00000000
00000000
,
01000000
00100000
10000000
00010000
,
00000000
10010000
00000000
00101000
,
00000000
00000000
00011000
00000000
,
00010010
00000000
00000000
00000000
,
00000001
00000010
00000100
00001000
,
00000000
00001010
00000000
00010010
,
00000000
00000000
00011000
00000000
,
01001000
00000000
00000000
00000000
02000000
00000000
03100000
20000000
,
00000000
00000000
00000000
31000000
00200000
00000000
00000000
00000000
,
00310000
02000000
00000000
00000000
00000000
03100000
00010000
00000000
,
00001000
00000010
00000000
00000001
,
00001000
00000010
00000100
00000000
,
00000001
00000100
00001000
00000000
,
00000000
00010000
01000000
10000000
,
00000000
00000000
00000000
10000000
,
01000000
00100000
00010000
00000000
,
10000000
00100000
00010000
00000000
,
00000000
00001000
00000010
00000001
,
00000000
00000000
00000000
00001000
,
00000001
00000000
00000100
00000000
00000010
00000000
00000100
00000001
,
00001000
00000010
00000100
00000100
,
00000000
00000000
00000100
00000000
00000001
00000010
00000001
00000000
,
00000010
00001000
00010000
00001000
,
00010000
00000000
00001000
01000000
00001000
01000000
00001000
00000000
,
00100000
01000000
00100000
01000000
00100000
00000000
01000000
10000000
,
01000000
10000000
01000000
00000000
00000000
00000000
20020000
00000000
,
00000000
00000000
30030000
11000000
,
00000000
10000000
01000000
00100000
,
00000000
01010000
00000000
01000000
,
00100000
00010000
00001000
00000010
,
00000000
00000011
00000000
00000001
,
00000100
00001000
00001000
00000100
,
00000001
00001000
00001000
00000001
,
00000000
00000100
00001000
00000000
00010000
00000000
01000000
00000000
,
00100000
00010000
00100000
00010000
,
00000000
10000000
00000000
00000000
00100000
00000000
01000000
00000000
,
00000000
01100000
00000000
10000000
,
01000000
00100000
00010000
10000000
,
00000000
10010000
00000000
20000000
,
31000000
00020000
00000000
00000000
00000000
00031000
00000020
00000000
,
00000000
00000000
00000031
00000200
00000000
00000000
00000000
00001300
,
00010000
01000000
11000000
00000000
,
10000000
00010000
10000000
00010000
10000000
00000000
00000000
00000000
,
10010000
00000000
10000000
01000000
,
00010000
00001000
00000010
00000000
,
00000011
00000000
00000001
00000010
,
00000100
00000100
00000010
00000100
,
00010000
00000000
00001000
00000000
00011000
00000000
00000000
00010000
,
00001000
01000000
00100000
10000000
,
00010000
00000000
10010000
10000000
,
01000000
00000000
00101000
00100000
,
00001000
00000000
00011000
00010000
,
00000100
00000000
00001100
00001000
,
00000010
00000100
00000001
00001000
,
00000001
00001000
00000001
00001000
,
00000001
00001000
00001001
00000020
,
00000000
00000000
00000230
00000000
00000000
00000000
00000301
00002000
,
00000000
00000000
00003000
00001000
00000200
00000000
00010300
00001000
,
00000000
00000000
00000000
00001000
00200000
00000000
00000000
00000000
,
01300000
00100000
00220000
00000000
00000000
00330000
00010000
20000000
,
00000000
00000000
30000000
10000000
02000000
00000000
03100000
00020000
,
00000000
00000000
00000000
10030000
01000000
00100000
00000000
00110000
,
10010000
00000000
00100000
01000000
,
01001000
00000000
00001000
00010000
,
00010100
00000000
00000100
00001000
,
00001100
00000000
00001000
00000010
,
00000100
00000100
00000001
00000001
,
00001000
00001000
00000010
00000010
,
00020000
00032000
02003000
03200000
10300000
00000000
20020000
00000000
,
00000000
00000000
30030000
00000000
;

//---------------dance-double - ----------------
#NOTES:
     dance-double:
     :
     Challenge:
     19:
     1.067110,1.378594,0.834520,0.499076,0.069543,913.000000,811.000000,102.000000,61.000000,0.000000,0.000000,1.067110,1.378594,0.834520,0.499076,0.069543,913.000000,811.000000,102.000000,61.000000,0.000000,0.000000:
// measure 0
00000000
00000000
00000000
00000000
,  // measure 1
00000000
00000000
00000000
00000000
,  // measure 2
00002000
00000000
00000000
00000000
00000000
00000000
00010000
00000000
00010000
00000000
00000000
00000000
00000100
00000000
00000000
01000000
,  // measure 3
01000000
00000000
00000000
00000000
00013000
00001000
00000100
00000001
,  // measure 4
00001010
00000000
00000000
00000000
00000001
00000100
00000010
00000100
,  // measure 5
00001000
00000001
00001001
00000000
,  // measure 6
00001000
00000000
00000100
00000000
00000010
00000001
00000100
00001000
,  // measure 7
00010000
01000000
11000000
00000000
,  // measure 8
10100000
01010000
00100000
11000000
,  // measure 9
00110000
10000000
01000000
00010000
,  // measure 10
00001000
00000000
00000010
00000001
00000010
00000000
00000001
00001000
,  // measure 11
00000001
00000100
00001000
00010000
,  // measure 12
00011000
00000000
00000000
00001100
00000000
00000000
00000100
00000000
,  // measure 13
00000001
00000100
00001000
00000100
00000001
00000000
00001000
00000000
,  // measure 14
00000010
00000000
00000100
00000000
00001000
00010000
01000000
00010000
,  // measure 15
00001000
00000000
01100000
00000000
,  // measure 16
10010000
01100000
10000000
00010000
,  // measure 17
00200000
01000000
01000000
01300000
,  // measure 18
20000000
31000000
00010000
00000000
00002000
00013000
01010000
00000000
,  // measure 19
10010000
00000000
00000000
00000000
10000000
01000000
00100000
01000000
,  // measure 20
00010000
01000000
11000000
00000000
,  // measure 21
10000000
00000000
00100000
00000000
00010000
00001000
00000010
00001000
,  // measure 22
00010000
00000100
00000011
00000100
,  // measure 23
00001010
00001001
00000100
00000101
,  // measure 24
00001001
00000010
00000010
00000010
,  // measure 25
00000100
00000000
00001000
00010000
00001000
00000000
00010000
01000000
,  // measure 26
00010000
01000000
10000000
10010000
,  // measure 27
10000000
01000000
00010000
00001000
00010000
00000000
01010000
00000000
,  // measure 28
01000000
00010000
00001000
00000100
00001000
00000000
00011000
00000000
,  // measure 29
00010000
00001000
00000100
00000001
00000100
00000000
00001100
00000000
,  // measure 30
00001000
00000100
00000001
00000100
00001000
00000000
00000010
00000000
,  // measure 31
00000100
00000001
00001000
00000010
00001000
00000100
00000010
00001000
,  // measure 32
00010000
00100000
10000000
01000000
00100000
00010000
01000000
00100000
,  // measure 33
20000000
00000000
00020000
00000000
00000000
30030000
20020000
00000000
,  // measure 34
30030000
00000000
00000000
00000000
01000000
00000000
00220000
00000000
00000000
00000000
00330000
00000000
00000000
00000000
00010000
10000000
,  // measure 35
02000000
00000000
03010000
00022000
00000000
00033000
00000000
00001000
,  // measure 36
00002200
00000000
00000000
00003300
00000001
00001100
00002002
00000000
,  // measure 37
00003003
00000000
00000000
00000000
00000010
00000000
00022000
00000000
00000000
00000000
00033000
00000000
00000000
00000000
00100000
00010000
,  // measure 38
02000000
00000000
03100000
22000000
00000000
33000000
00000000
10000000
,  // measure 39
01000000
00100000
00000000
11000000
10000000
00000000
01000000
00000000
,  // measure 40
00010000
00001000
00000100
00000000
00000001
00000000
00000100
00000000
,  // measure 41
00001000
00010000
01000000
00000000
10000000
00000000
01000000
00000000
,  // measure 42
00010000
00001000
00000100
00000000
00000001
00000000
00000100
00000000
,  // measure 43
00001000
00010000
01000000
00000000
10000000
00010000
01000000
00010000
,  // measure 44
00100000
00001000
00010000
00000100
00001000
00000010
00000100
00000001
,  // measure 45
00000010
00000100
00010000
00001000
00010000
00010000
00001000
00001000
,  // measure 46
00011000
02200000
00000000
00000000
,  // measure 47
03300000
00000000
01000000
10000000
01000000
10000000
01000000
10000000
,  // measure 48
01000000
00000000
10000000
00000000
00100000
00000000
00010000
00001000
,  // measure 49
00010000
00001000
00000010
00000000
00000000
00000000
00000001
00000000
,  // measure 50
00001000
00000101
00000010
00001100
,  // measure 51
00000000
00000000
00000001
00000010
00000001
00000010
00000001
00000010
,  // measure 52
00000001
00000000
00000100
00000000
00001000
00000000
00010000
01000000
,  // measure 53
00010000
01000000
10000000
00000000
00010000
00000000
00001000
00000000
,  // measure 54
00000101
00000000
00001000
00000010
00001000
00000010
00001000
00000010
,  // measure 55
00001000
00000000
00000100
00000000
00000010
00000000
00001000
00010000
,  // measure 56
00100000
00010000
00001000
00000000
00000000
01000000
00100000
00000000
,  // measure 57
11000000
00000000
00100000
00000000
01000000
00000000
00010000
10000000
,  // measure 58
01000000
00010000
00002000
00000000
00003010
00000012
00000000
00000103
,  // measure 59
00011000
00100000
11000000
10000000
01000000
00110000
10010000
00000000
,  // measure 60
01002000
00000000
00013000
00000100
00001000
00000100
00010000
00000100
,  // measure 61
00001000
00000000
00000010
00000000
00000100
00000000
00000001
00000010
,  // measure 62
00001000
00010000
00100000
00000000
00000000
10000000
00010000
00000000
,  // measure 63
01000000
00110000
01000000
01010000
,  // measure 64
00000000
00000000
00100000
00001000
00010000
00001000
00100000
00001000
,  // measure 65
00010000
00000000
00000100
00000000
00000100
00000000
00001000
00000100
,  // measure 66
00001000
00000000
00000100
00000000
00001100
00000000
00000000
00010100
00000000
00000000
00011000
00000000
00000000
01001000
00000000
00000000
,  // measure 67
01010000
00000000
10010000
00000000
,  // measure 68
10000000
01000000
00010000
00001000
,  // measure 69
00000100
00000001
00000010
00001000
,  // measure 70
00010000
00100000
10000000
01000000
,  // measure 71
00010000
00000000
00001000
00000000
00000100
00000001
00001000
00000010
,  // measure 72
00001000
00000100
00010000
00001000
00010000
00100000
10000000
01000000
,  // measure 73
00010000
00001000
00010000
00100000
10000000
01000000
00100000
00010000
,  // measure 74
01000000
00100000
00010000
00001000
00000100
00000000
00000000
00000000
,  // measure 75
00000001
00000000
00000000
00000000
00020010
00000000
00000000
00001000
,  // measure 76
00001000
00000000
00000000
00000000
00000000
00000000
00000000
00000000
00100000
00000000
00000000
00000000
00001000
00000000
00000000
00000100
,  // measure 77
00000100
00000000
00000000
00000000
00001000
00000000
00000000
01000000
,  // measure 78
01000000
00000000
00001000
00000010
,  // measure 79
00100000
00000000
00030000
00000000
00012000
00000000
00100000
00010000
,  // measure 80
00010000
00000000
00000000
00000000
00000010
00000000
00000000
00000000
00010000
00000000
00000000
00000000
00100000
00000000
00000000
00010000
,  // measure 81
00010000
00000000
00000010
00000000
00010000
00000000
01000000
00010000
,  // measure 82
00010000
00000000
00000000
00000000
00000100
00000000
00000000
00010000
00010000
00000000
00000000
00000000
01000000
00000000
00020000
00000000
,  // measure 83
00000000
00033000
00000200
00000000
00000010
00000010
00000010
00000010
,  // measure 84
00000010
00000010
00000010
00000010
00000310
00000000
00000001
00000100
,  // measure 85
00001000
00000100
00000001
00000100
00001000
00000000
00010000
01000000
,  // measure 86
10000000
01000000
00010000
01000000
10000000
00000000
10000000
00100000
,  // measure 87
00010000
00001000
00000010
00000001
00000101
00000000
00000100
00000000
,  // measure 88
00000010
00010000
00010100
00000100
,  // measure 89
00010000
00001000
01010000
01000000
,  // measure 90
00100000
01000000
10010000
00100000
,  // measure 91
10000000
00000000
01000000
00000000
00100000
00001000
00010000
00000100
,  // measure 92
00001000
00000010
00000100
00000010
00010000
00001000
01000000
00100000
,  // measure 93
10000000
01000000
00010000
00001000
00000200
00000000
00000301
00001000
,  // measure 94
00000010
00000100
00001001
00000000
00000110
00000000
00000000
00000000
,  // measure 95
00000001
00000100
00001000
00000100
,  // measure 96
00000000
00000000
00000001
00001000
00000010
00000000
00001010
00000000
,  // measure 97
00000000
00000000
00000000
00000000
00000100
00010000
00001000
00000000
,  // measure 98
00001000
00100000
01000000
00000000
11000000
00000000
00000000
00000000
,  // measure 99
10000000
00100000
00010000
00100000
,  // measure 100
00000000
00000000
10000000
00010000
00100000
00000000
00110000
00000000
,  // measure 101
00000000
00000000
00000000
00000000
01000000
00001000
00010000
00000000
,  // measure 102
00010000
00000100
00001000
00000000
00001100
00000000
00000000
00000000
,  // measure 103
00001000
00000010
00000001
00000010
,  // measure 104
00001000
00001100
00000000
00010100
,  // measure 105
00000000
00000000
00000000
00000000
00010000
00001000
00100000
00000000
,  // measure 106
00100000
00010000
01000000
00000000
01100000
00000000
10000000
20020000
,  // measure 107
00000000
30030000
00000000
00100000
00022000
00000000
00033000
00000000
,  // measure 108
00000100
00002002
00000000
00003003
00000000
00000010
00001100
00000000
,  // measure 109
00000101
00001001
00000000
00000001
,  // measure 110
00000100
00000010
00001000
00000010
00000100
00000000
00000000
00000000
,  // measure 111
00000001
00000100
00001000
00010000
,  // measure 112
01000000
00000000
10000000
00100000
00010000
00000000
00010000
00100000
,  // measure 113
10000000
01000000
00100000
00010000
,  // measure 114
01000000
00100000
10000000
00100000
01000000
00000000
00000000
00000000
,  // measure 115
00100000
00010000
00001000
00000010
,  // measure 116
00000001
00000000
00001000
00000100
00000001
00000000
00000001
00000100
,  // measure 117
00001000
00001001
00000000
00000010
,  // measure 118
00000100
00000001
00001000
00000001
00000100
00000000
00001000
00010000
,  // measure 119
01000000
10000000
10000000
10000000
,  // measure 120
00000000
00000000
10010000
00000000
10000000
01000000
00010000
00000000
,  // measure 121
00001000
00000010
00000001
00000010
,  // measure 122
00000001
00000000
00001000
00000100
00010000
00000100
00001000
00000000
,  // measure 123
00000100
00010000
00001000
00010000
00000100
00010000
00001000
00100000
,  // measure 124
01000000
00100000
00001000
00000000
00000000
00000000
00202000
00000000
,  // measure 125
00000000
00000000
00303000
01010000
,  // measure 126
00000000
00000000
00100000
10000000
01000000
10000000
00100000
00000000
,  // measure 127
00010000
00011000
00000000
00000010
,  // measure 128
00000001
00000000
00000100
00001000
00000100
00000001
00000010
00000000
,  // measure 129
00000100
00000000
00001100
00000000
00000000
00000000
00000010
00000100
,  // measure 130
00000010
00000000
00001000
00000000
00001000
00000100
00010000
00000000
,  // measure 131
00001000
00100000
01000000
00100000
00001000
00000000
01100000
00000000
,  // measure 132
00000000
01000000
10000000
00000000
00100000
00000000
01000000
00000000
,  // measure 133
00010000
10000000
01000000
00110000
,  // measure 134
00000000
01100000
00000000
00000000
10000000
00000000
01000000
00000000
,  // measure 135
00010000
00001000
00000000
00000010
,  // measure 136
00000001
00000100
00001000
00000100
00000001
00000010
00000100
00000000
,  // measure 137
00000000
00010100
00000000
01001000
,  // measure 138
01000000
02200000
00000000
03300000
00000000
00100000
20200000
00000000
,  // measure 139
30300000
00000000
10000000
22000000
00000000
33000000
00000000
00100000
,  // measure 140
00101000
00010100
00001010
00000000
,  // measure 141
00001000
00000100
00000001
00000100
00001000
00000000
00000010
00000000
,  // measure 142
00000100
00000000
00000001
00000100
,  // measure 143
00001000
00010000
00100000
00010000
00001000
00000000
00000000
00000000
,  // measure 144
01001000
00000000
00000000
00000000
01000000
00100000
01000000
00000000
,  // measure 145
00010000
00000000
00010000
01000000
00100000
00000000
10000000
00000000
,  // measure 146
01000000
00000000
00010000
00000000
00001000
00000000
00000010
00000001
,  // measure 147
00000010
00000001
00001001
00000001
,  // measure 148
00000010
00000000
00000100
00000000
00001001
00000000
00000001
00000100
,  // measure 149
00001000
00010000
00001000
00000000
00001100
00000000
00000100
00001000
,  // measure 150
00010000
01000000
00010000
00000000
00011000
00000000
00001000
00010000
,  // measure 151
01000000
10000000
01000000
00000000
01010000
00000000
00010000
01000000
,  // measure 152
10000000
01000000
00010000
00000000
10000000
01000000
00100000
00010000
,  // measure 153
01000000
00001000
00010000
00000010
00000100
00000001
00000010
00000100
,  // measure 154
00001000
00000010
00000100
00000000
00000002
00000000
00002000
00000000
,  // measure 155
00000000
00000000
00003003
00000000
00002002
00000000
00000000
00000000
00003003
00000000
00000000
00000000
00000010
00010000
00002000
00000000
,  // measure 156
00000000
00000000
00003000
00000000
00000000
00000000
01000000
00010000
00200000
00000000
00000000
00000000
01300000
10000000
00020000
00000000
,  // measure 157
00000000
00000000
00030000
00000000
00000000
00000000
10000000
01000000
00020000
00000000
00000000
00000000
00030000
00000000
00000000
00000000
,  // measure 158
00001000
00000100
00000001
00000000
00002002
00000000
00000000
00000000
00003003
00000000
00000000
00000000
00000001
00000100
00000020
00000000
,  // measure 159
00000000
00000000
00000030
00000000
00000000
00000000
00000010
00010000
00002000
00000000
00000000
00000000
01003000
00100000
00020000
00000000
,  // measure 160
00000000
00000000
00030000
00000000
00000000
00000000
00100000
10000000
01000000
00000000
00100000
00000000
00000000
00000000
00110000
00000000
,  // measure 161
10000000
00000000
01000000
00000000
00010000
00001000
00000100
00000000
,  // measure 162
00000001
00000000
00000100
00000000
00001000
00010000
01000000
00000000
,  // measure 163
10000000
00000000
01000000
00000000
00010000
00001000
00000100
00000000
,  // measure 164
00000001
00000000
00000100
00000000
00001000
00010000
01000000
00000000
,  // measure 165
10000000
00100000
00010000
00001000
00000010
00000001
00000010
00000100
,  // measure 166
00001000
00000010
00000100
00001000
00010000
00100000
10000000
01000000
,  // measure 167
00010000
00100000
01000000
10000000
10010000
00000000
00022000
00000000
,  // measure 168
00000000
00000000
00033000
00000000
;

//---------------dance-double - ----------------
#NOTES:
     dance-double:
     :
     Hard:
     18:
     0.968931,1.240734,0.572710,0.646344,0.024545,829.000000,759.000000,70.000000,79.000000,0.000000,0.000000,0.968931,1.240734,0.572710,0.646344,0.024545,829.000000,759.000000,70.000000,79.000000,0.000000,0.000000:
00000000
00000000
00000000
00000000
,
00000000
00000000
00000000
00000000
,
20000000
00000000
00000000
00000000
00000000
00000000
31000000
00000000
00020000
00000000
00000000
00000000
00032000
00000000
00000000
00003100
,
00000002
00000000
00000000
00000000
00000000
00000000
00000000
00000003
00000001
00000000
00001000
00000000
00010000
00000000
10000000
00000000
,
10010000
00000000
00000000
00000000
10000000
01000000
00100000
01000000
,
10000000
00000000
10010000
00000000
,
10000000
00000000
01000000
00000000
00010000
00001000
00000100
00000000
,
00000001
00000000
00001001
00000000
,
00000010
00000100
00000001
00000100
,
00001000
00010000
00010000
00010000
,
01000000
00000000
10000000
00100000
00010000
00000000
00010000
00100000
,
10000000
01000000
00100000
00010000
,
01000000
00010000
10000000
00010000
01000000
00010000
10000000
00000000
,
01000000
00100000
01000000
10000000
,
00010000
01000000
00100000
10000000
00100000
01000000
00010000
00000000
,
10000000
00000000
10010000
00000000
,
10000000
01000000
00010000
00000000
,
00001000
00000010
00000001
00000100
,
00002020
00003030
00020200
00030300
00002002
00003003
00000220
00000330
,
00001001
00000000
00000000
00000000
00000001
00000010
00000100
00000010
,
00000001
00000000
00001001
00000000
,
00000001
00000000
00000010
00000000
00001000
00010000
00100000
00000000
,
10000000
00000000
10010000
00000000
,
01000000
00100000
10000000
00100000
,
00010000
00001000
00001000
00001000
,
00000010
00000000
00000001
00000100
00001000
00000000
00001000
00000100
,
00000001
00000010
00000100
00001000
,
00000010
00001000
00000100
00001000
00000010
00000000
00000100
00000000
,
00001000
00010000
00100000
00010000
00001000
00000000
01000000
00000000
,
00100000
10000000
00010000
10000000
00100000
00000000
10000000
00000000
,
01000000
00010000
00001000
00010000
01000000
00000000
00100000
00000000
,
00010000
00001000
00000010
00000001
,
00000100
00000010
00001000
00000010
00000100
00000001
00000010
00000001
,
00002000
00000000
00023000
00000000
00000000
00030000
10010000
00000000
,
00000000
00000000
10000000
02020000
00000000
03030000
00000000
00100000
,
00022000
00000000
00033000
00020020
00000000
00030030
00000000
00000010
,
00000220
00000000
00000330
00000000
00010000
00001010
00000202
00000000
,
00000303
00000000
00000010
00020200
00000000
00030300
00000000
00010000
,
00002000
00000000
01003000
00200000
00000000
00300000
00000000
10000000
,
00010000
01100000
00000000
10010000
10000000
00000000
01000000
00000000
,
10000000
01000000
00010000
00000000
01000000
00000000
00010000
00000000
,
01000000
00010000
00001000
00000000
00010000
00000000
00001000
00000000
,
00010000
00001000
00000100
00000000
00001000
00000000
00000100
00000000
,
00001000
00000100
00000001
00000000
00001000
00000010
00001000
00000010
,
00000100
00000001
00000100
00000001
00000010
00000100
00000010
00000100
,
00010000
00001000
00010000
00001000
00100000
00100000
01000000
01000000
,
11000000
20020000
00000000
00000000
,
30030000
00000000
10000000
01000000
10000000
01000000
10000000
01000000
,
10000000
00000000
00100000
00000000
01000000
00000000
00010000
00100000
,
00001000
00100000
00010000
00000000
00000000
00000000
00001000
00000000
,
00000010
00000001
00000000
00001001
,
00000000
00000000
00000001
00000100
00000001
00000100
00000001
00000100
,
00000001
00000000
00001000
00000000
00000100
00000000
00010000
00000100
,
00001000
00000100
00020000
00000000
00230000
00000000
20300000
00000000
,
32000000
00000000
03010000
00001000
00010000
00001000
00010000
00001000
,
00010000
00000000
00000010
00000000
00000100
00000000
00000010
00010000
,
00001000
00010000
00000010
00000000
00000000
00000100
00000100
00000000
,
00000001
00000000
00001000
00000000
00000000
00000000
00000100
00010000
,
00000100
00001000
00000100
00000000
00010000
00120000
00000000
00031000
,
00001200
00000000
00001300
00010000
00100000
10000000
01000000
00000000
,
01010000
00000000
10000000
00100000
10000000
00100000
10000000
00100000
,
10000000
00000000
01000000
00000000
00100000
00000000
00001000
00010000
,
00100000
00010000
00001000
00000000
00000000
00000000
00010000
00000000
,
00000100
00001100
00000000
00001001
,
00000000
00000000
00000001
00000100
00000001
00000100
00000001
00000100
,
00000001
00000000
00000100
00000000
00001000
00000000
00010000
00001000
,
00000100
00000000
00001000
00000000
00010000
00000000
00000000
00010000
00000000
00000000
00100000
00000000
00000000
00100000
00000000
00000000
,
10000000
00000000
10000000
00000000
,
00010000
10000000
01000000
00010000
,
01000000
00010000
00001000
00000010
,
00001000
00000010
00000001
00001000
,
00000001
00000000
00001000
00000000
00000001
00000100
00000001
00000100
,
00000010
00010000
00000010
00010000
00001000
00010000
00001000
00010000
,
00001000
01000000
00001000
01000000
00100000
10000000
01000000
00010000
,
00001000
00000010
00000001
00000100
00000010
00000000
00000000
00000000
,
00011000
00000000
00000000
00000000
00200000
00000000
00000000
10300000
,
02000000
00000000
00000000
00000000
00000000
00000000
00000000
00000000
03020000
00000000
00000000
00000000
00032000
00000000
00000000
00003010
,
00000002
00000000
00000000
00000000
00000203
00000000
00000000
00001300
,
00020000
00000000
00230000
20300000
,
30020000
00000000
00030000
00000000
20010000
00000000
01000000
00010000
,
00010000
00000000
00000000
00000000
31000000
00000000
00000000
00000000
00010000
00000000
00000000
00000000
00001000
00000000
00000000
00000100
,
00000001
00000000
00000010
00000000
00001002
00000000
00000100
00001000
,
00001003
00000000
00000000
00000000
00000100
00000000
00000000
00001000
00010000
00000000
00000000
00000000
01000000
00000000
21000000
00000000
,
00000000
00000000
00020000
00000000
30030000
00000000
10000000
01000000
,
00100000
01000000
00010000
00001000
00000100
00000000
00000001
00000100
,
00000010
00000100
00001000
00010000
01000000
00000000
10000000
00100000
,
01000000
00100000
00010000
00001000
00000010
00000000
00000001
00000010
,
00000100
00000010
00001000
00010000
00100000
00000000
10000000
00000000
,
01000000
00010000
00001000
00000010
,
00000001
00000100
00001000
00010000
,
00100000
10000000
01000000
00010000
,
00001000
00000000
00000010
00000000
00000001
00001000
00000010
00000100
,
00001000
00010000
00100000
10000000
01000000
00100000
00010000
01000000
,
00100000
10000000
01000000
00010000
00002000
00000000
00003010
00000001
,
00000110
00001000
00000001
00000000
00000110
00000000
00000000
00000000
,
00001000
00010000
01000000
10000000
,
00000000
00000000
10000000
00010000
01000000
00000000
01000000
00010000
,
10000000
00000000
11000000
00000000
,
00110000
00000000
01000000
00000000
,
00100000
00010000
00001000
00000010
,
00000000
00000000
00000001
00001000
00000100
00000000
00000100
00001000
,
00000001
00000000
00000101
00000000
,
00001010
00000000
00000010
00000000
,
00000100
00001000
00010000
00100000
,
00000000
00000000
10000000
01000000
00010000
00000000
00010000
01000000
,
10000000
00000000
11000000
00000000
,
01010000
00000000
00000000
00000000
00012000
00000000
00003100
00000002
,
00000000
00000003
00000000
00000010
00002000
00000000
00003000
00000000
,
00010000
00200000
00000000
00300000
00000000
10000000
00010000
00000000
,
11000000
10010000
00000000
10000000
,
01000000
00010000
00001000
00000000
,
00000010
00000001
00001000
00000000
00001000
00000001
00000010
00000000
,
00000000
00000000
00000100
00010000
00001000
00000000
00001000
00010000
,
00000100
00000000
00000000
00000100
,
00000010
00001000
00010000
00000000
,
00100000
10000000
00010000
00000000
00010000
10000000
00100000
00000000
,
00000000
00000000
01000000
00001000
00010000
00000000
00010000
00001000
,
01000000
00000000
00000000
00100000
,
00010000
00000000
00001000
00000000
00000010
00000001
00001000
00000000
,
00001000
00000010
00000010
00000101
,
00000000
00000000
00001001
00000000
00000001
00000100
00001000
00000000
,
00010000
00100000
10000000
00100000
,
10000000
00000000
01000000
00010000
00001000
00010000
01000000
00000000
,
00010000
00001000
00000010
00000001
00000010
00000100
00001000
00000010
,
00000100
00001000
00010000
00000000
00000000
00000000
20020000
00000000
,
00000000
00000000
30030000
01100000
,
00000000
00000000
10000000
00100000
01000000
00100000
10000000
00000000
,
00000000
10010000
00000000
10000000
,
01000000
00000000
00010000
00001000
00000010
00001000
00010000
00000000
,
00000000
00000000
00001010
00000000
00000000
00000000
00000010
00000100
,
00000001
00000000
00001000
00000000
00000001
00000100
00000010
00000000
,
00010000
00001000
00010000
00001000
,
01000000
00010000
00100000
00000000
01000000
00000000
10000000
00000000
,
00100000
00010000
00001000
00000010
,
00000000
00000001
00000000
00000000
00000100
00000000
00001000
00000000
,
00010000
00001000
00010000
00100000
,
10000000
00000000
01000000
00100000
01000000
00100000
01000000
00000000
,
00000000
00110000
00000000
11000000
,
01000000
00020000
00000000
00030000
00000000
00001000
00000020
00000000
,
00000030
00000000
00000001
00000200
00000000
00000300
00000000
00001000
,
00010000
11000000
10010000
00000000
,
00010000
01000000
00100000
01000000
00010000
00000000
00000000
00000000
,
10100000
00000000
10000000
01000000
,
00010000
00001000
00000010
00000100
00000010
00000000
00000000
00000000
,
00000011
00000000
00000000
00000000
00000001
00000100
00000001
00000000
,
00001000
00000000
00000010
00001000
00000010
00000000
00000100
00000000
,
00001000
00000000
00001000
00000000
00010000
00000000
00100000
10000000
,
00100000
00000000
10000000
01000000
10000000
00000000
00010000
00000000
,
10000000
00000000
00010000
00000000
10010000
00000000
10000000
00010000
,
01000000
00010000
10000000
00000000
00110000
00000000
00100000
00001000
,
00010000
00001000
00100000
00000000
00011000
00000000
00001000
00010000
,
00000100
00010000
00001000
00000000
00000110
00000000
00000010
00000001
,
00001000
00000001
00000010
00000000
00000001
00000000
00000001
00000000
,
00000100
00000100
00001000
00001000
,
00010000
00010000
00200000
20000000
,
00000000
30300000
20020000
00000000
30030000
00000000
10000000
22000000
,
00000000
33000000
00000000
00100000
00002000
00000000
00013000
00000200
,
00000000
00000300
00000000
00000100
00000022
00000000
00000033
00000000
,
00000100
00001010
00020200
00000000
00030300
00000000
00010000
00202000
,
00000000
00303000
00000000
00100000
02000000
00000000
13000000
20200000
,
00000000
30300000
00000000
01000000
00010000
00100000
00000000
11000000
,
10000000
00000000
01000000
00000000
10000000
01000000
00010000
00000000
,
01000000
00000000
00010000
00000000
01000000
00010000
00001000
00000000
,
00010000
00000000
00001000
00000000
00010000
00001000
00000100
00000000
,
00001000
00000000
00000100
00000000
00001000
00000100
00000001
00000000
,
00001000
00000010
00000100
00000010
00001000
00000100
00000010
00001000
,
00010000
00100000
10000000
01000000
00100000
01000000
10000000
00100000
,
01000000
01000000
00001000
00001000
01001000
00000000
00022000
00000000
,
00000000
00000000
00033000
00000000
;
