#TITLE:Honey Trap;
#SUBTITLE:;
#ARTIST:Expander;
#TITLETRANSLIT:;
#SUBTITLETRANSLIT:;
#ARTISTTRANSLIT:;
#GENRE:Hip Hop;
#CREDIT:;
#BANNER:honeytrap-bn.png;
#BACKGROUND:honeytrap-bg.png;
#LYRICSPATH:;
#CDTITLE:;
#MUSIC:Honey Trap.mp3;
#OFFSET:-0.040000;
#SAMPLESTART:36.040001;
#SAMPLELENGTH:11.999990;
#SELECTABLE:YES;
#BPMS:0.000000=160.000000
,64.000000=640.000000
,72.000000=160.000000
,145.000000=320.000000
,153.000000=160.000000
,220.000000=320.000000
,360.000000=160.000000
;
#STOPS:100.000000=0.188000,
100.500000=0.188000,
163.750000=0.375000,
249.500000=0.375000,
310.000000=0.188000,
311.000000=0.188000
;
#BGCHANGES:;
#KEYSOUNDS:;
#ATTACKS:;

//---------------dance-single - ----------------
#NOTES:
     dance-single:
     :
     Hard:
     15:
     0.781069,1.106557,0.333273,0.144118,0.481895,607.000000,570.000000,37.000000,16.000000,0.000000,0.000000,0.781069,1.106557,0.333273,0.144118,0.481895,607.000000,570.000000,37.000000,16.000000,0.000000,0.000000:
0000
0000
0000
0000
,
0000
0000
0000
0000
,
0000
0000
0000
0000
,
0000
0000
0000
0000
,
0021
0000
0000
0000
1000
0000
1000
0000
0000
0000
0001
0000
0031
0010
1000
0010
,
0001
0000
0000
0000
1000
0100
0001
0100
1000
0000
0010
0000
1010
0000
0000
0000
,
0010
0100
0000
1000
0200
0000
0000
0000
0300
0001
1000
0000
0001
0000
0000
0000
,
0100
0010
0100
0000
0001
0000
0010
0100
0010
0000
1000
0000
0010
0000
0000
0000
,
0001
0000
0100
1000
0100
0000
0001
0000
1000
0000
0100
0001
0100
0000
1000
0000
,
0010
0100
0010
1000
1001
0011
0110
0000
,
0100
1000
0000
0010
0000
0000
0100
0000
0010
1000
0000
1000
0100
0000
0010
0000
,
0001
1000
0100
0010
0100
1000
0011
0000
,
1002
0000
0000
0100
0100
0000
0010
0003
,
2001
0000
0000
0010
0010
3100
1001
0000
,
0100
0010
0000
0100
0010
0000
1000
0001
1000
0000
0010
0000
0100
0000
0000
0000
,
0001
0010
0001
0000
1000
0000
0100
0000
0010
0000
0001
0000
1001
0000
0000
0000
,
0220
0000
0000
0000
,
0000
0000
0000
0330
,
1001
0000
0000
0000
0100
0000
0010
0001
0010
0000
0100
0000
0100
0000
1000
0010
,
1000
0000
0010
0000
0100
0000
0000
0000
0001
0000
0000
1001
0000
0000
0010
0000
,
0200
0000
1000
0000
0301
0000
0000
0000
0100
0000
1000
0000
0010
0000
0100
0001
,
1000
0010
1000
0000
0011
0000
0101
0000
,
0011
0000
0010
0100
1000
0000
0010
0100
1000
0000
0100
0010
0001
0000
0100
0010
,
0001
0000
0010
0100
1000
0000
1000
0000
0010
0000
0010
0000
1000
0000
1000
0000
,
0001
0000
0001
0000
0100
0000
0100
0000
0010
1000
0010
1000
0000
1000
0001
0000
,
0100
0000
1010
0000
1000
0000
0000
0100
0010
0000
0001
0000
1000
0000
0000
0100
,
0010
0000
0001
0000
1000
0000
0000
0010
0100
0000
0001
0000
0010
0100
0010
0100
,
1000
0100
1000
0000
0001
0000
0000
0100
0010
0000
1000
0001
1000
0000
0000
0010
,
0000
0000
0100
0000
0010
0000
0000
1100
0000
0000
0010
0000
0001
0000
0001
0000
,
1100
0000
0000
0000
0001
0000
0001
0000
1000
0000
0010
0100
1000
0000
0000
0100
,
0000
0000
0001
0000
1000
0000
0000
0110
0000
0000
1000
0000
0010
0000
1000
0100
,
0010
0001
0010
0100
1000
0000
0001
0000
0010
0000
0100
0010
0001
0000
0000
2002
,
0000
0000
3003
0000
0110
0000
0000
0101
0000
0000
0001
0000
0100
0000
0100
0000
,
0010
0000
0000
0000
1000
0000
0000
0000
0001
0000
0000
0000
0100
0000
0000
0000
0000
0000
0010
0000
0000
0001
0000
0000
0000
0000
0000
0000
0000
0000
0010
0000
0000
0000
0000
0000
0001
0000
0000
0000
0000
0000
0010
0000
0000
1000
0000
0000
,
0000
0000
0100
0000
0010
0100
0000
0000
0000
0000
0010
0100
0000
0000
0000
0000
,
1100
0000
0000
0000
0011
0000
1000
0001
0000
0000
0100
0010
0100
0000
0001
1000
,
0001
0000
0000
0000
0000
0000
1000
0000
0000
0100
0000
0000
1000
0000
0000
0000
0000
0000
0000
0000
0000
0000
0000
0000
0000
0000
0000
0000
0010
0000
0000
0000
0000
0000
0000
0000
1000
0000
0000
0000
0000
0000
0000
0000
0010
0000
0000
0000
,
0000
0100
0000
0001
0000
0000
0001
0000
0000
0010
0000
0100
,
0000
0000
0000
0000
1000
0000
0000
0000
0000
0000
0000
0000
0100
0000
0000
0000
0000
0000
0010
0000
0000
0000
0000
0000
0001
0000
0000
0000
0000
0000
0010
0000
0000
0100
0000
0000
1000
0000
0000
0000
0000
0000
0000
0000
0000
1010
0000
0000
,
0000
0000
0010
0000
0100
0010
0100
0010
0100
0000
0001
0000
0100
0001
0100
0010
,
1000
0010
0100
0001
0100
0000
0010
0000
1000
0000
0001
0010
0001
0000
0000
1001
,
0110
0000
0000
0010
0000
0000
0100
0000
0000
0010
0000
0000
1000
0000
0000
0100
0000
0000
1000
0000
0001
0000
0010
0000
,
0100
0000
0100
1000
0100
0000
0001
0000
0100
0000
1000
0000
0100
0000
1000
0000
,
0010
0000
0010
0001
0010
0000
1000
0000
0010
0001
0010
0000
1000
0000
0001
0000
,
0100
0000
0100
1000
0100
0000
0001
0000
0100
1000
0100
0000
0001
0000
1000
0000
,
0010
0000
0000
0100
0000
0000
0010
0000
1000
0000
0001
0100
0000
0000
0100
0000
,
0001
0000
1000
0100
0001
0000
0100
0000
1000
0000
0001
0000
0100
0000
1000
0000
,
0100
0000
0001
1000
0100
0000
0001
0100
1000
0000
0010
0000
1000
0001
0100
0000
,
0001
0000
0010
1000
0000
0000
0010
0001
1000
0000
0010
0000
0001
0010
1000
0000
,
0010
0000
0000
0110
0000
0000
0100
0000
0001
0000
1000
0010
0000
0000
0100
0000
,
0001
0000
0000
0000
0001
0000
0010
0100
1000
0000
0001
0000
1000
0000
0001
0000
,
1000
0100
0010
0000
0001
0000
1000
0000
0001
0000
0010
0100
1000
0100
0010
0001
,
1000
0100
0010
0001
0010
0000
0100
1000
0001
0000
0100
0010
0100
0001
1000
0010
,
0100
0000
0000
0001
0000
1000
0010
1000
0010
0000
0000
0000
0110
0000
0000
0000
,
0000
0002
0000
0000
2000
0000
0000
3003
,
0010
0100
0001
0010
,
0100
1000
0100
1000
0100
0000
0000
0000
,
1000
0001
1000
0001
1000
0000
0010
0000
,
1000
0000
0100
0000
0010
0000
0001
0100
,
0010
1000
0010
1000
0010
0000
0100
0000
,
0001
0100
0001
0000
1000
0000
0000
0000
,
0010
0100
0001
1000
,
0010
0000
0000
0110
0100
0001
0100
0002
,
0000
0000
0013
0000
0100
1000
0100
1000
,
0100
0000
0000
0000
1000
0100
0010
0001
,
0010
0100
1000
0000
0010
0000
0100
0000
,
0010
0000
0100
0000
0001
0010
0100
0000
,
1000
0000
0100
0000
0010
0001
1000
0000
,
0010
0000
0100
0010
,
1000
0001
0000
0100
0010
0000
0000
2002
,
0000
0000
0000
3003
0001
0000
0010
0000
,
0001
0000
0100
0000
0001
0010
0001
0100
,
0001
0000
0000
0000
1000
0010
1000
0100
,
1000
0010
0100
0001
,
0100
0000
0010
0000
1000
0001
0010
0001
,
0010
0000
0001
0000
1000
0010
1000
0010
,
1000
0000
0100
0010
,
0001
0010
0100
1001
,
0010
0100
0001
0100
0010
0000
1000
0000
,
0100
0010
0001
0010
0100
0000
0000
0000
,
1000
0001
1000
0001
1000
0000
0001
0000
,
0100
0010
0110
0000
,
0001
0000
0000
0000
0001
0100
0001
0100
,
0001
1000
0000
0001
,
0100
0000
0010
1000
0100
1000
0100
0000
,
0010
0000
0001
1000
,
1001
0000
0000
0000
0010
0100
0010
0100
,
0010
0000
0000
1000
0000
0000
0100
0000
,
0010
0000
0001
0000
1000
0001
0100
0001
,
1000
0000
1010
0000
,
0202
0000
0000
0000
,
0303
0000
0000
0000
;

//---------------dance-single - ----------------
#NOTES:
     dance-single:
     :
     Challenge:
     17:
     0.929048,1.311476,0.486399,0.144118,0.716087,722.000000,668.000000,54.000000,16.000000,0.000000,0.000000,0.929048,1.311476,0.486399,0.144118,0.716087,722.000000,668.000000,54.000000,16.000000,0.000000,0.000000:
0000
0000
0000
0000
,
0000
0000
0000
0000
,
0000
0000
0000
0000
,
0000
0000
0000
0000
,
1002
0000
0000
0000
0000
0000
0000
0000
0000
0100
0000
0000
0100
0000
0000
0010
0000
0000
0103
0000
1000
0000
0001
0000
,
2001
0000
0000
0000
3010
0000
0010
0100
1000
0000
0001
0000
1001
0000
0000
0000
,
1000
0100
0001
0100
2000
0000
0000
0000
0001
0000
0001
0000
3010
0000
0000
0000
,
1000
0100
0010
0001
1000
0000
1000
0001
1000
0000
1000
0000
0101
0000
0000
0000
,
0001
0000
0010
0100
1000
0000
0010
0000
0010
0000
0100
0010
0100
0010
0100
0000
,
0001
0010
0001
0100
0001
0000
1000
0000
0100
0000
0001
0000
0100
0000
0000
0000
,
1100
0000
0000
1010
0000
0000
0101
0000
0001
0000
0000
0000
0100
0010
1000
0001
,
1000
0000
0010
0100
0010
1000
0010
1000
0100
0010
0100
0000
0110
0000
0000
0000
,
2001
0000
0000
0010
0010
0000
0100
0000
,
0010
0000
0000
0010
0010
0100
3010
0000
,
0101
0000
0000
0011
0000
0000
0001
1000
0001
0000
1000
0000
0100
0010
0001
0000
,
0010
0001
0010
0000
0100
0000
1000
0001
0100
0010
0100
0000
0101
0000
0010
0000
,
1000
0010
1000
0010
,
1000
0010
1000
0000
,
1002
0000
0000
0000
0013
0000
0100
0000
1100
0000
0010
0000
0010
0000
0001
0100
,
0010
0000
1000
0000
1100
0000
0000
0000
0010
0000
0000
1001
0000
0000
0010
0000
,
1001
0000
0100
0000
0010
0000
0000
0000
0100
0000
1000
0000
0010
0000
0100
0001
,
1000
0000
0010
0000
0001
0000
0010
0000
1010
0000
0100
0001
0100
0000
0100
0010
,
0001
0000
0010
1000
0010
0000
1000
0100
0001
0000
0100
0010
0100
0000
0010
0100
,
0001
0000
0100
1000
0100
0000
1000
0000
1010
0000
0100
0000
0011
0000
0001
0000
,
1100
0000
1000
0001
0100
0000
0110
0000
0001
0100
1000
0100
0000
0100
0001
0000
,
1001
0000
1010
0000
0011
0000
0000
0001
0100
0000
1000
0100
0001
0000
0010
1000
,
0000
0000
0010
0000
1100
0000
0000
0010
0001
0000
0010
0000
1000
0100
1000
0100
,
0001
0010
0001
0010
0001
0000
0000
1000
0100
0000
0001
0100
1000
0000
0010
0100
,
0000
0000
0010
0000
1100
0000
0000
0110
0000
0000
0011
0000
0210
0000
1000
0000
,
0301
0000
0000
0000
0000
0000
0000
0000
0101
0000
0000
0000
1000
0000
0000
0000
0001
0000
0000
0000
0100
0010
0100
0000
0001
0000
0000
0000
0000
0000
1010
0000
,
0000
0000
0001
0000
1000
0000
0100
0010
0000
0000
0100
0000
1000
0010
1000
0010
,
0001
0100
0001
0100
0010
0000
1000
0000
1001
0000
0100
0010
0001
0000
0000
0220
,
0000
0000
0330
0000
1000
0000
0001
0100
0001
0000
1000
0010
1000
0000
0100
0000
,
0010
0000
0000
0000
0100
0000
0000
0000
1000
0000
0000
0000
1001
0000
0000
0000
0000
0000
0001
0000
0000
0100
0000
0000
0001
0000
0000
0100
0000
0000
0001
0000
0000
0010
0000
0000
0001
0000
0000
0100
0000
0000
0001
0000
0000
0100
0000
0000
,
0001
0010
0001
0000
0100
0010
0000
1000
0001
0000
0100
0010
0000
1000
0001
0000
,
0110
0000
0000
0000
1001
0000
1000
0100
1000
0100
1000
0010
1000
0100
1000
0100
,
1000
0000
0000
0010
0000
0000
1000
0000
0000
0001
0000
0000
0100
0000
0000
0000
0000
0000
0000
0000
0000
0000
0000
0000
0000
0000
0000
0000
0010
0000
0000
0000
0000
0000
0000
0000
1000
0000
0000
0000
0000
0000
0000
0000
0010
0000
0000
0000
,
0000
0100
0000
0010
0000
0000
0001
0000
0000
0010
0000
1000
,
0000
0000
0000
0000
0000
0000
0000
0000
0000
0000
0000
0000
0000
0000
0000
0000
0010
0000
0000
0000
0000
0000
0000
0000
0000
0000
0000
0000
0000
0000
0000
0000
0000
0000
0000
0000
0000
0000
0000
0000
0000
0000
0000
0000
0000
0000
0000
0000
1000
0000
0000
0000
0000
0000
0000
0000
0000
0000
0000
0000
0000
0000
0000
0000
0000
0000
0000
0000
0000
0000
0000
0000
0001
0000
0000
0000
0000
0000
0000
0000
0000
0000
0000
0000
0000
0000
0000
0000
0000
0000
0000
0000
0000
0000
0000
0000
0100
0000
0000
0000
0000
0000
0000
0000
0000
0000
0000
0000
0000
0000
0000
0000
0000
0000
0000
0000
0000
0000
0000
0000
0010
0000
0000
0000
0000
0000
1000
0000
0000
0000
0000
0000
0010
0000
0000
0000
0000
0000
0000
0000
0000
0000
0000
0000
0100
0000
0000
0000
0000
0000
0000
0000
0000
0000
0000
0000
0000
0000
0000
0000
0000
0000
0000
0000
0000
0000
0000
0000
0000
0000
0000
0000
0000
0000
0000
0000
0000
0000
0000
0000
1010
0000
0000
0000
0000
0000
0000
0000
0000
0000
0000
0000
,
0000
0000
0000
0000
0010
0000
1000
0000
0100
0000
0010
0000
0100
0000
0010
0000
0100
1000
0100
0000
0010
0000
0001
0000
0100
0000
0010
0000
1000
0000
0001
0000
,
0100
0010
1000
0001
1000
0010
1000
0100
1000
0000
0001
0100
0001
0000
0000
0110
,
1000
0000
0000
0100
0000
0000
0001
0000
0000
0100
0000
0000
1000
0000
0000
0000
0000
0000
0001
0000
0000
0000
0000
0000
0100
0000
0000
0000
0000
0000
1000
0000
0000
0000
0000
0000
0100
0000
0000
0000
0001
0000
0000
0000
0100
0000
0000
0000
,
0001
0000
0010
0100
1000
0000
0101
0000
1000
0000
0100
0000
0001
0000
0100
0000
,
1000
0000
0010
0100
0010
0000
0100
1000
0100
0001
1000
0000
0010
0100
0010
0000
,
1000
0000
0100
0010
0100
0000
0010
1000
0010
0001
0100
0000
0010
0001
0010
0000
,
1000
0001
0100
0010
1000
0000
0001
0000
1000
0010
0100
0001
1000
0000
0110
0000
,
1000
0000
0100
0010
0001
0000
1010
0000
0001
0000
0010
0000
1000
0000
0010
0000
,
0001
0000
0100
0010
0100
0000
0010
0001
0010
1000
0001
0000
0100
0010
0100
0000
,
0001
0100
0000
0100
0010
0000
0100
0001
0100
1000
0100
0000
0001
1000
0001
0000
,
0100
1000
0100
0010
0100
0000
0001
0000
0010
0100
0010
1000
0010
0001
1000
0000
,
1100
0000
0000
0000
0101
0000
0010
0100
0010
0000
0010
0000
0100
0000
1000
0000
,
0100
0001
0100
0001
1000
0000
0010
0100
1000
0000
0100
0000
0010
1000
0010
1000
,
0010
0001
0010
0001
0100
0000
0010
1000
0010
0000
0010
0001
0010
1000
0100
0010
,
0001
1000
0000
0001
1000
0100
1000
0010
0200
0000
0300
0000
2002
0000
3003
0000
,
0000
0000
1000
0001
1000
0001
0000
0000
0100
0010
0100
0010
0100
0000
0000
0000
,
0001
0010
0100
0010
0001
1000
0010
1000
,
0001
0010
0100
0010
0001
0000
0000
0000
,
1000
0010
1000
0010
1000
0000
0010
0000
,
0100
0000
0010
0000
1000
0000
0100
0001
,
0100
1000
0100
0000
0010
0000
0100
0000
,
1000
0100
0001
0000
0100
0000
0000
0000
,
1000
0001
0100
1000
0100
0001
1000
0000
,
1010
0000
0000
0101
1000
0010
0100
0010
,
1000
0001
0010
0001
1000
0010
0100
0010
,
1000
0000
0000
0000
0001
0010
0001
0010
,
0001
0100
0010
0001
,
0010
0000
1000
0000
0001
0010
1000
0000
,
0010
0000
0001
0000
0100
1000
0100
0000
,
0001
0000
0000
0000
1000
0010
0100
0000
,
0001
1000
0000
0010
0100
0000
0000
0202
,
0000
0000
0303
0000
0010
0100
0001
0100
,
0010
1000
0100
1000
0010
0100
0001
0100
,
0010
0000
0000
0000
0100
0010
0100
0010
,
0100
0010
1000
0100
,
0001
0000
0100
1000
0010
0100
0010
0000
,
1000
0000
0010
0000
0001
0010
1000
0000
,
0001
0000
0000
0000
0001
1000
0010
0001
,
0010
1000
0001
0000
1001
0000
0110
0000
,
0100
0001
1000
0000
0010
0000
1000
0000
,
0100
0001
0100
0000
1000
0000
0000
0000
,
0100
0010
0100
0010
0100
0010
0100
0000
,
1000
0010
0101
0000
,
1000
0000
0010
0000
1000
0001
0010
0001
,
0010
0000
0001
1000
0000
0000
1000
0000
,
0100
0000
0010
0100
1000
0100
1000
0000
,
0002
0000
0100
1003
,
1001
0000
0000
0000
0100
0001
1000
0001
,
1000
0000
0010
0100
0000
0000
0100
0000
,
0010
0000
0000
0000
0000
0000
1000
0000
0000
0000
0000
0000
0100
0000
0010
0000
0001
0000
1000
0000
0000
0001
0000
0000
,
1000
0000
0110
0000
,
2020
0000
0000
0000
,
3030
0000
0000
0000
;

//---------------dance-double - ----------------
#NOTES:
     dance-double:
     :
     Challenge:
     17:
     0.867283,1.270492,0.351288,0.180148,0.644028,674.000000,635.000000,39.000000,20.000000,0.000000,0.000000,0.867283,1.270492,0.351288,0.180148,0.644028,674.000000,635.000000,39.000000,20.000000,0.000000,0.000000:
// measure 0
00000000
00000000
00000000
00000000
,  // measure 1
00000000
00000000
00000000
00000000
,  // measure 2
00000000
00000000
00000000
00000000
,  // measure 3
00000000
00000000
00000000
00000000
,  // measure 4
00010000
00000000
00001000
00000000
00000100
00000000
00001000
00000000
00010000
00000000
00000000
00000000
00001000
00010000
00001000
00010000
,  // measure 5
00002000
00000000
00000000
00000000
00003010
00000000
00000001
00000100
00000001
00000000
00001000
00000000
00000100
00000000
00000000
00000000
,  // measure 6
00000010
00000001
00000000
00000010
00000002
00000000
00000000
00000000
00000100
00000000
00000100
00000000
00001000
00000000
00000000
00000000
,  // measure 7
00000103
00000001
00000100
00000000
00001000
00000000
00000010
00010000
00000010
00000000
00000100
00000000
00001000
00000000
00000000
00000000
,  // measure 8
00010000
00000000
01000000
10000000
01000000
00000000
00100000
00000000
00010000
00000000
01000000
00000000
00010000
10000000
00100000
00000000
,  // measure 9
10000000
00000000
01000000
00100000
01000000
00000000
00010000
00000000
00001000
00000000
00000010
00000000
00000011
00000000
00000000
00000000
,  // measure 10
00000100
00000010
00000000
00000010
00001000
00000000
00000001
00000000
00000100
00000000
00000000
00000010
00001000
00000010
00000100
00000000
,  // measure 11
00001000
00000000
00010000
00100000
00010000
00000000
00100000
10000000
01000000
00100000
00010000
00000000
00110000
00000000
00000000
00000000
,  // measure 12
20000000
00000000
00000000
00010000
30010000
00000000
00011000
00000000
,  // measure 13
00002000
00000000
00000000
00000001
00003001
00001000
00001001
00000000
,  // measure 14
00000010
00000000
00000000
00001100
00000000
00000000
00000010
00000100
00001000
00000000
00000100
00000000
00010000
00000000
00000000
00000000
,  // measure 15
00001000
00000000
01000000
00000000
00000000
00000000
00100000
10000000
01000000
00000000
00100000
00000000
00001000
00100000
00010000
00000000
,  // measure 16
00100000
00001000
00100000
00001000
,  // measure 17
00100000
00001000
00100000
00000000
,  // measure 18
00012000
00000000
00000000
00000000
00100000
00000000
00100000
00000000
01003000
00000000
00011000
00000000
00000000
00000000
00100000
00010000
,  // measure 19
01000000
00100000
10000000
00000000
01000000
00000000
00000000
00000000
00100000
10000000
00000000
10000000
01000000
00000000
00100000
00010000
,  // measure 20
00100000
01000000
10000000
00000000
10000000
00000000
00000000
00000000
01000000
00000000
00010000
00000000
00000000
00000000
00001000
00000010
,  // measure 21
00000001
00000100
00000010
00000100
00000101
00000000
00001010
00000000
,  // measure 22
00001001
00000000
00001000
00000010
00001000
00000000
00000100
00010000
00000100
00000000
00010000
00001000
00010000
00000000
00001000
00100000
,  // measure 23
00001000
00000000
00100000
01000000
00100000
00000000
01000000
00000000
11000000
00000000
10000000
00000000
11000000
00000000
01000000
00000000
,  // measure 24
01010000
00000000
00010000
00000000
00011000
00000000
00001000
00000000
00010000
00000100
00010000
00000100
00000000
00000010
00000001
00000000
,  // measure 25
00000101
00000000
00001100
00000000
00000001
00000000
00000000
00000001
00000010
00000000
00000001
00000100
00000001
00000000
00000000
00000001
,  // measure 26
00000010
00000000
00000100
00000010
00000001
00000000
00000000
00000001
00000010
00000000
00000001
00000000
00000010
00000100
00010000
00001000
,  // measure 27
00100000
01000000
10000000
00000000
10000000
00000000
00000000
10000000
00100000
00000000
10000000
00100000
10000000
00000000
00000000
10000000
,  // measure 28
00100000
00000000
01000000
00100000
10000000
00000000
00000000
10000000
00100000
00000000
01000000
00000000
00001000
00000000
00010000
00000000
,  // measure 29
00000101
00000000
00000000
00000000
00000000
00000000
00000000
00000000
00000200
00000000
00000000
00000000
00000010
00000000
00000000
00000000
00000310
00000000
00000000
00000000
00001000
00000100
00001000
00000000
00000010
00000000
00000000
00000000
00000000
00000000
00011000
00000000
,  // measure 30
00000000
00000000
00100000
00000000
01000000
00000000
00000000
01000000
10000000
00000000
00100000
00000000
10000000
00010000
10000000
00010000
,  // measure 31
01000000
00010000
01000000
00010000
10000000
00000000
01000000
00000000
00010000
00000000
00001000
00100000
00001000
00000000
00000000
00022000
,  // measure 32
00000000
00000000
00033000
00000000
00010000
00000010
00000000
00000010
00000100
00000000
00000010
00000000
00000100
00000000
00000001
00000000
,  // measure 33
00001000
00000000
00000000
00000000
00000010
00000000
00000000
00000000
00000100
00000000
00000000
00000000
00000001
00000000
00000000
00000000
00000000
00000000
00000000
00000000
00000000
00000010
00000000
00000000
00000100
00000000
00000000
00000000
00000000
00000000
00010000
00000000
00000000
00001000
00000000
00000000
00010000
00000000
00000000
00000000
00000000
00000000
00001000
00000000
00000000
01000000
00000000
00000000
,  // measure 34
00100000
10000000
00000000
10000000
00100000
10000000
00000000
01000000
00010000
00000000
00100000
10000000
00000000
00000000
10000000
01000000
,  // measure 35
00100000
00000000
00000000
00000000
11000000
00000000
00000000
00010000
10000000
00000000
01000000
00100000
00010000
00000000
01000000
00100000
,  // measure 36
10000000
00000000
00000000
00000000
00000000
00000000
01000000
00000000
00000000
00100000
00000000
00000000
00001000
00000000
00000000
00000000
00000000
00000000
00000000
00000000
00000000
00000000
00000000
00000000
00000000
00000000
00000000
00000000
00010000
00000000
00000000
00000000
00000000
00000000
00000000
00000000
00000100
00000000
00000000
00000000
00000000
00000000
00000000
00000000
00000010
00000000
00000000
00000000
,  // measure 37
00000000
00000001
00000000
00000100
00000000
00000000
00001000
00000000
00000000
00010000
00000000
00100000
,  // measure 38
00000000
00000000
00000000
00000000
00000000
00000000
00000000
00000000
00000000
00000000
00000000
00000000
00000000
00000000
00000000
00000000
10000000
00000000
00000000
00000000
00000000
00000000
00000000
00000000
00000000
00000000
00000000
00000000
00000000
00000000
00000000
00000000
00000000
00000000
00000000
00000000
00000000
00000000
00000000
00000000
00000000
00000000
00000000
00000000
00000000
00000000
00000000
00000000
01000000
00000000
00000000
00000000
00000000
00000000
00000000
00000000
00000000
00000000
00000000
00000000
00000000
00000000
00000000
00000000
00000000
00000000
00000000
00000000
00000000
00000000
00000000
00000000
00100000
00000000
00000000
00000000
00000000
00000000
00000000
00000000
00000000
00000000
00000000
00000000
00000000
00000000
00000000
00000000
00000000
00000000
00000000
00000000
00000000
00000000
00000000
00000000
01000000
00000000
00000000
00000000
00000000
00000000
00000000
00000000
00000000
00000000
00000000
00000000
10000000
00000000
00000000
00000000
00000000
00000000
00000000
00000000
00000000
00000000
00000000
00000000
01000000
00000000
00000000
00000000
00000000
00000000
00000000
00000000
00000000
00000000
00000000
00000000
00100000
00000000
00000000
00000000
00000000
00000000
00010000
00000000
00000000
00000000
00000000
00000000
00100000
00000000
00000000
00000000
00000000
00000000
00000000
00000000
00000000
00000000
00000000
00000000
00000000
00000000
00000000
00000000
00000000
00000000
00000000
00000000
00000000
00000000
00000000
00000000
00000000
00000000
00000000
00000000
00000000
00000000
00000000
00000000
00000000
00000000
00000000
00000000
10010000
00000000
00000000
00000000
00000000
00000000
00000000
00000000
00000000
00000000
00000000
00000000
,  // measure 39
00000000
00000000
00000000
00000000
10000000
00000000
00010000
00000000
01000000
00000000
00100000
00000000
01000000
00000000
00100000
00000000
01000000
00100000
01000000
00000000
00100000
00000000
00001000
00000000
00010000
00000000
00000010
00000000
00010000
00000000
00000010
00000000
,  // measure 40
00000100
00000010
00000100
00000010
00000100
00000001
00001000
00000000
00000100
00000000
00000010
00010000
00001000
00000000
00000000
00101000
,  // measure 41
00000010
00000000
00000000
00000100
00000000
00000000
00000010
00000000
00000000
00001000
00000000
00000000
00000100
00000000
00000000
00000000
00000000
00000000
00010000
00000000
00000000
00000000
00000000
00000000
00000010
00000000
00000000
00000000
00000000
00000000
00010000
00000000
00000000
00000000
00000000
00000000
00001000
00000000
00000000
00000000
00010000
00000000
00000000
00000000
00001000
00000000
00000000
00000000
,  // measure 42
00010000
00000000
00100000
10000000
00100000
00000000
20000000
00000000
01000000
00000000
31000000
00000000
00020000
00000000
00002000
00030000
,  // measure 43
00003010
00000000
00000001
00000100
00001000
00000000
00000001
00000100
00001000
00000100
00000001
00000000
00001000
00000010
00000100
00000000
,  // measure 44
00001000
00000000
00010000
00100000
10000000
00000000
00010000
00100000
10000000
00100000
00010000
00000000
00100000
10000000
00010000
00000000
,  // measure 45
01000000
00100000
00000000
01100000
00000000
00000000
01000000
00000000
00100000
00000000
00001000
00010000
00000000
00000000
00011000
00000000
,  // measure 46
00000010
00000000
00000100
00000001
00000100
00000000
00000002
00000000
00000010
00000000
00000013
00000000
00002000
00000000
00020000
00003000
,  // measure 47
01030000
00000000
10000000
00100000
00010000
00000000
10000000
00100000
00010000
00100000
10000000
00000000
00010000
01000000
00100000
00000000
,  // measure 48
00010000
00001000
00000000
00000100
00000001
00000000
00000100
00001000
00000100
00000001
00001000
00000000
00000010
00000100
00000001
00000000
,  // measure 49
00000010
00000000
00000000
00000110
00000000
00000000
00000010
00000000
00000100
00000000
00010000
00001000
00000000
00000000
01000000
00000000
,  // measure 50
01100000
00000000
00000000
00000000
10100000
00000000
10000000
01000000
00100000
00000000
00100000
00000000
00001000
00000000
00010000
00000000
,  // measure 51
00001000
00010000
00001000
00000000
00001000
00000000
00010000
00000010
00010000
00000000
00010000
00000000
00000010
00000100
00000010
00001000
,  // measure 52
00000010
00000100
00000001
00000010
00000100
00000000
00010000
00000100
00010000
00000000
00010000
00000100
00001000
00000100
00010000
00000000
,  // measure 53
00001000
00000000
00000000
01001000
00000000
01000000
00100000
10000000
00010000
00000000
00000000
00000000
11000000
00000000
00000000
00000000
,  // measure 54
00000000
00000000
10000000
00010000
10000000
00010000
00000000
00000000
01000000
00100000
01000000
00100000
01000000
00000000
00000000
00000000
,  // measure 55
00100000
00000000
10000000
01000000
10000000
00000000
00100000
00000000
,  // measure 56
01000000
00000000
00001000
00000000
00010000
00001000
00000000
00000000
,  // measure 57
00010000
00000010
00010000
00000010
00000100
00000000
00000001
00000000
,  // measure 58
00000010
00000000
00000100
00000000
00000010
00000000
00000001
00000100
,  // measure 59
00000010
00001000
00000010
00000100
00000010
00000000
00000010
00000000
,  // measure 60
00010000
00001000
00010000
00000000
00010000
00000000
00000000
00000000
,  // measure 61
00001000
01000000
00100000
01000000
00001000
00000000
01000000
00000000
,  // measure 62
00010000
00000000
00000000
10010000
00000010
00001000
00000010
00000000
,  // measure 63
00010000
00000000
00001000
00000000
01000000
00100000
01000000
00000000
,  // measure 64
00100000
00000000
00000000
00000000
00100000
10000000
00100000
10000000
,  // measure 65
00100000
00010000
00001000
00000010
,  // measure 66
00000001
00000000
00001000
00000000
00000100
00010000
00000100
00000000
,  // measure 67
00000100
00000000
00010000
00000000
00001000
01000000
00001000
00000000
,  // measure 68
00001000
00000000
00000000
00000000
01000000
00100000
01000000
00000000
,  // measure 69
00010000
10000000
00000000
10000000
00100000
00000000
00000000
02020000
,  // measure 70
00000000
00000000
03030000
00000000
10000000
01000000
10000000
01000000
,  // measure 71
00010000
00001000
00010000
00001000
00000010
00000001
00000010
00000001
,  // measure 72
00001000
00000000
00000000
00000000
00000100
00000010
00000100
00000010
,  // measure 73
00000100
00000010
00000100
00000000
00001000
00000000
00010000
00000000
,  // measure 74
00001000
00000000
00010000
00100000
10000000
00100000
10000000
00000000
,  // measure 75
00100000
00000000
10000000
00000000
01000000
00100000
01000000
00000000
,  // measure 76
01000000
00000000
00000000
00000000
00001000
00010000
00000010
00000100
,  // measure 77
00000010
00001000
00000001
00000000
00000101
00000000
00001010
00000000
,  // measure 78
00000001
00000010
00000001
00000010
00001000
00010000
00001000
00010000
,  // measure 79
00100000
10000000
00100000
10000000
00100000
00000000
00000000
00000000
,  // measure 80
01000000
00001000
00010000
00001000
01000000
00000000
00001000
00000000
,  // measure 81
01000000
00100000
10100000
00000000
,  // measure 82
11000000
00000000
00000000
00000000
00100000
01000000
00100000
01000000
,  // measure 83
00100000
00000000
00001000
00010000
00000000
00000000
00010000
00000000
,  // measure 84
00000010
00000000
00000100
00000001
00000100
00000001
00000100
00000000
,  // measure 85
00001020
00000000
00001030
00000001
,  // measure 86
00000021
00000000
00000000
00000000
00000130
00000010
00000100
00000010
,  // measure 87
00000100
00000000
00010000
00001000
00000000
00000000
00001000
00000000
,  // measure 88
01000000
00000000
00100000
00000000
01000000
00100000
00010000
00001000
,  // measure 89
00000010
00000000
00001001
00000000
,  // measure 90
00022000
00000000
00000000
00000000
,  // measure 91
00033000
00000000
00000000
00000000
;

//---------------dance-single - ----------------
#NOTES:
     dance-single:
     :
     Medium:
     13:
     0.602208,0.899162,0.315259,0.144118,0.166637,468.000000,433.000000,35.000000,16.000000,0.000000,0.000000,0.602208,0.899162,0.315259,0.144118,0.166637,468.000000,433.000000,35.000000,16.000000,0.000000,0.000000:
0000
0000
0000
0000
,
0000
0000
0000
0000
,
0000
0000
0000
0000
,
0000
0000
0000
0000
,
2002
0000
3003
0010
0100
0000
1001
0100
,
0020
0000
0000
0130
1000
0100
0010
0000
,
0001
1000
0000
0000
0001
0000
0000
0000
1000
0001
0000
0000
1000
0000
0000
0000
,
0001
1000
0010
0100
0010
0010
1000
0000
,
1100
0010
0001
0001
0000
0100
0010
0001
,
0000
0010
0100
1000
0001
0001
0001
0000
,
1000
0000
0000
1010
0000
0000
0001
0000
0010
0000
0000
0011
0000
0000
0010
0000
,
0100
0000
0000
1100
0000
0000
0100
0000
0010
0000
0001
0000
0011
0000
0000
0000
,
2001
0000
0010
3100
,
1002
0000
0000
0000
0103
0010
0001
0000
,
0100
0000
0000
0100
0000
0000
0001
0000
0010
0000
0100
0000
1000
0000
0000
0000
,
0010
0100
0000
0010
1000
0100
0010
0001
,
2002
0000
0000
0000
,
0000
0000
3003
0000
,
0010
0000
0100
0000
1001
0000
0000
0100
,
0010
0000
0010
0000
0001
0000
0000
0000
0100
0000
0000
0101
0000
0000
0001
0000
,
1000
0010
1000
0000
0010
0100
0010
1000
,
0001
0001
0010
0000
0100
0000
1100
0000
,
0100
0000
1100
1000
0001
0100
0001
0000
,
1000
0100
1000
0010
0010
0000
1001
0000
,
0110
0000
0000
0000
1001
0000
0000
0000
0010
0000
0100
0010
0000
0000
0001
0000
,
1000
0000
1000
0000
0001
0000
0000
1000
0000
0000
0001
0000
0100
0000
0000
0001
,
0000
0000
1000
0000
0100
0000
0000
1000
0000
0000
0010
0000
0100
0000
0100
0000
,
0100
0000
0100
0000
0010
0000
0000
1000
0000
0000
0100
0000
0010
0000
0000
0001
,
0000
0000
0010
0000
0100
0000
0000
1000
0000
0000
0001
0000
0010
0000
0010
0000
,
0011
0000
0000
0000
0100
0000
1000
0000
0100
0000
0001
0000
0100
0000
0000
0100
,
0000
0000
1000
0000
0010
0000
0000
0010
0000
0000
0001
0000
0010
0000
1000
0000
,
0010
0000
1000
0000
0001
0000
0100
0000
0001
0000
0010
0000
0100
0000
0000
0220
,
0000
0000
0330
0000
0010
0000
0000
0001
0000
0000
1000
0000
0010
0000
0100
0000
,
0020
0000
0130
0001
0100
0010
0100
0001
,
0100
0000
0000
0000
0010
1000
0000
0000
0000
0000
0010
1000
0000
0000
0000
0000
,
1001
0000
0100
0010
0100
1000
0100
0010
,
0100
1000
0000
0001
,
0000
1000
0000
0001
,
0001
0000
0000
0000
0100
0000
0010
0000
0100
0000
0001
0000
1000
0000
0000
0010
,
0000
0100
0010
0010
1000
0010
1000
0100
,
0010
0000
0001
0000
0010
0000
0100
0000
0010
0000
0001
0000
1000
0000
0000
1001
,
0110
0010
0100
0010
1000
1000
0002
0000
,
1003
0100
0001
0000
1000
0100
0001
0100
,
1000
0010
0001
0000
1000
0010
0001
0010
,
1000
0000
0001
0000
1000
0000
0000
0000
0001
0000
1000
0000
0001
0100
0001
0000
,
1000
0000
0000
0010
0000
0000
0100
0000
0001
0000
0000
1001
0000
0000
1000
0000
,
0001
0100
1000
0000
0001
0100
1000
0100
,
0001
0010
1000
0000
0001
0010
1000
0010
,
0001
0000
0000
0001
1000
0000
0010
0000
1000
0000
0001
0000
1000
0100
1000
0000
,
0010
0000
0000
1010
0000
0000
1000
0000
0001
0000
0000
0101
0000
0000
0100
0000
,
0010
0000
0000
0000
0010
0100
0010
0100
0010
0000
1000
0000
0001
0000
1000
0000
,
0001
1000
0001
0000
1000
0000
0100
0000
1000
0000
0010
0000
0100
0010
0100
0010
,
0100
0000
0001
0000
1000
0000
0010
0000
1000
0001
1000
0000
0001
1000
0001
0000
,
0100
0000
0000
0100
0000
0000
0010
0000
0100
0000
0000
0000
0110
0000
0000
0000
,
0000
1001
0000
0000
0001
1000
1001
0000
,
0010
1000
0010
1000
,
0010
0100
0010
0000
,
0100
0100
0100
0001
,
0010
0001
0100
0001
,
1000
0001
1000
0000
,
0001
1000
0001
0000
,
0100
0010
1000
0001
,
1000
0000
0000
1001
0010
0000
0100
0000
,
0010
0001
0010
0100
,
0010
0000
0001
1000
,
0001
1000
0100
0100
,
0010
0010
0100
1000
,
0100
0010
0100
1000
,
0100
0000
1000
0000
,
0001
0000
0000
0000
0100
0000
0000
0220
,
0000
0330
0001
0010
,
0001
1000
0001
0010
,
0001
0000
1000
1000
,
1000
0010
0100
0010
,
1000
0100
1000
0010
,
1000
0001
1000
0010
,
1000
0000
0010
0100
,
0001
1000
1001
0110
,
0010
1000
0001
0100
,
0001
1000
0010
0000
,
1000
0001
1000
0001
1000
0000
0010
0000
,
0100
0001
0011
0000
,
0100
0000
0100
1000
,
0100
0010
0000
0001
,
0001
0100
0010
1000
,
0002
0000
1000
1000
,
1003
0000
0010
0100
,
0010
1000
0000
0001
,
1000
0100
0001
0100
,
1000
0000
1001
0000
,
0220
0000
0000
0330
;

//---------------dance-double - ----------------
#NOTES:
     dance-double:
     :
     Medium:
     13:
     0.506987,0.735678,0.117096,0.171140,0.090074,394.000000,381.000000,13.000000,19.000000,0.000000,0.000000,0.506987,0.735678,0.117096,0.171140,0.090074,394.000000,381.000000,13.000000,19.000000,0.000000,0.000000:
00000000
00000000
00000000
00000000
,
00000000
00000000
00000000
00000000
,
00000000
00000000
00000000
00000000
,
00000000
00000000
00000000
00000000
,
00021000
00000000
00000010
00030100
,
00012000
00000000
01000000
00103000
,
00001000
00010000
00000100
00000000
00000010
00000001
00000100
00000000
,
00001000
00010000
01000000
10000000
00100000
00010000
00100000
00000000
,
10000000
10000000
01000000
00000000
00010000
00010000
00001000
00000000
,
00000010
00000010
00000001
00000100
00001000
00010000
00001000
00000000
,
00000010
00000000
00000000
00000001
00000000
00000000
00000010
00000000
00001000
00000000
00000000
00010000
00000000
00000000
00100000
00000000
,
10000000
01000000
00010000
01000000
10000000
00000000
10010000
00000000
,
12000000
00000000
00010000
03001000
,
00020000
00000000
00000000
00000000
00030010
00000100
00000001
00000000
,
00000100
00000000
00000000
00000110
00000000
00000000
00000010
00000000
00001000
00000000
00000001
00000000
00000100
00000000
00000000
00000000
,
00001000
00010000
00000000
01000000
10000000
01000000
10000000
00000000
,
20020000
00000000
00000000
00000000
,
00000000
00000000
30030000
00000000
,
10000000
00000000
01000000
00000000
00010000
00000000
00000000
00001000
,
00000010
00000000
00000001
00000000
00001000
00000000
00000000
00000000
00000001
00000000
00000000
00000101
00000000
00000000
00000100
00000000
,
00000010
00010000
00001000
00000000
00000010
00000001
00000100
00000000
,
00001000
00010000
01000000
10000000
00010000
00000000
00010000
00000000
,
00010000
00000000
00010000
01000000
00001000
00000000
00001000
00000000
,
00001000
00000000
00001000
00010000
00000010
00000100
00000010
00000100
,
00000010
00000100
00000010
00000100
00001000
00010000
00100000
00000000
,
00011000
00000000
00101000
00000000
01000000
00000000
00000000
10000000
00000000
00000000
01000000
00000000
01000000
00000000
00000000
00100000
,
00000000
00000000
01000000
00000000
01000000
00000000
00000000
10000000
00000000
00000000
00010000
00000000
10000000
00000000
01000000
00000000
,
00010000
00000000
00001000
00000000
00000010
00000000
00000000
00000001
00000000
00000000
00000010
00000000
00000010
00000000
00000000
00000100
,
00000000
00000000
00000010
00000000
00000010
00000000
00000000
00000001
00000000
00000000
00000100
00000000
00000010
00000000
00000100
00000000
,
00000010
00000000
00000000
00000000
00000100
00000000
00000000
00000000
00001000
00000000
00000000
00000000
00010000
00000000
00000000
01000000
,
00000000
00000000
10000000
00000000
00010000
00000000
00000000
00100000
00000000
00000000
01000000
00000000
00010000
00000000
00001000
00000000
,
00010000
00000000
00001000
00000000
00000100
00000000
00000001
00000000
00000100
00000000
00000000
00000000
00000001
00000000
00000000
00002002
,
00000000
00000000
00003003
00000000
00000010
00000000
00000000
00000100
00000000
00000000
00000010
00000000
00010000
00000000
00001000
00000000
,
02000000
00000000
03100000
10000000
00100000
00000000
10000000
00100000
,
10000000
00000000
02000000
00000000
03000000
00020000
00000000
00030000
,
00001000
00000000
00000010
00000001
00000010
00000000
00000001
00000010
,
00000001
00000100
00000000
00000010
,
00000000
00010000
00000000
00001000
,
00000000
00000000
01000000
00100000
01000000
00000000
00010000
10000000
,
00010000
00000000
10000000
01000000
00010000
00001000
00000010
00000001
,
00000010
00000000
00000001
00000000
00000010
00000000
00000100
00000000
00000010
00000000
00000000
00000000
00000001
00000000
00002000
00000002
,
00003003
00000000
00000110
00000000
00000100
00000010
00020000
00000000
,
00031000
00100000
00001000
00000000
00001000
01000000
00001000
00010000
,
00010000
00000010
00010000
00000000
00010000
00000100
00010000
00001000
,
00001000
00100000
00001000
00000000
00001000
01000000
00001000
00010000
,
00010000
00000000
00000000
00000010
00000000
00000000
00000100
00000000
00000001
00000000
00001000
00000000
00000001
00000000
00000000
00000000
,
00000100
00000010
00000100
00000000
00000001
00000100
00001000
00010000
,
01000000
10000000
01000000
00000000
10000000
01000000
00010000
00001000
,
00000100
00000000
00000000
00000001
00000000
00000000
00001000
00000000
00000010
00000000
00010000
00000000
00000010
00000000
00000000
00000000
,
00010000
00000000
00000000
00001000
00000000
00000000
01000000
00000000
00100000
00000000
00000000
10000000
00000000
00000000
01000000
00000000
,
00100000
00000000
00001000
00010000
00001000
00010000
00000010
00000100
,
00000010
00001000
00000010
00001000
00000001
00000100
00000001
00000010
,
00000100
00010000
00000100
00010000
00001000
00100000
00001000
00000000
,
01000000
00000000
00000000
01000000
00000000
00000000
00100000
00000000
10000000
00000000
00000000
00000000
01000000
00000000
00000000
00000000
,
00000000
00010000
00001000
00000000
00001000
00000010
00000001
00000000
,
00000100
00000010
00000100
00000010
,
00000100
00000010
00000100
00000000
,
00000010
00000000
00010000
00000000
,
00001000
00000000
01000000
00000000
,
00100000
01000000
00100000
01000000
,
00100000
01000000
00100000
00000000
,
00001000
00000000
00010000
00000000
,
00000010
00000000
00000000
00000100
00000001
00000000
00001000
00000000
,
00000001
00001000
00000001
00001000
,
00000001
00000000
00000100
00000000
,
00000010
00000000
00010000
00000000
,
00001000
00000000
01000000
00010000
,
01000000
00010000
01000000
00010000
,
01000000
00000000
00100000
10000000
,
00100000
00000000
01000000
00000000
00100000
00000000
00000000
01000000
,
00000000
00000000
00100000
10000000
,
00010000
00000000
00100000
10000000
,
00010000
00000000
10000000
00000000
,
01000000
00000000
00010000
00000000
,
00001000
00000000
00000010
00000001
,
00001000
00000000
00000010
00000001
,
00001000
00000000
00000001
00000000
,
00000100
00000000
00002000
00023000
,
00130000
10000000
00100000
00000000
,
01000000
00010000
01000000
00000000
,
00001000
00000000
00010000
00000000
,
00000010
00000000
00000200
00000000
,
00000301
00000000
00000100
00000000
,
00000001
00000000
00000000
00000010
00000000
00000000
00000001
00000000
,
00001000
00000000
00000100
00000000
,
00010000
00000000
00001000
01000000
,
00001000
00000000
01000000
00000000
,
00100000
00000000
00000000
01000000
00000000
00000000
00100000
00000000
,
10000000
01000000
10000000
00010000
,
01000000
00000000
00011000
00000000
,
00020200
00000000
00000000
00030300
;

//---------------dance-double - ----------------
#NOTES:
     dance-double:
     :
     Hard:
     14:
     0.611216,0.940033,0.189155,0.108089,0.274725,475.000000,454.000000,21.000000,12.000000,0.000000,0.000000,0.611216,0.940033,0.189155,0.108089,0.274725,475.000000,454.000000,21.000000,12.000000,0.000000,0.000000:
00000000
00000000
00000000
00000000
,
00000000
00000000
00000000
00000000
,
00000000
00000000
00000000
00000000
,
00000000
00000000
00000000
00000000
,
02100000
00000000
00010000
03001000
,
00010200
00000000
00000000
00000000
00000010
00000010
00000310
00000000
,
00000001
00000100
00000000
00000000
00000100
00000000
00000000
00000000
00001000
00000000
00000100
00000000
00000001
00000000
00000000
00000000
,
00000010
00000010
00001000
00010000
01000000
10000000
00010000
00000000
,
10000000
00000000
10000000
01000000
10000000
00000000
00000000
00000000
01000000
00000000
00010000
00000000
00001000
00000000
00000000
00000000
,
00000100
00000000
00000100
00000001
00000100
00000000
00000000
00000000
00000001
00000000
00000010
00000000
00000011
00000000
00000000
00000000
,
00000100
00000000
00000000
00000010
00000000
00000000
00001000
00000000
00010000
00000000
00000000
01000000
00000000
00000000
10000000
00000000
,
00010000
00000000
00000000
00100000
00000000
00000000
01000000
00000000
00010000
00000000
00001000
00000000
00000100
00000000
00000001
00000000
,
00000201
00000000
00000010
00001300
,
00021000
00000000
00000000
00001000
00100000
00130000
00001000
01000000
,
00100000
00000000
00000000
10000000
00000000
00000000
00100000
00000000
00010000
00000000
00001000
00000000
00000010
00000000
00000000
00000000
,
00000001
00000100
00000000
00000100
00001000
00010000
00001000
00000000
,
00022000
00000000
00000000
00000000
,
00000000
00000000
00033000
00000000
,
00100000
00000000
01000000
00000000
11000000
00000000
00000000
10000000
,
01000000
00000000
00010000
00000000
00001000
00000000
00000000
00000000
00000010
00000000
00000000
00000001
00000000
00000000
00000010
00000000
,
00000001
00000001
00000010
00000000
00001000
00010000
00000000
01000000
,
10000000
01000000
10000000
00000000
01000000
00000000
00110000
00000000
,
00001000
00000000
00010100
00000100
00001000
00000010
00000100
00000000
,
00000001
00000010
00001000
00001000
00010000
01000000
10000000
01000000
,
00010000
00000000
01000000
00000000
10000000
00000000
01000000
00000000
00010000
00000000
00000000
00001000
00000000
00000000
00000100
00000000
,
00000001
00000000
00001100
00000000
00010000
00000000
00000000
00001000
00000000
00000000
00010000
00000000
00100000
00000000
00000000
00010000
,
00000000
00000000
00001000
00000000
00010000
00000000
00000000
00000100
00000000
00000000
00010000
00000000
00001000
00000000
00001000
00000000
,
00010000
00000000
00010000
00000000
00001000
00000000
00000000
00010000
00000000
00000000
00001000
00000000
00000100
00000000
00000000
00001000
,
00000000
00000000
00010000
00000000
00001000
00000000
00000000
00100000
00000000
00000000
00001000
00000000
00010000
00000000
00000010
00000000
,
00000110
00000000
00000000
00000000
00000001
00000000
00000100
00000000
00001000
00000000
00010000
00001000
00010000
00000000
00000000
00001000
,
00000000
00000000
00100000
00000000
01000000
00000000
00000000
10010000
00000000
00000000
01000000
00000000
00100000
00001000
00100000
00001000
,
00100000
00001000
00100000
00000000
00001000
00000000
00001000
00000000
00010000
00000000
00000010
00000000
00000100
00000000
00000000
00000202
,
00000000
00000000
00000303
00000000
00000001
00000000
00000000
00000010
00000000
00000000
00001000
00000000
00000010
00000000
00000001
00000000
,
00000200
00000000
00000000
00000000
00001300
00000000
00000000
00010000
00000000
00000000
00001000
00000000
00010000
00000000
00000000
00100000
,
00000000
00000000
00010000
00000000
00100000
10000000
00000000
00000000
00000000
00000000
00100000
10000000
00000000
00000000
00000000
00000000
,
10010000
00000000
00000000
00000000
10000000
00000000
00000000
01000000
00000000
00000000
00010000
00000000
00001000
00000000
00000000
00010000
,
00000000
00000000
00000000
00000010
00000000
00000000
00000100
00000000
00000000
00000000
00000000
00000000
00000000
00000000
00000010
00000000
00000000
00000000
00000100
00000000
00000000
00000000
00000010
00000000
,
00000000
00000100
00000000
00000001
00000000
00000000
00000001
00000000
00000000
00001000
00000000
00000100
,
00000000
00000000
00000000
00000000
00010000
00000000
00000000
00000000
00000000
00000000
00000000
00000000
00001000
00000000
00000000
00000000
00000000
00000000
00100000
00000000
00000000
00000000
00000000
00000000
01000000
00000000
00000000
00000000
00000000
00000000
00100000
00000000
00000000
00000000
00000000
00000000
00001000
00000000
00000000
00000000
00000000
00000000
00000000
00000000
00000000
00001000
00000000
00000000
,
00000000
00010000
00000010
00000010
00000100
00000100
00000001
00000100
,
00001000
00000000
00010000
00000000
01000000
00000000
10000000
00000000
00100000
00000000
01000000
00000000
00100000
00000000
01000000
00010000
,
00101000
00000000
00000000
00000000
00000000
00000000
00001000
00000000
00000000
00010000
00000000
00000000
00000000
00000000
00000000
00000000
00000000
00000000
00000010
00000000
00000000
00000000
00000000
00000000
00000100
00000000
00000000
00000000
00000000
00000000
00000001
00000000
00000000
00000000
00000000
00000000
00001000
00000000
00000000
00000000
00000010
00000000
00000000
00000000
00001000
00000000
00000000
00000000
,
00000010
00000000
00000100
00000001
00000100
00000000
00000001
00000000
00000010
00000000
00001000
00000000
00000010
00000000
00001000
00000000
,
00010000
00000000
00001000
01000000
00001000
00000000
00010000
00001000
00010000
00000000
00001000
00000000
00100000
01000000
00100000
00000000
,
01000000
00000000
10000000
00010000
10000000
00000000
00010000
01000000
00010000
00000000
01000000
00000000
00100000
01000000
00100000
00000000
,
00001000
00000000
00000000
00010000
00000000
00000000
00000010
00000000
00000100
00000000
00000000
00000001
00000000
00000000
00001000
00000000
,
00000001
00000000
00000010
00000100
00000010
00000000
00000001
00000000
00000100
00000000
00001000
00000000
00010000
00000000
01000000
00000000
,
10000000
00000000
00010000
10000000
00010000
00000000
10000000
00000000
00100000
00000000
00010000
00000000
00001000
00000000
00000010
00000000
,
00000001
00000100
00000000
00000100
00000010
00000000
00001000
00000100
00001000
00000000
00000010
00000000
00010000
00001000
00010000
00000000
,
00001000
00000000
00000000
00100000
00000000
00000000
00001000
00000000
01000000
00000000
00000000
00100000
00000000
00000000
10000000
00000000
,
00010000
00000000
00000000
00000000
10000000
00010000
10000000
00010000
10000000
00000000
01000000
00000000
00010000
00000000
01000000
00000000
,
00010000
00001000
00000100
00001000
00000100
00000001
00001000
00000001
,
00000100
00000010
00000100
00000010
00000100
00000000
00000001
00000000
00000010
00000000
00000001
00000000
00000010
00000000
00001000
00000000
,
00010000
00000000
00000000
00010000
00000000
00000000
00100000
00000000
10000000
00000000
00000000
00000000
10010000
00000000
00000000
00000000
,
00000000
01000000
00000000
00000000
00000000
00000000
00000100
00000000
,
00000010
00000001
00001000
00000001
,
00000010
00000001
00001000
00000000
,
00000100
00010000
00000100
00010000
00000100
00000000
00000000
00000000
,
00010000
00000000
00001000
00000000
,
01000000
00010000
10000000
00010000
,
01000000
00010000
10000000
00000000
,
01000000
00100000
00001000
00010000
,
00000020
00000000
00000000
00000130
00000001
00000000
00000010
00000000
,
00000100
00000010
00000001
00000010
,
00000100
00000000
00000000
00000000
00010000
00001000
00010000
00001000
,
00010000
00000000
00001000
00000000
,
01000000
00000000
00100000
01000000
,
00010000
01000000
00100000
01000000
,
00010000
00000000
10000000
00010000
,
00100000
00001000
00000000
00001000
00100000
00000000
00000000
00101000
,
00000000
00000000
00001000
00010000
,
00000010
00000100
00000001
00001000
,
00000010
00000000
00000000
00000000
00000100
00000010
00000100
00000010
,
00000100
00000001
00000010
00000100
,
00010000
00001000
01000000
00100000
,
10000000
00010000
01000000
00100000
,
01000000
00000000
10000000
01000000
,
00010000
00001000
00000010
00000011
,
00000001
00000100
00000010
00000100
,
00000001
00000100
00000010
00000000
,
00010000
00000100
00010000
00000100
00010000
00000000
00000000
00000000
,
00001000
00000000
01001000
00000000
,
01000000
00000000
01000000
00100000
,
10000000
00010000
00000000
00000000
,
00000000
10000000
01000000
00010000
,
00001000
00000000
00000010
00000010
,
00000010
00000000
00000001
00000100
,
00001000
00010000
00000000
00000000
,
01000000
10000000
00100000
01000000
,
00001000
00000000
00011000
00000000
,
00020020
00000000
00000000
00030030
;

//---------------dance-single - ----------------
#NOTES:
     dance-single:
     :
     Beginner:
     4:
     0.190442,0.326968,0.090074,0.063052,0.000000,148.000000,138.000000,10.000000,7.000000,0.000000,0.000000,0.190442,0.326968,0.090074,0.063052,0.000000,148.000000,138.000000,10.000000,7.000000,0.000000,0.000000:
0000
0000
0000
0000
,
0000
0000
0000
0000
,
0000
0000
0000
0000
,
0000
0000
0000
0000
,
0010
0000
0100
0100
,
0100
0000
0010
0010
,
0010
0000
0000
1001
,
0000
0000
0110
0110
,
0000
0100
0000
0001
,
0000
1000
0000
0010
,
0010
0000
0000
1000
,
1000
0000
0001
0001
,
0001
0000
0010
0010
,
0010
0000
0100
0100
,
0100
0000
0010
0000
,
0100
0000
0010
0000
,
0220
0000
0000
0000
,
0000
0000
0330
0000
,
0000
0000
1001
0000
,
1000
1000
1000
0000
,
0010
0000
1000
0000
,
0010
0000
0100
0100
,
0100
0000
0100
0000
,
0100
0000
0001
0001
,
0001
0001
0001
0000
,
0000
0010
0000
0000
,
0000
0100
0000
1000
,
1000
1000
0000
0001
,
0000
1000
0000
0001
,
0000
1001
0000
0100
,
0000
0010
0000
0220
,
0330
0110
0000
0001
,
0000
1000
0000
1000
,
0000
0010
0000
0010
,
0000
0200
0000
0300
,
0100
0100
0000
0000
,
0000
1000
0000
0000
,
0000
0000
0000
0000
,
0000
0001
0000
0001
,
0000
0010
0000
0200
,
0000
0300
0000
0000
,
0000
0000
0100
0000
,
0010
0000
0001
0000
,
0010
0000
0100
0000
,
1000
0000
0010
0000
,
1000
0000
0001
0000
,
0001
0000
0100
0000
,
0010
0000
0100
0000
,
0100
0000
0001
0000
,
0010
0000
0001
0000
,
1000
1000
1000
0000
,
0100
0000
0001
0000
,
0100
0000
1000
0000
,
0001
0000
0000
1001
,
0000
0000
0000
0110
,
0000
0000
0000
0000
,
0000
0000
0000
0000
,
1000
0000
0000
0000
,
1000
0000
0000
0000
,
0001
0000
0001
0000
,
0001
0000
0001
0000
,
0000
0000
0000
0000
,
0000
0000
0100
0000
,
0000
0000
0100
0000
,
0000
0000
0010
0000
,
0010
0000
0010
0000
,
0010
0000
0010
0000
,
0000
0000
1000
0000
,
0000
0000
0001
0000
,
0000
0000
1000
0000
,
0000
0000
0100
0000
,
0000
0000
0100
0000
,
0000
0000
1000
0000
,
1000
0000
1000
0000
,
1000
0000
0001
0000
,
0000
0000
0001
0000
,
0000
0000
0100
0000
,
0000
0000
0000
0000
,
0100
0000
0000
0000
,
0010
0000
0000
0000
,
1000
0000
1000
0000
,
1000
0000
1000
0000
,
1000
0000
0000
0000
,
0000
0000
0000
0000
,
0000
0001
0000
0000
,
0000
0000
0000
0000
,
0000
0000
0100
0000
,
0000
0000
0000
0000
,
0010
0000
0000
0000
,
0100
0000
0100
0000
,
0200
0000
0000
0300
;

//---------------dance-single - ----------------
#NOTES:
     dance-single:
     :
     Easy:
     9:
     0.366729,0.531323,0.162133,0.198162,0.004504,285.000000,267.000000,18.000000,22.000000,0.000000,0.000000,0.366729,0.531323,0.162133,0.198162,0.004504,285.000000,267.000000,18.000000,22.000000,0.000000,0.000000:
0000
0000
0000
0000
,
0000
0000
0000
0000
,
0000
0000
0000
0000
,
0000
0000
0000
0000
,
0002
0000
1000
0103
,
0002
0000
0000
0000
1003
0001
1000
0000
,
0010
0000
1010
0000
0000
1000
0001
0000
,
0100
0000
0101
0000
0001
1000
0001
0000
,
1000
0000
0100
0001
0000
0000
0100
1000
,
0000
0000
0100
0001
0100
0000
1000
0000
,
0002
0000
0103
0010
,
0110
0000
0001
1000
,
2002
0000
0000
3003
0010
0000
0010
0000
,
0220
0000
0000
0330
0100
1000
0001
0000
,
0100
0000
0000
0000
0100
0010
1000
0000
,
0002
0000
0000
0000
1003
0001
1000
0000
,
2002
0000
0000
0000
,
0000
0000
3003
0000
,
0000
0001
1000
0000
,
0010
1000
0001
0000
0011
0000
0000
0000
,
0100
1000
0100
0000
2000
0000
0000
0000
,
3010
0100
0001
0000
0010
0000
0010
0000
,
0100
0000
0100
0000
1000
0000
1000
0001
,
0100
0000
0100
0001
0100
0000
0010
0000
,
0100
0010
1000
1000
,
0001
0001
0001
0000
0000
0000
1000
0000
,
0000
0000
0001
0000
0000
0000
1000
0001
,
1000
0001
1000
0000
0000
0000
0010
0000
,
0000
0000
0100
0000
0000
0000
0010
0100
,
0010
1000
0000
0001
,
0000
0000
1000
0000
0000
0000
0001
1000
,
0001
0000
1000
0000
0001
0000
0000
0000
0000
0000
0000
0000
0100
0000
0000
0020
,
0000
0000
0130
0000
0000
0000
0100
0010
,
0100
0001
1000
0001
,
1000
0000
0010
0000
0000
0010
0000
0000
,
0110
0100
0000
0010
,
1000
0100
0000
0000
,
0000
0000
0000
0010
,
0000
0010
0000
0001
,
0000
0010
1000
0010
,
0010
0001
1000
0100
,
0110
0000
1100
1000
,
0001
0100
0010
0000
0100
0001
0010
0000
,
0100
1000
0010
0000
1000
0100
0010
0000
,
0001
1000
0010
0000
1000
0001
0010
0000
,
0002
0000
1003
0000
,
0010
0100
1000
0000
0100
0010
0001
0000
,
1000
0001
0100
0000
0001
1000
0100
0000
,
2000
0000
0000
0000
3010
0100
0001
1000
,
0002
0000
1003
0000
,
1000
0100
1100
0000
,
0001
0100
0101
0000
,
1000
0010
1010
0100
,
0002
0000
1003
0001
,
0000
0100
0001
0000
1000
0010
1010
0000
,
1000
0000
1000
0000
,
1000
0100
0010
0000
,
0001
0000
0001
0000
,
0001
0010
0100
1000
,
0010
0000
0010
0000
,
0010
0100
0001
0000
,
0100
0000
0010
0000
,
1000
0000
0000
0002
1003
0000
0000
0000
,
0001
0000
1000
0001
,
0100
0000
0010
0000
,
0010
0000
0010
0100
,
0001
1000
0100
0000
,
0010
0000
0001
1000
,
0001
0000
0100
0000
,
0100
0000
0000
0000
0010
0000
0000
0010
,
0000
0000
1000
0000
,
1010
0000
0010
0100
,
0001
0000
0010
0000
,
0011
0000
0001
1000
,
0010
0100
0010
0000
,
0110
0000
0100
0001
,
1000
0000
0010
0000
,
0010
0000
0020
0230
,
0301
1000
0100
0000
,
0100
1000
0001
0000
,
1000
0000
1000
0000
,
0001
0000
0002
0000
,
0103
0000
0000
0000
,
0100
0000
0000
0000
,
0000
0000
0010
0000
,
0010
0000
0000
0000
,
0000
0000
1000
0000
,
1000
0000
0000
0000
,
0001
0000
0010
0000
,
0100
0000
1000
0000
,
2200
0000
0000
3300
;

//---------------dance-double - ----------------
#NOTES:
     dance-double:
     :
     Easy:
     9:
     0.344854,0.490452,0.153126,0.063052,0.000000,268.000000,251.000000,17.000000,7.000000,0.000000,0.000000,0.344854,0.490452,0.153126,0.063052,0.000000,268.000000,251.000000,17.000000,7.000000,0.000000,0.000000:
00000000
00000000
00000000
00000000
,
00000000
00000000
00000000
00000000
,
00000000
00000000
00000000
00000000
,
00000000
00000000
00000000
00000000
,
00010020
00000000
00000000
00000000
,
00000001
00000000
00000000
00010030
,
00001000
00000000
01000000
00000000
00000000
00001000
01000000
00000000
,
00100000
00000000
10000000
00000000
01000000
00100000
00010000
00000000
,
01000000
00100000
01000000
00100000
,
00010000
00000000
00001000
00000000
00000100
00000001
00001000
00000000
,
00000010
00000000
00000000
00000010
00010000
00000000
00011000
00000000
,
01000000
00001000
00100000
00000000
01000000
00000000
10000000
00000000
,
10200000
00000000
00000000
00000000
,
00001000
00000000
00000000
10300000
,
01000000
00000000
00000000
00000000
00100000
00001000
00010000
00000000
,
00000010
00000000
00000000
00000100
00000010
00001000
00000010
00000000
,
00022000
00000000
00000000
00000000
,
00000000
00000000
00033000
00000000
,
01100000
00100000
01000000
00000000
,
10000000
00010000
10000000
00000000
01100000
00000000
00000000
01000000
,
00100000
10000000
00010000
00000000
00100000
00000000
00000000
00000000
,
00001000
00001000
00010000
00000010
,
00010000
00000010
00000100
00000001
,
00001000
00000000
00000010
00000100
00001000
00000000
00001000
00000000
,
00010000
00010000
01000000
10000000
,
00010000
00010000
00010000
00000000
00000000
00000000
01010000
00000000
,
00000000
01000000
00000000
00001000
,
00010000
00000010
00000000
00010010
,
00000000
00010000
00000000
00000010
,
00000100
00000001
00000000
00002000
,
00003010
00000000
00001000
00000000
00000000
00000000
00000100
00010000
,
00000100
00010000
00001000
01000000
,
00000000
00100000
00000000
00100000
,
00000000
10000000
01000000
00010000
,
00001000
00000010
00000000
00000010
,
00000001
00000100
00001000
00010000
,
01000000
10000000
00000000
00000000
,
00000000
00000000
00000000
00000000
,
00000000
00000001
00000010
00000100
,
00000000
00000000
00010000
00000000
00000000
00000000
00001000
00010000
,
00001000
00010000
00001000
00000000
00000000
00000000
00100000
00000000
,
11000000
00000000
00000000
00000000
00100000
00001000
00010000
00000000
,
00000010
00000000
00000000
00000000
00000010
00000100
00000001
00000000
,
00001000
00000000
00000000
00000000
00001000
00000100
00010000
00000000
,
00001000
00000000
00000000
00000000
00001000
01000000
00100000
00000000
,
01000000
00000000
10010000
00000000
,
10000000
00000000
00000000
00000000
10000000
01000000
00100000
00000000
,
00001000
00000000
00000000
00000000
00001000
00010000
00000100
00000000
,
00000010
00000000
00000000
00000000
00000010
00000001
00001000
00000000
,
00000010
00000000
00001001
00000000
,
00000001
00000100
00000100
00001000
,
00010000
00100000
00100000
10000000
,
01000000
00010000
00010000
00001000
,
00000010
00000000
00000011
00000101
,
00000000
00000001
00000100
00000000
00001000
00010000
00100000
00000000
,
10000000
00000000
10000000
00000000
,
10000000
01000000
00100000
00000000
,
00100000
00000000
00100000
00000000
,
00100000
00001000
00010000
00000000
,
00000010
00000000
00000010
00000000
,
00000010
00000100
00000001
00000000
,
00000100
00000000
00000100
00000000
,
00000010
00000000
00000000
00010000
00000100
00000000
00000000
00000000
,
00000100
00000000
00000100
00000010
,
00000001
00000000
00000010
00000000
,
00000010
00000000
00000010
00000100
,
00010000
00000000
00001000
00000000
,
00001000
00000000
00001000
01000000
,
00100000
00000000
10000000
00000000
,
00000000
00000000
00000000
00000000
00100000
00000000
00000000
00100000
,
00000000
00000000
01000000
00000000
,
01000000
00000000
01000000
00010000
,
10000000
00000000
01000000
00000000
,
01000000
00000000
01000000
00100000
,
00001000
00000000
00010000
00000000
,
00010000
00000000
00010000
00000100
,
00000010
00000000
00000001
00000000
,
00001000
00000000
00001001
00001001
,
00000010
00000000
00000010
00000000
,
00010000
00001000
01000000
00000000
,
01000000
00000000
01000000
00000000
,
00001000
00010000
00000100
00000000
,
00000010
00000000
00000001
00000000
,
00000100
00000000
00000000
00000000
,
00001000
00000000
00010000
00000000
,
00100000
00000000
10000000
00000000
,
01000000
00000000
00010000
00000000
,
00001000
00000000
00000000
00000000
,
00010000
00000000
00000010
00000000
,
00000100
00000000
00000110
00000000
,
00020020
00000000
00000000
00030030
;
