#TITLE:Girls Night Out;
#SUBTITLE:;
#ARTIST:Charli XCX;
#TITLETRANSLIT:;
#SUBTITLETRANSLIT:;
#ARTISTTRANSLIT:;
#GENRE:Pop;
#CREDIT:;
#BANNER:girlsnightout-bn.png;
#BACKGROUND:girlsnightout-bg.png;
#LYRICSPATH:;
#CDTITLE:;
#MUSIC:Girls Night Out.mp3;
#OFFSET:-0.050000;
#SAMPLESTART:37.690002;
#SAMPLELENGTH:11.999990;
#SELECTABLE:YES;
#BPMS:0.000000=124.999992
,144.000000=62.499996
,151.000000=124.999992
;
#STOPS:151.000000=0.480000
;
#BGCHANGES:;
#KEYSOUNDS:;
#ATTACKS:;

//---------------dance-single - ----------------
#NOTES:
     dance-single:
     :
     Hard:
     12:
     0.480423,0.524304,0.282453,0.070613,0.366307,381.000000,349.000000,32.000000,8.000000,0.000000,0.000000,0.480423,0.524304,0.282453,0.070613,0.366307,381.000000,349.000000,32.000000,8.000000,0.000000,0.000000:
0000
0000
0000
0000
,
0000
0000
0000
0000
,
0000
0000
0000
0000
,
0000
0000
0000
0000
,
0000
0000
0000
0000
0001
0010
0000
0100
0000
0010
0000
0010
0001
0000
0001
0000
,
0000
0000
0000
0000
1000
0100
0000
0010
0000
0010
0000
0100
2000
0000
0000
0000
,
3000
0000
0000
0000
0010
1000
0000
0001
0000
0001
0000
1000
0010
0000
0010
0000
,
0000
0000
0000
0000
0100
0001
0000
1000
0000
1000
0000
0001
0200
0000
0000
0000
,
0300
0000
0000
0000
0010
1000
0000
0001
0000
0100
0000
0001
1000
0000
0010
0000
,
0000
0000
0000
0000
0100
0001
0000
1000
0000
0010
0000
1000
0001
0000
0000
0000
,
0200
0310
0200
0310
0000
1000
0001
0010
,
0100
0000
1000
0000
0010
0000
0100
0001
0000
0000
0010
0000
0100
0000
0010
0000
,
0001
0000
0000
0011
0000
0000
0010
0000
0100
0000
1000
0000
0100
0000
0001
0000
,
0100
1000
0100
0001
0000
0100
1000
0001
,
0001
0000
0000
0110
0000
0000
0100
0000
0010
0000
0000
0000
0000
0000
0000
0000
,
0010
0000
0100
0000
0001
0000
0100
0000
0001
0000
0000
1001
0000
0000
0000
0000
,
1000
0000
0000
1100
0000
0000
0100
0000
0010
0000
0001
0000
0010
0000
1000
0000
,
0010
0000
0001
0000
0010
0000
1000
0000
0000
0000
0010
0000
0000
0001
0000
0000
,
0100
1010
0011
1001
,
0100
0000
0010
0000
1000
0000
0001
0010
0000
0000
0100
0010
0100
0000
1000
0000
,
0001
0000
0010
0000
0001
0000
0010
0001
0000
0000
0100
0000
0010
0000
1000
0000
,
1100
0000
0000
0000
0101
0000
0000
0000
1100
0000
0000
0000
0010
0000
0000
0010
,
0000
0000
0010
0000
1000
0000
0000
0100
0000
0000
0010
0000
0100
0000
1000
0000
,
0010
0000
0100
0000
0010
0000
0001
0010
0000
0000
1000
0001
1000
0000
0001
0000
,
1000
0000
0100
0000
1000
0000
0100
1000
0000
0000
0010
0000
0100
0000
0001
0000
,
0101
0000
0000
0000
1100
0000
0000
0000
0101
0000
0000
0000
1000
0000
0000
1000
,
0000
1000
0001
0000
0101
0000
1010
0000
,
1000
0000
0100
0000
0010
0000
0001
1000
0000
0000
0010
0100
0010
0000
0100
0000
,
0001
0000
0000
0000
0001
0000
0001
0000
0010
0000
0000
0001
0000
0000
0010
0000
,
0000
0001
0000
0000
0010
0000
0000
0001
0000
0000
0010
0100
0010
0100
1000
0100
,
1000
0000
0000
0000
1000
0000
1000
0000
0010
0000
0000
1000
0000
0000
0010
0000
,
0000
1000
0000
0000
0010
0000
0000
1000
0000
0000
0100
0010
0100
0010
0001
0010
,
0001
0000
1001
0010
0100
0010
0100
0001
,
0000
1000
0000
0000
1001
0000
0100
0000
0010
0000
0100
0000
0010
0000
0001
0000
,
1000
0000
0101
0010
1000
0010
1000
0001
,
0000
1000
0000
0000
1100
0000
0010
0000
0001
0000
0010
0001
0010
0000
0001
0000
,
1000
0000
0000
0000
0000
0000
0000
0000
0000
0000
0010
0000
0100
0000
0001
0000
1100
0000
0000
0000
0101
0000
0000
0000
1001
0000
0000
0000
0010
0000
0000
0100
,
0000
1000
0000
0000
0000
0000
0000
0000
0000
0000
0000
0000
0110
0000
0000
0000
,
0100
0000
0000
0001
0000
0000
0000
1000
0000
1000
0100
0000
0010
0000
0001
0000
,
0101
0000
0000
0000
1010
0000
0000
0000
1100
0000
0000
0000
0010
0000
0000
0001
,
0000
1000
0010
2000
3100
2000
3100
2000
,
3100
0000
0001
0000
0100
0000
0010
0100
0000
0000
1000
0001
1000
0000
0001
0000
,
0010
0000
0000
0100
0000
0000
0000
0010
0000
0010
0001
0000
0100
0000
0010
0000
,
1000
0000
0010
0000
0001
0000
0010
0000
1000
0000
0000
0000
1001
0000
0000
1100
,
0000
0010
0002
0000
0103
0000
1001
0000
,
0001
0000
1000
0000
0001
0000
1000
0010
0000
0000
0100
0001
0100
0000
0010
0000
,
1000
0000
0000
0000
1100
0000
0010
0000
0001
0000
0100
0000
0001
0000
0000
0001
,
0100
0000
0000
0000
0101
0000
0010
0000
1000
0000
0100
0000
1000
0000
0000
1000
,
0010
0000
1010
0010
0100
0001
0100
0010
,
1000
0000
0001
0010
0001
0000
1000
0000
1000
0000
0100
0010
0100
0000
0010
0000
,
0010
0000
0000
0001
0100
0000
1000
0000
0100
0000
1000
0000
0100
0001
0000
0000
,
0001
0000
0000
1000
0100
0000
0001
0000
0100
0000
0001
0000
0100
1000
0000
0000
,
1000
0000
0000
0001
0010
0000
1000
0000
0010
0000
1000
0000
0010
0000
0001
0000
,
0100
0000
0001
1000
0001
0000
1000
0000
0100
0000
1000
0001
1000
0000
0001
0000
,
0100
0000
0000
0000
;

//---------------dance-double - ----------------
#NOTES:
     dance-double:
     :
     Hard:
     12:
     0.489250,0.524304,0.238320,0.052960,0.370720,388.000000,361.000000,27.000000,6.000000,0.000000,0.000000,0.489250,0.524304,0.238320,0.052960,0.370720,388.000000,361.000000,27.000000,6.000000,0.000000,0.000000:
00000000
00000000
00000000
00000000
,
00000000
00000000
00000000
00000000
,
00000000
00000000
00000000
00000000
,
00000000
00000000
00000000
00000000
,
01100000
00000000
00000000
00000000
00100000
10000000
00000000
10000000
00000000
00010000
00000000
00010000
01000000
00000000
00001000
00000000
,
00000000
00000000
00000000
00000000
00010000
00000010
00000000
00000010
00000000
00000100
00000000
00000100
00000001
00000000
00000000
00000000
,
00000000
00000000
00000000
00000000
00000010
00000001
00000000
00000001
00000000
00001000
00000000
00001000
00000100
00000000
00010000
00000000
,
00000000
00000000
00000000
00000000
00001000
01000000
00000000
01000000
00000000
00100000
00000000
00100000
10000000
00000000
00000000
00000000
,
10010000
00000000
00000000
00000000
10000000
00010000
00000000
01000000
00000000
00010000
00000000
10000000
01000000
00000000
00010000
00000000
,
00001000
00000000
00000000
00000000
00000100
00000001
00000000
00000001
00000000
00001000
00000000
00001000
00000010
00000000
00000000
00000000
,
00000200
00000301
00002000
00003010
00000000
00000010
00000100
00001000
,
00010000
00000000
01000000
00000000
10000000
00000000
00010000
10000000
00000000
00000000
00100000
00000000
01000000
00000000
00100000
00000000
,
10000000
00000000
00000000
01000000
00000000
00000000
00010000
00000000
00001000
00000000
00000010
00000000
00000001
00000000
00000010
00000000
,
00000001
00000100
00000001
00000100
00000000
00000001
00000010
00001000
,
00010000
00000000
00100000
10000000
00000000
10000000
00010000
00000000
01000000
00000000
00100000
00000000
00000000
00100000
00000000
00000000
,
10000000
01000000
00010000
00001000
00010000
01000000
10000000
00000000
,
00010000
00000000
00000000
00100000
00000000
00000000
01000000
00000000
00010000
00000000
00001000
00000000
00000100
00000000
00000001
00000000
,
00001000
00000000
00000010
00000000
00001000
00000000
00000010
00000000
00000000
00000000
00000100
00000000
00000000
00000100
00000000
00000000
,
00000101
00001010
00000101
00001001
,
00000001
00000000
00000100
00000000
00001000
00000000
00010000
00001000
00000000
00000000
00010000
00000000
00100000
00000000
10000000
00000000
,
00010000
00000000
01000000
00000000
00010000
00000000
00100000
01000000
00000000
00000000
10000000
00000000
00010000
00000000
10000000
00000000
,
10010000
00000000
00000000
00000000
01001000
00000000
00000000
00000000
00011000
00000000
00000000
00000000
00010010
00000000
00000000
00000010
,
00000100
00000000
00000010
00000000
00001000
00000000
00000000
00000100
00000000
00000100
00000010
00000000
00000001
00000000
00000010
00000000
,
00001000
00000000
00010000
00000000
00100000
00000000
10000000
00010000
00000000
00000000
01000000
00100000
01000000
00000000
00001000
00000000
,
00010000
00000000
00000010
00000000
00000100
00000000
00000010
00010000
00000000
00000000
00000100
00000000
00001000
00000000
00000010
00000000
,
00001010
00000000
00000000
00000000
00010010
00000000
00000000
00000000
00011000
00000000
00000000
00000000
01001000
00000000
00000000
01000000
,
00100000
02000000
00020000
03030000
01010000
00000000
10100000
00000000
,
10000000
00000000
01000000
00000000
00010000
00000000
00001000
00000010
00000000
00000000
00000001
00001000
00000001
00000000
00000100
00000000
,
00000001
00000000
00000000
00000000
00000001
00000000
00000001
00000000
00000001
00000000
00000000
00000001
00000000
00000000
00000100
00000000
,
00000000
00001000
00000000
00000000
00010000
00000000
00000000
01000000
00000000
00000000
10000000
00010000
10000000
00010000
10000000
00010000
,
10000000
00000000
00000000
00000000
10000000
00000000
10000000
00000000
10000000
00000000
00000000
10000000
00000000
00000000
01000000
00000000
,
00000000
00010000
00000000
00000000
00001000
00000000
00000000
00000100
00000000
00000000
00000001
00001000
00000001
00001000
00000001
00001000
,
00000001
00000000
00000000
00000001
00000100
00000000
00001000
00000000
00010000
00000000
00001000
00000000
00010000
00000000
01000000
00000000
,
00000000
01000000
00000000
00000000
10000000
00000000
01000000
00000000
00010000
00000000
01000000
00000000
00010000
00000000
00001000
00000000
,
00000100
00000000
00000000
00000001
00000010
00000000
00001000
00000000
00010000
00000000
00001000
00000000
00010000
00000000
00100000
00000000
,
00000000
10000000
00000000
00000000
00100000
00000000
00010000
00000000
00001000
00000000
00010000
00001000
00010000
00000000
00000010
00000000
,
00000100
00000000
00000000
00000000
00000000
00000000
00000000
00000000
00000001
00000000
00000100
00000000
00000001
00000000
00001000
00000000
00001001
00000000
00000000
00000000
00010100
00000000
00000000
00000000
00011000
00000000
00000000
00000000
00010000
00000000
00000000
00100000
,
00000000
10000000
00000000
00000000
00000000
00000000
00000000
00000000
00000000
00000000
00000000
00000000
10010000
00000000
00000000
00000000
,
00001000
00000000
00000000
00000001
00000000
00000000
00000000
00000100
00000000
00000100
00000010
00000000
00000100
00000000
00001000
00000000
,
00011000
00000000
00000000
00000000
01010000
00000000
00000000
00000000
11000000
00000000
00000000
00000000
00010000
10000000
00000000
10000000
,
00010000
00000000
01000000
00100000
00010000
00100000
00010000
00001000
,
00000100
00000000
00000001
00000000
00001000
00000000
00000010
00000100
00000000
00000000
00000010
00000100
00000010
00000000
00010000
00000000
,
00001000
00000000
00000000
01000000
00000000
00000000
00000000
00100000
00000000
00100000
10000000
00000000
01000000
00000000
00010000
00000000
,
01000000
00000000
10000000
00000000
00010000
00000000
00100000
00000000
00110000
00000000
00000000
00000000
00101000
00000000
00000000
00001000
,
00010000
00000020
00000200
00000330
00001100
00000000
00000101
00000000
,
00000010
00000000
00000100
00000000
00001000
00000000
00010000
01000000
00000000
00000000
10000000
00010000
10000000
00000000
00100000
00000000
,
01000000
00000000
00000000
00010000
00100000
00000000
01000000
00000000
00010000
00000000
01000000
00000000
00010000
00000000
00000000
00000000
,
00001000
00000000
00001000
00000100
00000001
00000100
00000001
00000000
,
00000010
00000000
00000010
00001000
00010000
00001000
00010000
00100000
,
10000000
00000000
00010000
01000000
00010000
00000000
10000000
00000000
10000000
00000000
00010000
01000000
00010000
00000000
10000000
00000000
,
10000000
00000000
00000000
01000000
10000000
00000000
01000000
00000000
00010000
00000000
01000000
00000000
00010000
00000000
00000000
00000000
,
00001000
00000000
00000000
00000100
00000001
00000000
00000010
00000000
00000100
00000000
00000010
00000000
00000100
00000000
00000000
00000000
,
00000010
00000000
00000000
00001000
00010000
00000000
00100000
00000000
10000000
00000000
00100000
00000000
00010000
00000000
00001000
00000000
,
00000010
00000000
00000001
00000100
00000001
00000000
00001000
00000000
00001000
00000000
00000001
00000100
00000001
00000000
00001000
00000000
,
00001000
00000000
00000000
00000000
;

//---------------dance-single - ----------------
#NOTES:
     dance-single:
     :
     Beginner:
     1:
     0.087006,0.119160,0.008827,0.000000,0.000000,69.000000,68.000000,1.000000,0.000000,0.000000,0.000000,0.087006,0.119160,0.008827,0.000000,0.000000,69.000000,68.000000,1.000000,0.000000,0.000000,0.000000:
0000
0000
0000
0000
,
0000
0000
0000
0000
,
0000
0000
0000
0000
,
0000
0000
0000
0000
,
0000
0001
0000
0000
,
0000
0001
0000
0000
,
0000
0100
0000
0000
,
0000
0100
0000
0000
,
0000
1000
0000
0000
,
0000
1000
0000
0000
,
0010
0010
0000
0000
,
0100
0000
0000
0000
,
0001
0000
0001
0000
,
0001
0000
0000
0000
,
1000
0000
1000
0000
,
0000
1000
1000
0000
,
0100
0000
0100
0000
,
0100
0000
0000
0000
,
0010
0000
0010
0000
,
0010
0000
0000
0001
,
0001
0000
0000
0000
,
1000
0000
0000
0000
,
1000
0000
0000
0000
,
0000
0000
0000
0010
,
0010
0000
0000
0000
,
0100
0000
0000
0000
,
0100
0000
0000
0000
,
0001
0000
0001
0000
,
1000
0000
0000
0000
,
0000
0001
0000
0001
,
0000
0100
0000
0000
,
0000
0010
0000
0010
,
0000
0000
1000
1000
,
0000
0000
0001
0001
,
0000
0000
1000
1000
,
0000
0000
0001
0000
,
0001
0000
0100
0000
,
0100
0000
0000
0110
,
0000
0000
0000
0000
,
0010
0000
0000
0000
,
0010
0000
0000
0000
,
1000
0000
0000
0000
,
0001
0000
0000
0000
,
0001
0000
0000
0000
,
0001
0000
0000
0000
,
0100
0000
0000
0010
,
0010
0000
1000
0000
,
0000
0000
1000
0000
,
0000
0000
1000
0000
,
0000
0001
0000
0000
,
0001
0000
0001
0000
,
0000
0000
0001
0000
,
0000
0000
0001
0000
,
0000
0000
0100
0000
,
0100
0000
0000
0000
;

//---------------dance-single - ----------------
#NOTES:
     dance-single:
     :
     Easy:
     4:
     0.167707,0.190656,0.017653,0.061787,0.000000,133.000000,131.000000,2.000000,7.000000,0.000000,0.000000,0.167707,0.190656,0.017653,0.061787,0.000000,133.000000,131.000000,2.000000,7.000000,0.000000,0.000000:
0000
0000
0000
0000
,
0000
0000
0000
0000
,
0000
0000
0000
0000
,
0000
0000
0000
0000
,
0000
0100
0001
0010
,
0000
0100
1000
0010
,
0000
0100
0001
0010
,
0000
0100
1000
0001
,
0000
1000
0010
0100
,
0000
0001
0100
0010
,
1000
1000
0000
1000
,
0010
0010
0010
0100
,
0002
0000
1003
0010
,
1000
0010
0000
0000
,
2000
0000
3001
0000
,
0000
0100
0100
0010
,
0200
0000
0301
0010
,
0001
0010
0000
0000
,
0200
1300
0200
1300
,
0010
0100
0000
0000
,
0001
0000
0000
0100
,
0001
0010
0001
0010
,
0001
0000
0000
0000
,
1000
1000
0001
0100
,
0010
0000
0000
0010
,
1000
0100
1000
0100
,
1000
0000
0001
0000
,
0100
0100
0100
0000
,
0110
0000
2000
0000
,
0000
0000
0000
3001
,
0001
0000
0200
0000
,
0000
0000
0300
0010
,
0010
0000
1000
0001
,
0000
0000
0001
1000
,
0000
0000
1000
0001
,
0000
0000
0001
1000
,
0001
0000
0100
0010
,
0100
0000
0000
1001
,
0000
0000
0000
0001
,
0100
0010
0100
0010
,
0100
0000
0010
0010
,
0010
0000
0000
1000
,
0100
0000
0000
0100
,
0010
0001
0010
0001
,
0010
0000
0100
0000
,
1000
1000
1000
0001
,
0100
0000
0100
0010
,
0000
0000
0010
0100
,
0000
0000
0100
0010
,
0000
1000
1000
0001
,
0001
0000
0010
0001
,
0000
0000
1000
0100
,
0000
0000
1000
0010
,
0000
0100
0100
0010
,
0010
0000
0000
0000
;

//---------------dance-single - ----------------
#NOTES:
     dance-single:
     :
     Medium:
     8:
     0.326587,0.452808,0.132400,0.097093,0.092680,259.000000,244.000000,15.000000,11.000000,0.000000,0.000000,0.326587,0.452808,0.132400,0.097093,0.092680,259.000000,244.000000,15.000000,11.000000,0.000000,0.000000:
0000
0000
0000
0000
,
0000
0000
0000
0000
,
0000
0000
0000
0000
,
0000
0000
0000
0000
,
0000
0000
0000
0000
0010
0000
0000
0100
0000
0000
0010
0000
1000
0000
0001
0000
,
0000
0000
0000
0000
0100
0000
0000
0010
0000
0000
0100
0000
0001
0000
0000
0000
,
0000
0000
0000
0000
1000
0000
0000
0100
0000
0000
0010
0000
0100
0000
1000
0000
,
0000
0000
0000
0000
0001
0000
0000
0010
0000
0000
0100
0000
0010
0000
0000
0000
,
0000
0000
0000
0000
0100
0000
0000
1000
0000
0000
0001
0000
1000
0000
0100
0000
,
0000
0000
0000
0000
0010
0000
0000
0001
0000
0000
1000
0000
0001
0000
0000
0000
,
0101
0000
1001
0000
0000
0010
1000
0100
,
1000
0010
0100
0001
0000
0010
0100
0010
,
0100
0000
0000
1000
0000
0000
0100
0000
1000
0000
0000
0000
0001
0000
0000
0000
,
0001
0000
0001
0010
0000
0001
1000
0001
,
0010
0000
0000
0001
0000
0000
0010
0000
0002
0000
0000
0000
0003
0000
0000
0000
,
0000
1000
0100
1000
0200
0000
0300
0000
,
1000
0000
0000
0001
0000
0000
1000
0000
0001
0000
0000
0000
0100
0000
0000
0000
,
0100
0000
0100
0010
0000
0000
0000
0000
,
1010
1100
0011
0101
,
0100
0010
0100
0010
0000
0010
1000
0001
,
0100
0000
0000
0000
0000
0100
0001
0100
,
0002
0000
0000
0000
0203
0000
0000
0000
0302
0000
0000
0000
0103
0000
0000
0010
,
0000
0100
0000
0000
0000
0001
0010
0100
,
1000
0000
0010
1000
0000
1000
0100
1000
,
0100
0000
0000
0000
0000
0010
0001
1000
,
0020
0000
0000
0000
2030
0000
0000
0000
3020
0000
0000
0000
0130
0000
0000
0010
,
0000
0100
0001
0000
1001
0000
0110
0000
,
1000
0001
1000
0001
0000
1000
0100
0010
,
0001
0000
0000
0000
0100
0000
0100
0000
0100
0000
0000
0100
0000
0000
0100
0000
,
0000
0100
0000
0000
0100
0000
0000
0100
0000
0000
0100
0000
0000
0000
0000
0000
,
0000
0000
0000
0000
0010
0000
0010
0000
0010
0000
0000
0010
0000
0000
0010
0000
,
0000
0010
0000
0000
0010
0000
0000
0010
0000
0000
0010
0000
0000
0000
0000
0000
,
0000
0000
0000
0010
1000
0010
1000
0000
,
0000
0000
0000
0001
0100
0001
0100
0000
,
0000
0000
0000
0010
1000
0010
1000
0000
,
0000
0000
0000
1000
0100
1000
0010
0100
,
0001
0000
0000
0000
0010
0100
0010
0100
0010
0000
0011
0000
1100
0000
1001
0000
,
0110
0000
0000
1100
,
0000
0000
0000
0000
0000
1000
0001
0100
,
0002
0000
0000
0000
0023
0000
0000
0000
0230
0000
0000
0000
1300
0000
0000
1000
,
0000
1000
0000
0010
0100
0010
1000
0010
,
0100
0000
0000
0000
0000
0100
0001
1000
,
0010
0000
0000
0000
0100
0010
0100
0001
,
0100
0000
0100
0000
0010
0000
0000
0000
1001
0000
0000
0000
0001
0000
0000
0001
,
0000
0001
0010
0000
0001
0000
0100
0000
,
0010
1000
0100
1000
0010
0000
0100
0010
,
0110
0000
0000
1000
0100
0010
0001
0000
,
0000
0000
0000
0001
0010
0100
1000
0000
,
0000
0000
0000
1000
0100
0010
0001
0000
,
0000
0100
0010
0100
0010
1000
0001
1000
,
0001
0000
0000
0100
0010
1000
0001
0000
,
0000
0000
0000
0001
1000
0010
0100
0000
,
0000
0000
0000
0100
0010
1000
0001
0000
,
0000
1000
0100
1000
0100
0010
0001
0010
,
0001
0000
0000
0000
;

//---------------dance-double - ----------------
#NOTES:
     dance-double:
     :
     Medium:
     8:
     0.325326,0.428976,0.141227,0.141227,0.066200,258.000000,242.000000,16.000000,16.000000,0.000000,0.000000,0.325326,0.428976,0.141227,0.141227,0.066200,258.000000,242.000000,16.000000,16.000000,0.000000,0.000000:
00000000
00000000
00000000
00000000
,
00000000
00000000
00000000
00000000
,
00000000
00000000
00000000
00000000
,
00000000
00000000
00000000
00000000
,
00000000
00100000
01000000
11000000
,
00000000
01000000
00001000
01001000
,
00000000
00000000
00010000
00000010
00000100
00000001
00000010
00000010
,
00000000
00000000
00000100
00010000
00001000
01000000
00100000
00000000
,
00000000
00010000
00001000
00000101
,
00000000
00000010
00000100
00011000
,
00001000
00100000
00001000
00100000
00000000
01000000
10000000
01000000
,
00100000
00001000
00010000
00001000
00000000
00010000
00000010
00000100
,
00000001
00000000
00000000
00000001
00000000
00000000
00001000
00000000
00001000
00000000
00000000
00000000
00001001
00000000
00000000
00000000
,
00000010
00000000
00000100
00000000
00000000
00000010
00000100
00000010
,
00010000
00000000
00000000
00010000
00000000
00000000
00001000
00000000
00001000
00000000
00000000
00000000
00000000
00000000
00000000
00000000
,
00000000
01000000
00100000
01000000
00100000
00000000
10010000
00000000
,
10000000
00000000
00000000
10000000
00000000
00000000
00010000
00000000
00010000
00000000
00000000
00000000
01010000
00000000
00000000
00000000
,
00100000
00001000
00000000
00000000
,
00020000
00030020
00020030
00030020
,
00000130
00000001
00000100
00000010
00000000
00000100
00000010
00010000
,
00001000
00000000
00011000
00000000
00000000
00001000
00100000
01000000
,
20000000
00000000
00000000
00000000
32000000
00000000
00000000
00000000
03020000
00000000
00000000
00000000
00031000
00000000
00000000
00010000
,
00000000
00000000
00000000
00000000
00000000
00000100
00001000
00000100
,
00000010
00000001
00000100
00000000
00000000
00000010
00010000
00001000
,
00000100
00000000
00000000
00000000
00000000
00000010
00000100
00001000
,
00000002
00000000
00000000
00000000
00000203
00000000
00000000
00000000
00002300
00000000
00000000
00000000
00013000
00000000
00000000
00001000
,
00000000
00100000
02000000
00000000
03200000
00000000
02300000
00000000
,
13000000
00010000
01000000
00100000
00000000
01000000
00010000
10000000
,
00100000
00000000
00000000
00000000
10000000
00000000
10000000
00000000
10000000
00000000
00000000
10000000
00000000
00000000
10000000
00000000
,
00000000
10000000
00000000
00000000
10000000
00000000
00000000
10000000
00000000
00000000
10000000
00000000
00000000
00000000
00000000
00000000
,
00000000
00000000
00000000
00000000
00000001
00000000
00000001
00000000
00000001
00000000
00000000
00000001
00000000
00000000
00000001
00000000
,
00000000
00000001
00000000
00000000
00000001
00000000
00000000
00000001
00000000
00000000
00000001
00000000
00000000
00000000
00000000
00000000
,
00000101
00000000
00000000
00000001
00000100
00001000
00010000
00000000
,
00000000
00000000
00000000
00001000
00010000
01000000
10000000
00000000
,
00000000
00000000
00000000
10000000
01000000
00010000
00001000
00000000
,
00000000
00000000
00000000
00010000
00001000
00000100
00000001
00000000
,
00001001
00000000
00000000
00000000
00000000
00000100
00000010
00010000
00000010
00000000
00010010
00000000
00011000
00000000
00101000
00000000
,
01100000
00000000
00000000
10010000
,
00100000
00000000
00000000
00000000
00000000
00100000
01000000
00010000
,
20000000
00000000
00000000
00000000
30200000
00000000
00000000
00000000
00320000
00000000
00000000
00000000
00031000
00000000
00000000
00010000
,
00000000
00000000
00000000
00000010
00001000
00000010
00000100
00000010
,
00001000
00000000
00000001
00000010
00000000
00000001
00000100
00000010
,
00001000
00000000
00000000
00000000
00000000
00000010
00010000
00001000
,
01000000
00000000
00100000
00000000
01000000
00000000
00001000
00000000
00010000
00000000
00000000
00000000
00000010
00000000
00000000
00000010
,
00000000
00000100
00001000
00000000
00000100
00000000
00011000
00000000
,
00100000
00010000
00100000
00010000
00000000
01000000
00100000
10000000
,
00010000
00000000
00000000
10000000
00100000
00010000
00001000
00000000
,
00000000
00000000
00000000
00010000
00001000
00000010
00000001
00000000
,
00000000
00000000
00000000
00000001
00000010
00001000
00010000
00000000
,
00000000
00001000
00010000
00001000
00010000
00000010
00001000
00000010
,
00001000
00000000
00000000
00000001
00000100
00001000
00010000
00000000
,
00000000
00000000
00000000
01000000
10000000
00100000
00010000
00000000
,
00000000
00000000
00000000
00001000
00000010
00000001
00000100
00000000
,
00000000
00010000
00001000
00010000
00001000
01000000
00010000
01000000
,
00010000
00000000
00000000
00000000
;

//---------------dance-double - ----------------
#NOTES:
     dance-double:
     :
     Easy:
     1:
     0.063048,0.095328,0.000000,0.008827,0.000000,50.000000,50.000000,0.000000,1.000000,0.000000,0.000000,0.063048,0.095328,0.000000,0.008827,0.000000,50.000000,50.000000,0.000000,1.000000,0.000000,0.000000:
// measure 0
00000000
00000000
00000000
00000000
,  // measure 1
00000000
00000000
00000000
00000000
,  // measure 2
00000000
00000000
00000000
00000000
,  // measure 3
00000000
00000000
00000000
00000000
,  // measure 4
00000000
10000000
00000000
00000000
,  // measure 5
00000000
01000000
00000000
00000000
,  // measure 6
00000000
00100000
00000000
00000000
,  // measure 7
00000000
00001000
00000000
00000000
,  // measure 8
00000000
00010000
00000000
00000000
,  // measure 9
00000000
00000100
00000000
00000000
,  // measure 10
00000010
00000010
00000000
00000000
,  // measure 11
00000001
00000000
00000000
00000000
,  // measure 12
00001000
00000000
00000000
00000000
,  // measure 13
00000100
00000000
00000000
00000000
,  // measure 14
00010000
00000000
00000000
00000000
,  // measure 15
00000000
00001000
00000000
00000000
,  // measure 16
00100000
00000000
00000000
00000000
,  // measure 17
01000000
00000000
00000000
00000000
,  // measure 18
10000000
00000000
00000000
00000000
,  // measure 19
10000000
00000000
00000000
00000000
,  // measure 20
00100000
00000000
00000000
00000000
,  // measure 21
01000000
00000000
00000000
00000000
,  // measure 22
01000000
00000000
00000000
00000000
,  // measure 23
00001000
00000000
00000000
00000000
,  // measure 24
00010000
00000000
00000000
00000000
,  // measure 25
00000010
00000000
00000000
00000000
,  // measure 26
00000010
00000000
00000000
00000000
,  // measure 27
00000100
00000000
00000000
00000000
,  // measure 28
00010000
00000000
00000000
00000000
,  // measure 29
00000000
00000000
00000000
00000000
,  // measure 30
00000000
00001000
00000000
00000000
,  // measure 31
00000000
00000000
00000000
00000000
,  // measure 32
00000000
00000000
00001000
00000000
,  // measure 33
00000000
00000000
01000000
00000000
,  // measure 34
00000000
00000000
00100000
00000000
,  // measure 35
00000000
00000000
10000000
00000000
,  // measure 36
10000000
00000000
00000000
00000000
,  // measure 37
00000000
00000000
00000000
00100000
,  // measure 38
00000000
00000000
00000000
00000000
,  // measure 39
01000000
00000000
00000000
00000000
,  // measure 40
00001000
00000000
00000000
00000000
,  // measure 41
00020000
00000000
00030000
00000000
,  // measure 42
00000100
00000000
00000000
00000000
,  // measure 43
00000010
00000000
00000000
00000000
,  // measure 44
00000001
00000000
00000000
00000000
,  // measure 45
00000100
00000000
00000000
00000000
,  // measure 46
00000010
00000000
00010000
00000000
,  // measure 47
00000000
00000000
00001000
00000000
,  // measure 48
00000000
00000000
00100000
00000000
,  // measure 49
00000000
00000000
00000000
00000000
,  // measure 50
01000000
00000000
10000000
00000000
,  // measure 51
00000000
00000000
00100000
00000000
,  // measure 52
00000000
00000000
01000000
00000000
,  // measure 53
00000000
00001000
00000000
00000000
,  // measure 54
00010000
00000000
00000000
00000000
;
