#TITLE:Future Club;
#SUBTITLE:;
#ARTIST:Perturbator;
#TITLETRANSLIT:;
#SUBTITLETRANSLIT:;
#ARTISTTRANSLIT:;
#GENRE:Dance;
#CREDIT:;
#BANNER:;
#BACKGROUND:;
#LYRICSPATH:;
#CDTITLE:;
#MUSIC:Future Club.mp3;
#OFFSET:-0.042000;
#SAMPLESTART:53.408012;
#SAMPLELENGTH:13.000004;
#SELECTABLE:YES;
#BPMS:0.000000=100.000000
;
#STOPS:
;
#BGCHANGES:;
#KEYSOUNDS:;
#ATTACKS:;

//---------------dance-single - ----------------
#NOTES:
     dance-single:
     :
     Challenge:
     13:
     0.607171,0.568624,0.019723,0.039445,0.926958,431.000000,429.000000,2.000000,4.000000,0.000000,0.000000,0.607171,0.568624,0.019723,0.039445,0.926958,431.000000,429.000000,2.000000,4.000000,0.000000,0.000000:
0000
0000
0000
0000
,
0000
0000
0000
0000
,
1000
0000
0100
0010
0000
0010
0100
0000
1000
0001
0000
0001
1000
0000
0001
0000
,
0001
0000
0100
0010
0000
0010
0100
0000
0001
1000
0000
1000
0001
0000
1000
0000
,
0010
0000
0100
0001
0000
0001
0100
0000
0010
1000
0000
1000
0010
0000
0100
0000
,
0100
0000
0001
0010
0000
0010
0001
0000
1000
0100
0000
0100
2000
0000
0002
0000
,
0000
0000
3003
0000
1000
0100
1000
0000
1000
0010
1000
0010
1000
0100
1000
0000
,
1000
0010
1000
0000
0001
0100
0001
0000
0001
0010
0001
0010
0001
0100
0001
0000
,
0001
0010
0001
0000
0100
0001
0100
0000
0100
0010
0100
0010
0100
0001
0100
0000
,
0100
0010
0100
0000
0010
1000
0010
0000
0010
0100
0010
0100
0010
1000
0010
0000
,
0010
0100
0010
0000
1000
0100
1000
0001
1000
0000
0010
0100
0000
0010
0100
0000
,
0001
0010
0100
1000
0001
0010
0001
0100
0001
0000
0100
0010
0000
0100
0010
0000
,
1000
0100
0010
0001
0100
0010
0100
0001
0100
0000
0010
1000
0000
0010
1000
0000
,
0010
1000
0001
0100
0010
0100
0010
1000
0010
0000
0100
0001
0000
0100
0001
0000
,
1000
0100
0010
0001
1000
0000
1000
0100
0000
0100
1000
0000
1000
0001
0000
0001
,
1000
0000
0010
0000
0010
0000
0010
1000
0000
1000
0001
0000
0001
0100
0000
0100
,
0010
0000
1000
0000
1000
0000
1000
0100
0000
0100
1000
0000
1000
0001
0000
0001
,
1000
0000
0010
0000
0010
0000
0010
1000
0000
1000
0001
0000
0001
0100
0000
0100
,
0010
0000
1000
0000
1000
0000
0001
0100
0000
0100
0001
0000
0001
1000
0000
1000
,
0001
0000
0010
0000
0010
0000
0010
0001
0000
0001
1000
0000
1000
0100
0000
0100
,
0010
0000
0001
0000
0001
0000
0001
0100
0000
0100
0001
0000
0001
1000
0000
1000
,
0001
0000
0010
0000
0010
0000
0010
0001
0000
0001
1000
0000
1000
0100
0000
0100
,
0010
0000
0010
0000
0001
0000
0100
0001
0000
0001
0100
0000
0010
1000
0000
1000
,
0100
0010
0001
0000
1000
0000
0010
1000
0000
1000
0010
0000
0100
0001
0000
0001
,
0010
0100
1000
0000
0010
0000
1000
0100
0000
0100
1000
0000
1000
0010
0000
0010
,
1000
0100
0010
0000
0001
0000
0001
0100
0000
0100
0001
0000
0001
0010
0000
0010
,
0001
0100
0010
0000
1000
0000
0001
0010
0000
0010
0001
0000
1000
0100
0000
0100
,
1000
0001
0010
0000
0001
0000
1000
0100
0000
0100
1000
0000
0001
0010
0000
0010
,
0001
1000
0100
0000
0010
0000
0010
0001
0000
0001
0010
0000
0010
0100
0000
0100
,
0010
0001
1000
0000
0100
0000
0100
0010
0000
0010
0100
0000
0100
1000
0000
1000
,
0100
0010
0001
0000
1000
0000
0000
0000
0001
0000
0000
0000
1000
0000
0000
0000
,
0001
2002
0000
0000
,
0000
0000
3003
0000
0010
1000
0010
0100
0000
0100
0001
0000
1000
0001
0000
0010
,
0100
1000
0001
0100
0001
1000
0010
0100
0010
0001
0010
0000
1000
0001
0000
0001
,
0100
0010
0100
0010
0001
0010
1000
0001
0000
0100
1000
0000
0100
0001
0000
1000
,
0010
0100
0001
0000
0010
1000
0010
0001
0000
0100
0010
0000
0001
0010
0000
0010
,
1000
0001
0100
0000
0010
1000
0010
1000
0000
0100
0001
0000
0100
1000
0000
0010
,
0100
0001
1000
0000
0100
0001
0100
0001
0000
0100
1000
0000
0010
0100
0000
0001
,
0010
0100
1000
0000
0010
0001
0010
0001
0000
0010
1000
0000
0100
0010
0000
0001
,
1000
0010
0100
0000
0010
1000
0010
1000
0000
0010
0001
0000
0010
1000
0010
1000
,
0010
0100
0001
0000
1001
0000
0100
0001
0000
0001
1000
0000
0010
1000
0000
1000
,
0100
0010
0100
0010
0000
0000
0000
0000
0000
0000
0000
0000
0000
0000
0000
0000
;

//---------------dance-single - ----------------
#NOTES:
     dance-single:
     :
     Hard:
     11:
     0.455026,0.487392,0.000000,0.078890,0.576883,323.000000,323.000000,0.000000,8.000000,0.000000,0.000000,0.455026,0.487392,0.000000,0.078890,0.576883,323.000000,323.000000,0.000000,8.000000,0.000000,0.000000:
0000
0000
0000
0000
,
0000
0000
0000
0000
,
0001
0000
0100
0001
0000
0100
0001
0000
0100
0010
0000
0100
0010
0000
0000
0000
,
1000
0000
0010
1000
0000
0010
1000
0000
0010
0100
0000
0010
0100
0000
0000
0000
,
0001
0000
1000
0100
0000
1000
0100
0000
1000
0010
0000
1000
0010
0000
0000
0000
,
1000
0000
0001
0100
0000
0001
0100
0000
0001
0010
0000
0001
0020
0000
0200
0000
,
0000
0330
1000
0010
1000
0100
0001
0100
,
1000
0000
0001
0010
0001
0100
1000
0100
,
0001
0000
0010
0100
0001
0100
1000
0001
,
1000
0000
0010
0100
1000
0100
0001
1000
,
0001
0000
0000
0000
1000
0100
1000
0100
1000
0000
0000
1000
0000
1000
0010
0000
,
1000
0010
0100
0000
0100
0001
0100
0001
0100
0000
0000
0100
0000
0100
0001
0000
,
0001
0010
0100
0000
0010
0100
0010
0100
0010
0000
0000
0010
0000
0010
0100
0000
,
0100
1000
0010
0000
1000
0010
1000
0010
1000
0000
0000
1000
0000
1000
0001
0000
,
0001
1000
0100
0000
0100
0000
0000
0001
0000
0000
0100
0000
0010
0000
0000
1000
,
0000
0000
0010
0000
1000
0000
0000
0100
0000
0000
1000
0000
0001
0000
0000
0010
,
0000
0000
0001
0000
0100
0000
0000
0010
0000
0000
0100
0000
0001
0000
0000
1000
,
0000
0000
0001
0000
1000
0000
0000
0100
0000
0000
0010
0000
0001
0000
0000
0010
,
0000
0000
0100
0000
1000
0000
0000
0001
0000
0000
0010
0000
0001
0000
0000
1000
,
0000
0000
0100
0000
1000
0000
0000
0010
0000
0000
0100
0000
0001
0000
0000
0010
,
0000
0000
0100
0000
0010
0000
0000
0001
0000
0000
1000
0000
0100
0000
0000
1000
,
0000
0000
0001
0000
0100
0000
0000
0010
0000
0000
1000
0000
0001
0000
0000
1000
,
0000
0000
0010
0000
0200
0000
0000
0000
1000
0000
0000
0000
0301
1000
0000
1000
,
0001
0100
0001
0000
0020
0000
0000
0000
0001
0000
0000
0000
1030
0001
0000
0001
,
1000
0010
1000
0000
2000
0000
0000
0000
3002
0000
0000
0000
0103
0010
0000
0010
,
0100
0001
1000
0000
0002
0000
0000
0000
2003
0000
0000
0000
3010
0100
0000
0100
,
0010
1000
0001
0000
0001
0000
0100
0010
0000
0010
0100
0000
0001
0100
0000
0100
,
0001
0000
0000
0000
1000
0000
0010
0100
0000
0100
0010
0000
1000
0100
0000
0100
,
1000
0000
1000
0000
0001
0000
0010
0001
0000
0001
0010
0000
0001
1000
0000
1000
,
0001
0000
0001
0000
1000
0000
0010
1000
0000
1000
0010
0000
1000
0001
0000
0001
,
1000
1000
0001
0000
0010
0000
0100
0000
,
1000
0000
0000
0000
,
0000
0000
0000
0000
1000
0100
1000
0100
0000
0000
0010
0000
0000
0001
0000
0001
,
1000
0000
0010
0100
0010
0000
0100
0001
0100
0001
0100
0000
0001
1000
0000
0000
,
1000
0001
1000
0001
0100
0000
0010
0100
0000
0010
0100
0000
0001
0100
0000
0001
,
0100
0000
0001
0000
1000
0000
0010
1000
0000
0010
1000
0000
0001
0010
0000
0001
,
0010
0000
0001
0000
1000
0000
0100
1000
0000
0100
1000
0000
0001
0100
0000
0001
,
0100
0000
0001
0000
0100
0000
0010
1000
0000
0010
1000
0000
0100
0010
0000
0100
,
0010
0000
0001
0000
1000
0000
0100
0010
0000
0100
0010
0000
0001
0100
0000
0001
,
0100
0000
0010
0000
1000
0000
0001
1000
0000
0100
0010
0000
0001
1000
0001
1000
,
0001
0100
0010
0000
1000
0000
0000
0000
0100
0000
0000
0000
0010
0000
0000
0000
,
0001
1000
0001
1000
0000
0000
0000
0000
0000
0000
0000
0000
0000
0000
0000
0000
;

//---------------dance-double - ----------------
#NOTES:
     dance-double:
     :
     Challenge:
     14:
     0.626894,0.568624,0.108474,0.039445,0.931888,445.000000,434.000000,11.000000,4.000000,0.000000,0.000000,0.626894,0.568624,0.108474,0.039445,0.931888,445.000000,434.000000,11.000000,4.000000,0.000000,0.000000:
00000000
00000000
00000000
00000000
,
00000000
00000000
00000000
00000000
,
00100000
00000000
01000000
00010000
00000000
00010000
00100000
00000000
01000000
00010000
00000000
00010000
00001000
00000000
00000100
00000000
,
00000001
00000000
00000100
00000010
00000000
00000010
00000001
00000000
00000100
00001000
00000000
00001000
00010000
00000000
01000000
00000000
,
10000000
00000000
00010000
00100000
00000000
00100000
01000000
00000000
00010000
00001000
00000000
00001000
00000100
00000000
00000001
00000000
,
00001000
00000000
00000010
00000100
00000000
00000100
00001000
00000000
00010000
00100000
00000000
00100000
10000000
00000000
00110000
00000000
,
00000000
00000000
00000000
00000000
10000000
01000000
10000000
01000000
00010000
01000000
00010000
01000000
00010000
00000000
00001000
00000000
,
00001100
00000000
00000000
00000000
00000100
00000001
00000100
00000001
00000010
00000001
00000010
00000001
00000010
00000000
00001000
00000000
,
00011000
00000000
00000000
00000000
01000000
10000000
01000000
10000000
00100000
10000000
00100000
10000000
00100000
00000000
00010000
00000000
,
00011000
00000000
00000000
00000000
00000100
00010000
00000100
00010000
00001000
00000010
00001000
00000010
00000001
00000000
00000100
00000000
,
00000101
00000000
00000000
00000000
00000001
00001000
00000010
00001000
00000100
00000000
00000010
00000100
00000000
00000100
00001000
00000000
,
00010000
01000000
00010000
00001000
00000100
00001000
00010000
00001000
00100000
00000000
01000000
00010000
00000000
00010000
00001000
00000000
,
00100000
01000000
10000000
00100000
00010000
00001000
00010000
00100000
01000000
00000000
00010000
00001000
00000000
00001000
00000100
00000000
,
00000001
00000010
00000100
00001000
00000100
00000001
00000100
00001000
00010000
00000000
00100000
10000000
00000000
10000000
00010000
00000000
,
01000000
00100000
00010000
00001000
00000100
00000000
00000001
00001000
00000000
00000010
00000100
00000000
00000010
00001000
00000000
00000100
,
00000010
00001000
00010000
00000000
01000000
00000000
10000000
00100000
00000000
01000000
10000000
00000000
01000000
00010000
00000000
00100000
,
01000000
00010000
00001000
00000000
00000100
00000000
00000001
00000010
00000000
00000100
00000001
00000000
00000100
00001000
00000000
00000010
,
00000100
00001000
00010000
00000000
01000000
00000000
10000000
00100000
00000000
00010000
00001000
00000000
00000100
00000001
00000000
00000010
,
00001000
00010000
00100000
00000000
10000000
00000000
01000000
00010000
00000000
01000000
10000000
00000000
00100000
00010000
00000000
00001000
,
00000100
00000001
00000010
00000000
00000001
00000000
00000100
00001000
00000000
00000100
00000001
00000000
00000010
00001000
00000000
00010000
,
01000000
10000000
00100000
00000000
10000000
00000000
01000000
00100000
00000000
10000000
00100000
00000000
00010000
00001000
00000000
00000100
,
00000001
00000010
00000100
00000000
00000010
00000000
00000001
00000100
00000000
00000010
00000001
00000000
00000010
00001000
00000000
00010000
,
01000000
10000000
00010000
00000000
20000000
00000000
00100000
00000000
30010000
00000000
01000000
00000000
00100000
00010000
00000000
00001000
,
00010000
00000100
00001000
00000000
00020000
00000000
00100000
00000000
01030000
00000000
00010000
00000000
00001000
00000100
00000000
00000001
,
00000010
00000100
00001000
00000000
00000002
00000000
00000100
00000000
00001003
00000000
00000010
00000000
00000100
00001000
00000000
00010000
,
00000100
00001000
00000010
00000000
00000200
00000000
00001000
00000000
00000310
00000000
00010000
00000000
00001000
00000100
00000000
00001000
,
00010000
00100000
10000000
00000000
10010000
00000000
01000000
00010000
00000000
00100000
01000000
00000000
00010000
00001000
00000000
00000100
,
00001000
00010000
00000010
00000000
00001001
00000000
00000010
00000100
00000000
00000001
00000010
00000000
00001000
00010000
00000000
00010000
,
00001000
00000100
00000010
00000000
00011000
00000000
00001000
00100000
00000000
00100000
00010000
00000000
01000000
00100000
00000000
00010000
,
00001000
00000100
00001000
00000000
00011000
00000000
00100000
01000000
00000000
01000000
10000000
00000000
00100000
00010000
00000000
00001000
,
00000100
00000001
00001000
00000000
00001001
00000000
00000010
00000100
00000000
00000100
00000010
00000000
00010000
00001000
00000000
00001000
,
00010000
00100000
10000000
00000000
10000000
00000000
00000000
00000000
00010000
00000000
00000000
00000000
00001000
00000000
00000000
00000000
,
00000001
00000000
00000000
00000000
00000001
00000100
00000001
00000010
00000000
00001000
00000010
00000000
00000100
00001000
00000000
00011000
,
00000000
00100000
01000000
10000000
01000000
00100000
00001000
00100000
00010000
01000000
00010000
00000000
00100000
00010000
00000000
00001000
,
00000100
00001000
00000100
00000001
00001000
00000010
00000100
00000001
00000000
00000010
00001000
00000000
00010000
00100000
00000000
00100000
,
10000000
01000000
00010000
00000000
01000000
10000000
00100000
01000000
00000000
00100000
00010000
00000000
00001000
00000100
00000000
00000001
,
00001000
00000010
00000100
00000000
00001000
00010000
00001000
00010000
00000000
00001000
00000100
00000000
00000010
00001000
00000000
00010000
,
00100000
10000000
00010000
00000000
01000000
00100000
01000000
00100000
00000000
00010000
01000000
00000000
00100000
00010000
00000000
00001000
,
00000100
00000001
00001000
00000000
00000001
00001000
00000001
00001000
00000000
00000010
00001000
00000000
00000100
00010000
00000000
00001000
,
00000100
00001000
00010000
00000000
00100000
10000000
00100000
10000000
00000000
00010000
00100000
00000000
00001000
00010000
00001000
00010000
,
00001000
01000000
00100000
00000000
00010000
00000000
00001000
00000100
00000000
00000100
00000001
00000000
00000010
00001000
00000000
00001000
,
00010000
00001000
00010000
00001000
00000000
00000000
00000000
00000000
00000000
00000000
00000000
00000000
00000000
00000000
00000000
00000000
;

//---------------dance-single - ----------------
#NOTES:
     dance-single:
     :
     Beginner:
     1:
     0.074664,0.101078,0.009861,0.078890,0.000000,53.000000,52.000000,1.000000,8.000000,0.000000,0.000000,0.074664,0.101078,0.009861,0.078890,0.000000,53.000000,52.000000,1.000000,8.000000,0.000000,0.000000:
0000
0000
0000
0000
,
0000
0000
0000
0000
,
1000
0000
0000
0000
,
0001
0000
0000
0000
,
0100
0000
0000
0000
,
0010
0000
0000
0000
,
0000
1001
0000
0000
,
0000
0001
0000
0000
,
0000
1000
0000
0000
,
0000
0001
0000
0000
,
0000
0100
0000
0000
,
0000
0001
0000
0000
,
0000
1000
0000
0000
,
0000
0010
0000
0000
,
0000
0001
0000
0001
,
0000
1000
0000
1000
,
0000
0001
0000
0001
,
0000
1000
0000
1000
,
0000
0010
0000
0010
,
0000
0100
0000
0100
,
0000
0010
0000
0010
,
0000
0100
0000
0100
,
0000
0002
0000
0003
,
0000
2000
0000
3000
,
0000
0020
0000
0030
,
0000
0200
0000
0300
,
0000
0020
0000
0030
,
0000
2000
0000
3000
,
0000
0002
0000
0003
,
0000
0200
0000
0300
,
0000
0001
0001
0001
,
0001
0000
0000
0000
,
0000
1000
0000
0000
,
0000
0010
0010
0000
,
0000
1000
0000
0000
,
0000
0001
0000
0000
,
0000
0010
0000
0000
,
0000
0100
0000
0000
,
0000
0010
0000
0000
,
0000
0001
0000
0000
,
0000
1000
0000
0001
,
0001
0000
0000
0000
;

//---------------dance-single - ----------------
#NOTES:
     dance-single:
     :
     Medium:
     8:
     0.359231,0.345236,0.108474,0.039445,0.167641,255.000000,244.000000,11.000000,4.000000,0.000000,0.000000,0.359231,0.345236,0.108474,0.039445,0.167641,255.000000,244.000000,11.000000,4.000000,0.000000,0.000000:
// measure 0
0000
0000
0000
0000
,  // measure 1
0000
0000
0000
0000
,  // measure 2
1000
0001
1000
0001
,  // measure 3
0100
0010
0100
0010
,  // measure 4
1000
0000
0100
0000
0010
0000
0000
0000
1000
0001
0000
0000
1000
0000
0000
0000
,  // measure 5
0001
0000
0010
0000
0100
0000
0000
0000
0001
1000
0000
0000
0001
0000
0000
0000
,  // measure 6
0000
0000
1000
1000
0010
0000
1000
0010
,  // measure 7
0100
0000
0001
0001
0010
0000
0001
0100
,  // measure 8
0010
0000
1000
1000
0001
0000
0100
0001
,  // measure 9
0010
0000
0100
0100
0010
0000
0001
1000
,  // measure 10
0100
0000
1001
1000
1000
0000
0010
1000
,  // measure 11
0100
0010
0001
0001
0001
0000
0100
0010
,  // measure 12
1000
0001
0100
0100
0100
0000
0100
0001
,  // measure 13
0010
0100
0010
0010
0010
0000
0001
1000
,  // measure 14
0100
0000
0010
0000
0100
0000
0000
0000
1001
0000
0000
0000
0100
0001
0000
0000
,  // measure 15
0100
0000
0010
0000
1000
0000
0000
0000
0011
0000
0000
0000
0100
0001
0000
0000
,  // measure 16
0100
0000
0001
0000
0010
0000
0000
0000
1100
0000
0000
0000
0001
1000
0000
0000
,  // measure 17
0001
0000
1000
0000
0100
0000
0000
0000
1001
0000
0000
0000
0010
0100
0000
0000
,  // measure 18
0010
0000
1000
0000
0100
0000
0000
0000
1100
0000
0000
0000
0010
0001
0000
0000
,  // measure 19
0010
0000
0001
0000
1000
0000
0000
0000
0101
0000
0000
0000
0010
1000
0000
0000
,  // measure 20
0010
0000
1000
0000
0100
0000
0000
0000
1001
0000
0000
0000
0100
0001
0000
0000
,  // measure 21
0100
0000
0010
0000
1000
0000
0000
0000
0101
0000
0000
0000
1000
0100
0000
0000
,  // measure 22
1000
0000
0001
0000
0100
0000
0001
0000
0010
0000
0001
0000
0100
0001
0000
0000
,  // measure 23
0010
0000
0001
0000
0100
0000
0010
0000
1000
0000
0010
0000
0100
0010
0000
0000
,  // measure 24
1000
0000
0010
0000
0200
0000
0000
0000
0302
0000
0000
0000
1003
0010
0000
0000
,  // measure 25
1000
0000
0001
0000
0020
0000
0000
0000
0230
0000
0000
0000
0310
0001
0000
0000
,  // measure 26
1000
0000
0100
0000
0010
0000
0001
0000
1000
0000
0001
0000
0010
0001
0000
0000
,  // measure 27
1000
0000
0001
0000
1000
0000
0100
0000
0010
0000
0100
0000
1000
0100
0000
0000
,  // measure 28
0010
0000
0100
0000
1000
0000
0001
0000
0100
0000
0000
0000
0010
1000
0000
1000
,  // measure 29
0001
0100
0010
0000
0001
0000
0010
0000
,  // measure 30
1010
0001
1000
0001
,  // measure 31
1000
0000
0000
0000
,  // measure 32
0000
0000
0000
0000
0010
0000
1000
0000
1010
0000
0000
0000
1000
0100
0000
0100
,  // measure 33
1000
0000
0000
0000
0010
0000
0100
0000
1000
0000
0001
0000
0010
0100
0000
0000
,  // measure 34
0010
0001
0000
0000
0100
0000
0001
0000
0010
0000
0000
0000
0100
0001
0000
0000
,  // measure 35
0100
0001
0000
0000
0010
0000
1000
0000
0001
0000
0000
0000
0100
1000
0000
0000
,  // measure 36
0100
1000
0000
0000
0001
0000
0010
0000
0100
0000
0000
0000
0010
0001
0000
0000
,  // measure 37
0010
0001
0000
0000
0100
0000
0010
0000
1000
0000
0000
0000
0010
0100
0000
0000
,  // measure 38
0010
0100
0000
0000
0001
0000
0100
0000
0010
0000
0000
0000
1000
0100
0000
0000
,  // measure 39
0010
0001
0000
0000
0100
0000
0010
0000
1000
0000
0000
0000
1000
0000
0001
0000
,  // measure 40
0010
0100
0010
0000
0001
0000
1000
0000
,  // measure 41
0100
0010
0100
0010
0000
0000
0000
0000
0000
0000
0000
0000
0000
0000
0000
0000
;

//---------------dance-single - ----------------
#NOTES:
     dance-single:
     :
     Easy:
     5:
     0.211313,0.203388,0.059168,0.138058,0.000000,150.000000,144.000000,6.000000,14.000000,0.000000,0.000000,0.211313,0.203388,0.059168,0.138058,0.000000,150.000000,144.000000,6.000000,14.000000,0.000000,0.000000:
0000
0000
0000
0000
,
0000
0000
0000
0000
,
1000
0001
1000
0001
,
0100
0010
0100
0010
,
1000
0001
1000
0010
,
0001
0100
0001
0010
,
0000
1001
0100
0010
,
0100
1000
0010
1000
,
0010
0100
0001
0100
,
0001
0010
0001
0010
,
0001
1000
0100
0000
,
0011
0001
1000
0000
,
1010
1000
0001
0000
,
0101
0001
1000
0000
,
0110
0100
0001
0100
,
0010
0100
1000
0100
,
0010
1000
0100
1000
,
0010
1000
0100
1000
,
0001
0010
0001
0010
,
0100
0010
1000
0010
,
0100
0001
0010
0001
,
0100
0001
0010
0001
,
1000
2001
0000
0010
,
3100
0020
0000
0031
,
1000
0200
2300
3002
,
0003
0200
0302
0000
,
0013
0100
1000
0100
,
0010
0001
0100
0001
,
0010
0100
1000
0001
,
0010
0001
0001
1000
,
1000
0010
0100
0010
,
0100
0000
0000
0000
,
0000
0002
0023
0031
,
1000
0200
0320
0130
,
2000
3001
0100
0010
,
0010
1000
0100
0001
,
0001
0100
1000
0010
,
0010
0001
0010
1000
,
1000
0010
0100
1000
,
1000
0100
0001
0020
,
0031
1000
0001
1000
,
0020
0030
0000
0000
;

//---------------dance-double - ----------------
#NOTES:
     dance-double:
     :
     Easy:
     5:
     0.200043,0.203388,0.019723,0.197225,0.000000,142.000000,140.000000,2.000000,20.000000,0.000000,0.000000,0.200043,0.203388,0.019723,0.197225,0.000000,142.000000,140.000000,2.000000,20.000000,0.000000,0.000000:
00000000
00000000
00000000
00000000
,
00000000
00000000
00000000
00000000
,
10000000
10000000
10000000
01000000
,
00010000
00010000
00010000
00001000
,
00000010
00000001
00000010
00000100
,
00010000
00001000
00010000
00000010
,
00000000
00011000
00001000
00100000
,
00001000
01000000
00100000
01000000
,
00100000
10000000
01000000
10000000
,
01000000
00010000
00001000
00010000
,
00001000
00000020
00000000
00000031
,
00000100
00002000
00000000
00013000
,
00100000
02000000
00000000
03010000
,
00001000
00000020
00000000
00000031
,
00001000
00000100
00001000
00000100
,
00010000
00001000
00100000
00001000
,
00010000
00100000
10000000
00100000
,
01000000
00010000
00100000
00010000
,
10000000
01000000
00010000
00001000
,
00000100
00000010
00001000
00010000
,
00100000
10000000
01000000
00010000
,
00001000
00010000
00001000
00000010
,
00000001
00000200
00000000
00000310
,
00000002
00000203
00000000
00001300
,
00000020
00000230
00002300
00003000
,
00010000
00200000
00000000
10300000
,
00010000
02000000
00000000
03100000
,
00010000
00200000
00000000
01300000
,
00010000
00002000
00000000
00003100
,
00000001
00001000
00001000
00000100
,
00000100
00010000
00001000
00010000
,
00001000
00000000
00000000
00000000
,
00000000
20020000
30030000
01000000
,
00100000
00020000
00032000
00003010
,
00000002
00001003
00000010
00000100
,
00000001
00000100
00001000
00010000
,
01000000
10000000
00100000
01000000
,
00010000
00100000
01000000
00010000
,
00001000
00000010
00000100
00001000
,
00000001
00000100
00001000
00010000
,
00010000
00100000
10000000
01000000
,
00020000
00030000
00000000
00000000
;

//---------------dance-double - ----------------
#NOTES:
     dance-double:
     :
     Hard:
     12:
     0.440939,0.467084,0.059168,0.059168,0.443756,313.000000,307.000000,6.000000,6.000000,0.000000,0.000000,0.440939,0.467084,0.059168,0.059168,0.443756,313.000000,307.000000,6.000000,6.000000,0.000000,0.000000:
00000000
00000000
00000000
00000000
,
00000000
00000000
00000000
00000000
,
10000000
10000000
00010000
00010000
,
00001000
00001000
00000001
00000001
,
00000100
00000000
00001000
00000000
00000100
00000000
00000010
00010000
,
00001000
00000000
01000000
00000000
00100000
00000000
00010000
00001000
,
00000000
00000000
00000100
00000001
00001000
00000000
00000010
00000100
,
00001100
00000000
00000001
00000100
00001000
00010000
01000000
10000000
,
00100000
00000000
01000000
00010000
10000000
00000000
00100000
10000000
,
11000000
00000000
10000000
01000000
00010000
00001000
00000010
00000001
,
00001000
00000000
00000000
00000000
00000010
00000100
00000010
00000100
00000010
00000000
00000000
00000000
00001000
00000000
00000001
00000000
,
00001001
00000000
00000000
00000000
00000100
00000010
00000100
00000010
00000100
00000000
00000000
00000000
00010000
00000000
00001000
00000000
,
01000000
00000000
00000000
00000000
00100000
01000000
00100000
01000000
00100000
00000000
00000000
00000000
10000000
00000000
00010000
00000000
,
10010000
00000000
00000000
00000000
01000000
00100000
01000000
00100000
01000000
00000000
00000000
00000000
00010000
00000000
00001000
00000000
,
00000100
00000000
00000001
00000000
00001000
00000000
00001000
00000010
00000000
00000010
00000100
00000000
00000100
00000001
00000000
00000001
,
00000010
00000000
00001000
00000000
00010000
00000000
00010000
00001000
00000000
00001000
01000000
00000000
01000000
00100000
00000000
00100000
,
10000000
00000000
01000000
00000000
00010000
00000000
00010000
00001000
00000000
00001000
00000100
00000000
00000100
00000001
00000000
00000001
,
00001000
00000000
00000001
00000000
00000100
00000000
00000100
00000010
00000000
00000010
00001000
00000000
00001000
00000100
00000000
00000100
,
00010000
00000000
00001000
00000000
01000000
00000000
01000000
00010000
00000000
00010000
10000000
00000000
10000000
00100000
00000000
00100000
,
00010000
00000000
00001000
00000000
00000010
00000000
00000010
00000001
00000000
00000001
00001000
00000000
00001000
00000100
00000000
00000100
,
00000010
00000000
00000001
00000000
00001000
00000000
00001000
00000001
00000000
00000001
00000010
00000000
00000010
00000100
00000000
00000100
,
00010000
00000000
00001000
00000000
01000000
00000000
01000000
00010000
00000000
00010000
10000000
00000000
10000000
00100000
00000000
00100000
,
01000000
00000000
00010000
00000000
20000000
00000000
00000000
00000000
01000000
00000000
00000000
00000000
30010000
00100000
00000000
00100000
,
00001000
00000000
00010000
00000000
00000020
00000000
00000000
00000000
00000100
00000000
00000000
00000000
00001030
00000100
00000000
00000100
,
00010000
00000000
00001000
00000000
00200000
00000000
00000000
00000000
02300000
00000000
00000000
00000000
13000000
01000000
00000000
01000000
,
00100000
00000000
00001000
00000000
00020000
00000000
00000000
00000000
01000000
00000000
00000000
00000000
00031000
00010000
00000000
00010000
,
00000100
00000000
00001000
00000000
00000020
00000000
00000000
00000000
00000100
00000000
00000000
00000000
00001030
00000100
00000000
00000100
,
00000010
00000000
00000001
00000000
00001001
00000000
00000000
00000000
00000100
00000000
00000000
00000000
00010000
00001000
00000000
00001000
,
00100000
00000000
00010000
00000000
01000000
00000000
00100000
10000000
00000000
10000000
01000000
00000000
00100000
00010000
00000000
00010000
,
01000000
00000000
00100000
00000000
00010000
00000000
00000000
00000000
00001000
00000000
00000000
00000000
00000100
00000001
00000000
00000001
,
00001000
00000010
00010000
00000000
00001000
00000000
00010000
00000000
,
00001000
00000000
00000000
00000000
,
00000000
00000000
00000000
00000000
10000000
01000000
10000000
01000000
10000000
00000000
00010000
00000000
00100000
01000000
00000000
01000000
,
00100000
00000000
01000000
00000000
00010000
00001000
00010000
00000000
00000010
00001000
00000010
00000000
00001000
00000000
00000000
00000000
,
00000001
00000100
00000001
00000100
00000001
00000000
00000010
00000000
00001100
00000000
00000000
00000000
00000001
00000100
00000000
00000100
,
00000001
00000000
00000100
00000000
00001000
00000000
00010000
00001000
00000000
00001000
00010000
00000000
01000000
00100000
00000000
00100000
,
01000000
00000000
00010000
00000000
00100000
00000000
01000000
00010000
00000000
00010000
01000000
00000000
00010000
00001000
00000000
00001000
,
00010000
00000000
00000010
00000000
00000100
00000000
00000001
00001000
00000000
00001000
00000001
00000000
00001000
00000100
00000000
00000100
,
00001000
00000000
00000100
00000000
00010000
00000000
00001000
00100000
00000000
00100000
00001000
00000000
00100000
00010000
00000000
00010000
,
00100000
00000000
01000000
00000000
00010000
00000000
00001000
00000100
00000000
00000100
00001000
00000000
00000001
00000010
00000001
00000010
,
00000001
00000100
00001000
00010000
,
00100000
10000000
00100000
10000000
00000000
00000000
00000000
00000000
00000000
00000000
00000000
00000000
00000000
00000000
00000000
00000000
;

//---------------dance-double - ----------------
#NOTES:
     dance-double:
     :
     Medium:
     8:
     0.257801,0.304158,0.019723,0.216948,0.019723,183.000000,181.000000,2.000000,22.000000,0.000000,0.000000,0.257801,0.304158,0.019723,0.216948,0.019723,183.000000,181.000000,2.000000,22.000000,0.000000,0.000000:
00000000
00000000
00000000
00000000
,
00000000
00000000
00000000
00000000
,
10000000
10000000
00100000
00100000
,
00010000
00010000
00001000
00001000
,
00000010
00000000
00000001
00000000
00000100
00000000
00001000
00010000
,
01000000
00000000
10000000
00000000
00100000
00000000
00010000
00001000
,
00000000
00000000
00000020
00000000
00000032
00000000
00000103
00000001
,
00000100
00000000
00002000
00000000
00023000
00000000
01030000
10000000
,
01000000
00000000
20000000
00000000
30200000
00000000
00310000
00001000
,
00010000
00000000
00000200
00000000
00000302
00000000
00000013
00000100
,
00000010
00000000
00000000
00000000
00000001
00000000
00000100
00000000
00000001
00000000
00000000
00001000
00000000
00000000
00001000
00000000
,
00000000
00000000
00000000
00000000
00000100
00000000
00010000
00000000
00000100
00000000
00000000
00010000
00000000
00000000
00010000
00000000
,
00000000
00000000
00000000
00000000
00001000
00000000
01000000
00000000
00001000
00000000
00000000
01000000
00000000
00000000
01000000
00000000
,
00000000
00000000
00000000
00000000
00100000
00000000
00010000
00000000
00100000
00000000
00000000
00010000
00000000
00000000
00010000
00000000
,
00001000
00000000
00010000
00000000
00000010
00000000
00010000
00000100
,
00010000
00000000
00001000
00000000
00100000
00000000
00001000
01000000
,
00001000
00000000
00010000
00000000
00001000
00000000
01000000
00100000
,
01000000
00000000
00001000
00000000
00010000
00000000
00000010
00000100
,
00000010
00000000
00010000
00000000
00000100
00000000
00010000
00000010
,
00010000
00000000
00001000
00000000
01000000
00000000
00001000
00100000
,
00001000
00000000
00010000
00000000
00100000
00000000
10000000
01000000
,
00010000
00000000
00001000
00000000
00000010
00000000
00000001
00000100
,
00001000
00020000
00000000
00030010
,
00000200
00002300
00000000
00013000
,
00200000
00000000
02300000
00000000
03010000
00002000
00000000
00003100
,
00000002
00000000
00000013
00002000
00000000
00013000
02000000
00000000
,
00000000
23000000
00000000
30100000
,
00010000
00002000
00000000
00003100
,
00000001
00000020
00000000
00001030
,
00010000
01000000
10000000
00100000
,
00010000
00001000
00001000
00010000
,
00010000
00022000
00000000
00000000
,
00033000
00000000
00000010
00001000
00000010
00000000
00010000
00000000
,
00001000
01000000
00001000
00010000
00001000
00100000
01000000
00000000
,
10000000
00010000
10010000
00000000
01000000
00000000
00010000
00000000
,
00100000
00001000
00100000
00000000
00001000
00000000
00010000
00000000
,
00000100
00000010
00000100
00000000
00001000
00000000
00000001
00000000
,
00000100
00001000
00000100
00000000
00001000
00000000
00010000
00000000
,
00100000
10000000
00100000
00000000
10000000
00000000
01000000
00000000
,
00010000
00001000
00010000
00000000
00001000
00000000
00000100
00010000
,
00000100
00001000
00000100
00000000
00010000
00000000
00001000
00000000
,
00100000
00100000
00000000
00000000
00000000
00000000
00000000
00000000
;
