#TITLE:Freeway Shuffle;
#SUBTITLE:-More2 HAPPY Re-Mix-;
#ARTIST:Yu_Asahina;
#TITLETRANSLIT:;
#SUBTITLETRANSLIT:;
#ARTISTTRANSLIT:;
#GENRE:Trance;
#CREDIT:;
#BANNER:freewayshuffleremix-bn.png;
#BACKGROUND:freewayshuffleremix-bg.png;
#LYRICSPATH:;
#CDTITLE:;
#MUSIC:Freeway Shuffle (More2 HAPPY Re-Mix).mp3;
#OFFSET:-0.234000;
#SAMPLESTART:55.680000;
#SAMPLELENGTH:12.000000;
#SELECTABLE:YES;
#BPMS:0.000000=160.000000
;
#STOPS:
;
#BGCHANGES:;
#KEYSOUNDS:;
#ATTACKS:;

//---------------dance-single - ----------------
#NOTES:
     dance-single:
     :
     Challenge:
     16:
     0.846477,1.040389,0.336863,0.095013,0.971721,686.000000,647.000000,39.000000,11.000000,0.000000,0.000000,0.846477,1.040389,0.336863,0.095013,0.971721,686.000000,647.000000,39.000000,11.000000,0.000000,0.000000:
// measure 0
0000
0000
0000
0000
,  // measure 1
0000
0000
0000
0000
,  // measure 2
0000
0000
0000
0000
,  // measure 3
0000
0000
0000
0000
,  // measure 4
1000
0000
0010
0100
0000
0010
0000
1000
0010
0000
0000
0000
0100
0001
1000
0000
,  // measure 5
0001
0000
0100
0010
0000
0100
0000
1000
0100
0000
0000
0000
0001
0010
0100
0000
,  // measure 6
1000
0000
0010
0100
0000
0010
0000
1000
0010
0000
0000
0000
0100
0001
1000
0000
,  // measure 7
0010
0000
0100
1000
0000
0100
0000
0010
0100
0000
0000
0000
0101
0000
0000
0000
,  // measure 8
1000
0000
0100
0010
0000
0100
0000
1100
0000
1001
0000
1000
0001
0000
0100
0000
,  // measure 9
0001
0000
0010
0100
0000
0010
0000
0011
0000
1001
0000
0001
1000
0000
0001
0000
,  // measure 10
0001
0000
0010
0100
0000
0010
0000
0011
0000
0101
0000
0001
1000
0000
0010
0000
,  // measure 11
1000
0000
0100
0010
0000
0100
0000
1100
0000
1010
0000
1000
0001
0000
0010
0001
,  // measure 12
0010
0000
0001
0100
0000
0110
0000
0010
0000
1010
0000
1000
0001
0000
1000
0000
,  // measure 13
0010
0000
1000
0100
0000
0110
0000
0010
0000
0011
0000
0001
1000
0000
0001
0000
,  // measure 14
0100
0000
0001
0010
0000
0110
0000
0100
0000
1100
0000
1000
0001
0000
1000
0000
,  // measure 15
0100
0000
1000
0100
0000
0110
0000
0010
0000
0011
0000
0001
1000
0000
0001
0000
,  // measure 16
1000
0100
1000
0100
0000
0010
0100
0010
0000
0100
0000
0100
1000
0000
0001
0000
,  // measure 17
0100
0001
0100
0001
0000
0010
0100
0010
0000
0100
0000
0100
0010
0000
0001
0000
,  // measure 18
0100
1000
0100
0001
0000
0010
0100
0010
0000
0100
0000
0100
1000
0000
0001
0000
,  // measure 19
1000
0000
1000
0010
0000
0100
0000
0100
0000
0010
0000
0010
0100
0010
0100
0001
,  // measure 20
1000
0000
0100
0001
0000
0001
0000
0100
0000
0100
0000
1000
0001
0000
1000
0000
,  // measure 21
0001
0000
0100
1000
0000
1000
0000
0100
0000
0100
0000
0001
1000
0000
0001
0000
,  // measure 22
1001
0010
0100
0010
,  // measure 23
1000
0001
1000
0001
,  // measure 24
1000
0000
0100
0000
0001
0000
0100
0000
0010
0000
0100
0001
0100
0000
1000
0000
,  // measure 25
0001
0100
0010
0100
1000
0100
0010
0100
,  // measure 26
0001
0010
0001
0010
0001
1000
0001
1000
0100
1000
0100
0010
0100
1000
0100
1000
,  // measure 27
0200
0000
0000
0000
,  // measure 28
0300
0000
1000
0000
0001
0000
0001
0000
0100
0010
0100
0000
0110
0000
0000
0000
,  // measure 29
0001
0010
0001
0100
0001
0010
0100
1000
0100
0000
1000
0000
1100
0000
0100
1000
,  // measure 30
0010
0100
0010
0100
0010
0000
0120
0000
0000
0000
0130
0000
0010
0000
1000
0000
,  // measure 31
0100
0010
0100
1000
0100
0010
0001
0010
0001
0000
1000
0000
0001
0000
1001
0000
,  // measure 32
0010
1000
0010
1000
0010
0000
1010
0000
0000
0000
1000
0001
1000
0000
0001
0000
,  // measure 33
0100
1000
0100
0102
0000
1003
0100
0001
,  // measure 34
0100
0000
1000
0000
0100
0000
0010
0000
0001
1000
0001
0000
0100
0000
0010
0000
,  // measure 35
1000
0100
1000
0000
0001
0000
1000
0100
1000
0000
0001
0000
0100
0000
1000
0000
,  // measure 36
0100
0000
0010
0000
0100
0000
0001
0000
1000
0001
1000
0001
1000
0010
0100
0001
,  // measure 37
1000
0100
1000
0010
1000
0100
0010
0001
0010
0000
0001
0000
0011
0000
0010
0001
,  // measure 38
0100
0010
0100
0010
0100
0000
0210
0000
0000
0000
0310
0000
0100
0000
0001
0000
,  // measure 39
0010
0100
0010
0001
0010
0100
1000
0100
1000
0000
0001
0000
1001
0000
0010
0000
,  // measure 40
0100
0010
0100
0010
0100
0000
0110
0000
0000
0000
0001
1000
0001
0000
1000
0000
,  // measure 41
0010
0001
0010
2010
0000
3001
0010
1000
,  // measure 42
0010
0000
0001
0000
0100
0000
0010
0000
1000
0001
1000
0000
0010
0000
0100
0000
,  // measure 43
0001
0010
0100
0000
1000
0000
0001
0100
0010
0000
1000
0000
0010
0000
0001
0000
,  // measure 44
0010
0000
0100
0000
0010
0000
1000
0000
0001
1000
0001
1000
0010
0100
0001
1000
,  // measure 45
0010
0100
0010
1000
0010
0000
0100
0000
0001
0000
1000
0010
0100
0000
0001
0010
,  // measure 46
0100
1000
0001
1002
0000
1003
0100
0010
,  // measure 47
0100
0010
0100
0001
0100
0000
1000
0000
0100
0000
0001
1000
0001
0100
0010
1000
,  // measure 48
0001
0010
0001
0010
0001
0000
1000
0100
1000
0100
1000
0010
0100
0000
0001
0000
,  // measure 49
0010
0100
0001
0201
0000
0301
0100
1000
,  // measure 50
0010
0000
0100
1000
0100
0000
1200
0000
0000
0000
1300
0000
0100
0000
0001
0000
,  // measure 51
1000
0010
1000
0010
0100
0001
0100
0001
0010
0100
0010
0100
1000
0001
1000
0001
,  // measure 52
1000
0000
0000
1000
0100
0000
0000
0100
0010
0001
0010
0100
0010
0001
0010
0001
,  // measure 53
0010
0000
0001
0000
,  // measure 54
0100
0000
1000
0000
,  // measure 55
0010
0000
1001
0000
0000
0000
0000
0000
0000
0000
0000
0000
0000
0000
0001
0010
,  // measure 56
1000
0000
0010
0000
0100
0000
0010
0000
0001
0000
0100
0010
1000
0000
0001
1000
,  // measure 57
0001
0100
0000
0010
0000
0001
0000
0000
,  // measure 58
0010
1000
0100
0010
0000
1000
0010
0001
,  // measure 59
0000
1100
0000
1000
0000
0101
0000
0001
,  // measure 60
0100
0010
0100
0010
0100
0001
0100
0001
0100
0010
1000
0000
0110
0000
0000
0000
,  // measure 61
0001
0010
1000
0010
0001
0000
0100
0000
0010
0000
0100
1000
0100
0000
0001
0010
,  // measure 62
0001
0000
0100
0000
0010
0000
1010
0000
0000
0000
1000
0100
0010
0000
0001
0000
,  // measure 63
1000
0100
0001
0100
1000
0000
0010
0000
0100
0000
1000
0000
0100
0001
0100
0001
,  // measure 64
0100
0010
1000
0010
0100
0000
0001
0010
0001
0010
0100
0010
0100
1000
0100
1000
,  // measure 65
0010
0001
0010
2010
0000
3001
0010
1000
,  // measure 66
0010
0000
0001
1000
0001
0000
0012
0000
0000
0000
0103
0000
0010
0000
0100
0000
,  // measure 67
0010
1000
0010
1000
0100
1000
0100
1000
0100
0010
0100
0010
0001
0010
0001
0010
,  // measure 68
0001
0010
1000
0010
0001
0010
1000
0010
,  // measure 69
0001
0000
0010
0000
1000
0000
0010
0000
0001
0010
1000
0010
0001
0100
0010
1000
,  // measure 70
0001
0010
0001
0010
0001
0010
0001
0010
0100
1000
0100
1000
0100
1000
0100
1000
,  // measure 71
0100
0010
0100
0001
0100
0010
0100
0001
0100
1000
0100
1000
0100
1000
0100
1000
,  // measure 72
0002
0000
0000
0003
,  // measure 73
0010
0000
0000
0000
;

//---------------dance-single - ----------------
#NOTES:
     dance-single:
     :
     Hard:
     14:
     0.656451,0.725120,0.051825,0.164113,0.500976,532.000000,526.000000,6.000000,19.000000,0.000000,0.000000,0.656451,0.725120,0.051825,0.164113,0.500976,532.000000,526.000000,6.000000,19.000000,0.000000,0.000000:
0000
0000
0000
0000
,
0000
0000
0000
0000
,
0000
0000
0000
0000
,
0000
0000
0000
0000
,
1000
0000
0001
0010
0000
0001
0000
0100
0001
0000
0000
0000
1000
0000
0001
0000
,
0001
0000
1000
0100
0000
1000
0000
0010
1000
0000
0000
0000
0001
0000
0100
0000
,
0100
0000
0010
1000
0000
0010
0000
0100
0010
0000
0000
0000
1000
0000
1000
0000
,
0010
0000
0100
0001
0000
0100
0000
0010
0100
0000
0000
0000
1001
0000
0000
0000
,
0001
0000
1000
0100
0000
0010
0000
0100
0000
0100
0000
1000
0001
0000
1000
0000
,
0010
0000
0100
0001
0000
0010
0000
0001
0000
0001
0000
0100
0010
0000
1000
0000
,
0100
0000
0010
0100
0000
1000
0000
1000
0000
0010
0000
0100
0001
0000
1000
0000
,
0001
0000
0100
0001
0000
1000
0000
0010
0000
1000
0000
0001
0100
0000
0010
0000
,
1000
0000
0001
0010
0000
0100
0000
0010
0000
0010
0000
0001
1000
0000
0001
0000
,
0010
0000
0100
1000
0000
0010
0000
1000
0000
1000
0000
0010
0100
0000
0001
0000
,
0010
0000
0100
0010
0000
0001
0000
0001
0000
0100
0000
0010
1000
0000
0001
0000
,
1000
0000
0010
1000
0000
0001
0000
0100
0000
0100
0000
0001
0010
0000
0100
0000
,
1000
0010
1000
0010
0000
0100
0010
0100
0000
0001
0000
0001
0010
0000
0001
0000
,
0010
0100
0010
0100
0000
1000
0100
1000
0000
0010
0000
0010
0100
0000
0010
0000
,
0100
0001
0000
1000
0000
0001
0100
0010
0000
1000
0000
0010
0100
0000
0001
0000
,
0010
0000
0100
1000
0000
1000
0000
0010
0000
0010
0000
0100
0001
0000
1000
0000
,
0001
0100
1000
0100
,
0001
0010
1000
0010
,
0001
0000
1000
0000
,
0010
0000
0100
0000
,
0010
0100
0010
0001
0010
0100
0010
1000
,
0100
0010
0100
0001
0100
0010
0100
1000
,
0001
0100
1000
0100
0001
0010
1000
0010
,
0002
0000
0000
0000
0000
0000
0000
0003
,
1001
0000
1000
0000
0001
0000
1000
0000
0001
1000
0001
0000
0100
0000
0000
0000
,
0001
0000
0010
0001
0010
0000
0100
1000
0100
0000
1000
0000
0010
0000
0100
0000
,
0010
0100
0010
0100
0010
0000
2000
0000
0000
0000
3010
0000
0100
0000
0001
0000
,
0010
0000
0100
1000
0100
0000
0010
0001
0010
0000
0001
0000
1000
0000
0010
0000
,
0100
0001
0100
0001
0100
0000
0002
0000
0000
0000
0013
0000
0100
0000
1000
0000
,
0010
0100
0010
0002
0000
0013
0100
0010
,
1000
0100
0010
0100
0001
0100
1000
1000
,
0001
0100
0001
0000
1000
0000
0001
0100
0001
0000
1000
0000
0100
0000
0010
0000
,
0001
0000
0100
0000
0010
0000
1000
0000
0010
0100
0010
0000
1000
0000
0001
0000
,
1000
0000
0010
0100
0001
0000
0100
0010
1000
0000
0001
0000
0100
0000
0000
0001
,
0010
0001
0010
0000
0100
0000
2000
0000
0000
0000
3010
0000
0100
0000
0001
0000
,
1000
0000
0010
1000
0010
0000
0100
0001
0100
0000
0010
0000
1000
0000
0100
0000
,
0010
0001
0010
0001
0010
0000
0002
0000
0000
0000
0103
0000
0010
0000
1000
0000
,
0100
0010
0100
0002
0000
0103
0010
0100
,
1000
0000
0010
0000
0100
0000
0001
0000
0010
0100
0010
0000
0100
0000
1000
0000
,
0010
0100
0010
0000
1000
0000
0100
0010
0100
0000
0010
0000
0001
0000
1000
0000
,
1001
0101
1001
1100
,
1000
0010
0100
0001
0010
0000
0100
0000
1000
0000
0100
1000
0100
0000
1000
0010
,
1000
0010
0100
0002
0000
1003
0001
1000
,
0001
0100
0001
0100
0001
0000
1000
0000
0010
0000
1000
0000
0010
0100
0010
0100
,
0010
1000
0001
0100
0010
0100
0001
1000
,
0001
0100
0010
0200
0000
1300
0100
0001
,
1000
0000
0010
0100
0001
0000
2000
0000
0000
0000
3001
0000
0010
0000
0100
0000
,
1000
0010
1000
0010
0100
0001
0100
0001
,
0020
0000
0230
0000
,
1300
0000
0100
0000
,
0001
0000
0010
0000
,
1000
0000
0000
0000
0000
0000
0000
0000
0000
0000
0000
0000
0000
0000
0100
0010
,
0100
0010
0001
1000
0010
0100
0001
1000
,
0001
0200
0000
2300
0000
3200
0000
0300
,
0001
0010
0100
1000
0000
1000
0010
0100
,
0000
0100
1000
0100
0000
0100
0001
0010
,
0100
1000
0100
0010
0001
1000
1000
0000
,
0001
0100
0001
0100
0001
0000
1000
0000
0010
0000
0100
0000
0010
0000
1000
0100
,
1000
0001
0010
0020
0000
0130
0010
0001
,
0100
0010
0100
0010
0100
0000
0001
0000
1000
0000
0010
0000
1000
0100
1000
0100
,
1000
0010
0100
0001
0010
0100
1000
0001
,
0010
0100
0010
2000
0000
3010
0100
0010
,
0001
0000
1000
0010
0100
0000
0002
0000
0000
0000
0013
0000
1000
0000
0010
0000
,
0001
0100
1000
0100
0001
0100
1000
0100
,
0001
0010
0001
0010
0001
0010
0001
0010
,
0100
1000
0100
1000
0100
0010
0100
1000
,
0010
0100
0001
1000
0010
0100
0001
1000
,
0100
0001
0100
0001
0100
1000
0010
0100
,
0002
0000
0000
0003
,
1000
0000
0000
0000
;

//---------------dance-single - ----------------
#NOTES:
     dance-single:
     :
     Beginner:
     4:
     0.133265,0.189162,0.000000,0.060463,0.000000,108.000000,108.000000,0.000000,7.000000,0.000000,0.000000,0.133265,0.189162,0.000000,0.060463,0.000000,108.000000,108.000000,0.000000,7.000000,0.000000,0.000000:
0000
0000
0000
0000
,
0000
0000
0000
0000
,
0000
0000
0000
0000
,
0000
0000
0000
0000
,
1000
0000
0000
0100
,
0100
0000
0000
0010
,
0010
0000
0000
0001
,
0001
0000
0000
1000
,
1000
0000
0000
0000
,
0001
0000
0000
0000
,
0100
0000
0000
0000
,
0010
0000
1000
1000
,
0000
1000
0000
0000
,
0100
0000
0000
0000
,
0010
0000
0000
0000
,
0001
0000
0000
0000
,
1000
0000
0001
0000
,
0100
0000
0010
0000
,
1000
0000
0100
0000
,
0010
0000
0001
0000
,
0100
0000
0100
0000
,
0010
0000
0010
0000
,
0100
0000
0000
0000
,
0010
0000
0000
0000
,
1000
0000
0000
0000
,
1000
0000
0000
0000
,
1000
1000
1000
1000
,
2000
0000
0000
0000
,
3000
0000
0000
0000
,
0001
0000
0000
0000
,
0100
0000
0000
0010
,
0010
0000
0000
0000
,
1000
0000
0000
0000
,
0100
0000
0000
0010
,
0010
0000
0001
0000
,
0010
0000
0000
0000
,
0001
0000
1000
0000
,
1000
0000
0010
0000
,
1000
0000
0000
0000
,
0001
0000
0010
0000
,
0001
0000
0000
0000
,
0100
0000
0000
0010
,
0010
0000
1000
0000
,
0001
0001
0000
1000
,
1000
0000
0010
0000
,
0200
0000
0300
0000
,
0010
0000
0000
1000
,
2000
0000
3000
0000
,
0001
0000
0000
0000
,
0010
0000
0000
0100
,
0100
0000
0000
1000
,
1000
0000
0000
0000
,
0010
0000
0100
0000
,
0001
0000
0010
0000
,
0100
0000
1000
0000
,
0010
0000
0000
0000
,
1000
0000
0100
0000
,
0010
0000
0000
0000
,
0001
0000
0000
0100
,
0100
0000
0010
0000
,
1000
0000
0000
0001
,
0001
0000
1000
0000
,
0001
0000
0000
0000
,
1000
0000
0100
0000
,
1000
0000
0000
0000
,
0010
0010
0000
0000
,
0010
0010
0000
0100
,
0200
0000
0300
0000
,
0002
0000
0000
0000
,
0000
0000
0003
0000
,
2000
0000
0000
0000
,
0000
0000
3000
0000
,
0020
0000
0000
0030
,
0010
0000
0000
0000
;

//---------------dance-single - ----------------
#NOTES:
     dance-single:
     :
     Easy:
     9:
     0.377583,0.472904,0.051825,0.155475,0.000000,306.000000,300.000000,6.000000,18.000000,0.000000,0.000000,0.377583,0.472904,0.051825,0.155475,0.000000,306.000000,300.000000,6.000000,18.000000,0.000000,0.000000:
0000
0000
0000
0000
,
0000
0000
0000
0000
,
0000
0000
0000
0000
,
0000
0000
0000
0000
,
1000
0001
1000
1000
,
0001
1000
0001
0001
,
1000
0010
1000
1000
,
0001
0100
0001
0011
,
0001
0010
0100
0000
1000
0000
0001
0000
,
1000
0010
0100
0000
0001
0000
1000
0000
,
0010
1000
0010
0000
0100
0000
0001
0000
,
0010
0100
0010
0000
0100
0000
1000
0001
,
0100
0010
1000
0000
0100
0000
0010
0000
,
0001
0100
0010
0000
1000
0000
0100
0000
,
0010
0100
1000
0000
0010
0000
0100
0000
,
0001
1000
0001
0000
1000
0100
1000
0000
,
0010
1000
0100
0000
0010
0000
0011
0000
,
0001
0100
0010
0000
1000
0000
1010
0000
,
1000
0001
0100
0000
0010
0000
0110
0000
,
0100
0001
0010
0000
0100
0000
1100
0000
,
1000
0001
1000
0001
,
0100
0001
0100
0001
,
0100
0010
0100
0010
,
1000
0010
1000
0010
,
1000
0100
0100
1000
0001
0000
1000
0000
,
0001
0100
0100
0001
1000
0000
0001
0000
,
0100
0010
0100
0010
1000
0001
1000
0001
,
0200
0000
0000
0000
,
0310
0000
0000
0000
,
1000
0000
0010
0000
0100
0001
0100
0000
,
0001
1000
0001
2000
0000
3010
0000
0000
,
0100
0000
0001
0000
0010
0100
0010
0000
,
0100
1000
0100
2000
0000
0000
3001
0000
,
1000
0100
1000
0200
0000
0310
0100
0010
,
0100
0010
0001
1000
,
0001
0100
1000
0100
,
0001
0000
0010
0000
0100
1000
0100
0000
,
0010
0000
0001
0000
1000
0001
0100
0000
,
0010
0100
0010
0200
0000
0000
0301
0000
,
0010
0000
0100
0000
1000
0010
1000
0000
,
0010
0100
0010
0200
0000
0000
0301
0000
,
0010
0100
0010
0200
0000
1300
0100
1000
,
0100
0010
0001
1000
,
0100
0001
0100
1000
,
0010
0000
0100
0000
0001
1000
0010
0100
,
0001
0100
0010
1000
,
0100
0010
0001
0020
0000
0031
1000
0000
,
0010
0100
1000
0100
,
0001
0010
0001
1000
,
0001
0100
0001
0200
0000
0310
1000
0010
,
1000
0100
1000
0200
0000
0310
0001
0010
,
0001
1000
0001
1000
,
0020
0000
0230
0000
,
0301
0000
0010
0000
,
0100
0000
1000
0000
,
1001
0000
0000
0000
,
1000
0100
0010
0001
,
0100
0000
0000
0001
0000
1000
0000
0000
,
0010
0000
0000
0100
0000
0000
0000
0001
,
0000
1000
0000
0100
0000
0010
0000
0000
,
0001
1000
0010
0010
,
1000
0100
0010
0001
,
0100
0001
0100
0020
0000
0000
1030
0000
,
0001
0100
0010
1000
,
0100
0010
0100
0000
0010
0000
0001
0000
,
1000
0010
1000
0020
0000
0130
0001
0100
,
0001
0010
0001
0020
0000
0130
1000
0100
,
1000
0001
1000
0001
,
0200
0000
0000
0000
,
0000
0000
0000
0000
0301
1000
0001
0000
,
0020
0000
0000
0000
,
0000
0000
0000
0030
,
0200
0000
0000
0300
,
1000
0000
0000
0000
;

//---------------dance-single - ----------------
#NOTES:
     dance-single:
     :
     Medium:
     12:
     0.533058,0.630539,0.060463,0.120925,0.099331,432.000000,425.000000,7.000000,14.000000,0.000000,0.000000,0.533058,0.630539,0.060463,0.120925,0.099331,432.000000,425.000000,7.000000,14.000000,0.000000,0.000000:
0000
0000
0000
0000
,
0000
0000
0000
0000
,
0000
0000
0000
0000
,
0000
0000
0000
0000
,
1000
0000
0010
0100
0000
0010
0000
0100
0010
0000
0000
0000
0100
0000
0000
0000
,
0001
0000
0010
0100
0000
0010
0000
0100
0010
0000
0000
0000
0100
0000
0000
0000
,
1000
0000
0001
0010
0000
0001
0000
0010
0001
0000
0000
0000
1000
0000
0000
0000
,
0001
0000
1000
0010
0000
1000
0000
0010
1000
0000
0000
0000
0001
0000
0000
0000
,
1000
0100
0010
0000
0001
0001
1000
0100
,
1000
0001
0010
0000
0100
0100
1000
0010
,
0100
0001
1000
0000
0010
0010
1000
0001
,
0100
1000
0100
0001
0010
0100
1000
0000
,
0001
0100
0010
0001
0010
0010
1000
0000
,
1000
0100
0010
1000
0010
0010
0001
0000
,
0100
0001
0010
0100
1000
0000
0001
0000
,
1000
0001
0100
0010
0001
0010
1000
0000
,
1000
0100
0010
0000
0001
0000
1000
0000
,
0001
0010
0100
0000
1000
0000
0001
0000
,
1000
0010
0001
0000
0010
0000
0100
0000
,
0001
0100
1000
0000
0100
0000
0010
0000
,
1000
0100
0001
0100
,
1000
0010
0001
0010
,
1000
0000
0001
0000
,
0100
0000
0010
0000
,
1000
0100
0010
0100
1000
0100
0010
0010
,
0001
0100
0010
0100
0001
0100
0010
0010
,
1000
0001
0100
0010
1000
0001
0100
0010
,
2000
0000
0000
0000
,
3000
0000
0000
1001
,
0001
0100
0010
0001
0010
2000
0002
3003
,
0001
0100
0010
2000
0000
3100
0010
0001
,
1000
0010
0100
1000
0100
0001
0010
0001
,
1000
0100
0010
0002
0000
0103
0010
1000
,
0001
0100
0010
0200
0000
1300
0100
0001
,
1000
0010
0100
0010
0001
0010
1000
1000
,
0001
0100
0001
0000
1000
0100
1000
1000
,
0010
0000
1100
0000
0101
0000
0010
1000
,
0001
0000
1000
0000
0010
1000
0100
0000
,
0001
1000
0001
0000
0010
0000
0100
0000
0000
0000
1000
0000
0100
0000
0010
0000
,
0001
1000
0010
1000
0001
1000
0010
0100
,
0001
0010
0001
0010
0001
0000
1000
0000
0000
0000
0010
0000
1000
0000
0001
0000
,
1000
0010
0100
0001
0000
0100
0010
0100
,
0001
0010
0100
1000
0100
1000
0100
0010
,
0001
1000
0001
0000
1000
0000
0001
1000
,
0100
0000
0101
0000
1100
0000
0010
0100
,
0001
0100
0001
0000
1000
0000
0100
0000
0010
0000
1000
0000
0001
0000
0100
0000
,
1000
0001
0100
0001
0000
0100
0100
0010
,
1000
0100
1000
0000
0001
0000
0100
0000
0010
0000
0001
0000
1000
0000
0100
0000
,
0001
0100
0001
0100
0001
0000
0000
0000
0010
0000
0100
0000
1000
0000
0010
0000
,
0100
0001
1000
0020
0000
1030
0100
0010
,
0001
0100
0010
2000
0000
3010
0100
0010
,
1000
0100
0001
0100
1000
0100
0010
0001
,
0200
0000
0320
0000
,
1030
0000
0100
0000
,
0001
0000
0010
0000
,
1000
0000
0000
0000
,
0001
0100
0010
0000
1000
0000
0100
0000
,
0010
0001
0000
1000
0000
1000
0000
0000
,
0010
1000
0001
0100
0000
0010
0000
1000
,
0000
1100
0000
0001
0000
0101
0000
0000
,
0010
1000
0010
0100
0001
0000
1000
0000
,
0001
0010
0001
0000
1000
0000
0010
0000
0100
0000
1000
0000
0001
0000
0010
0000
,
1000
0100
0010
0002
0000
0013
0010
0100
,
1000
0010
1000
0000
0001
0000
0010
0000
0100
0000
0001
0000
1000
0000
0010
0000
,
0001
0010
0001
0010
0001
0000
0100
0000
0010
0000
1000
0000
0010
0000
0100
0000
,
0001
0010
0100
0020
0000
1030
0010
0001
,
1000
0010
0100
0020
0000
0031
0010
1000
,
0001
0100
0001
0010
0001
0100
0001
0010
,
0100
0100
1000
1000
,
0010
0000
0010
0000
0100
0001
0100
0010
,
1000
0100
0010
1000
0010
0001
0100
0010
,
0001
0010
1000
0010
1000
0100
0010
0001
,
0200
0000
0000
0300
,
0001
0000
0000
0000
;

//---------------dance-double - ----------------
#NOTES:
     dance-double:
     :
     Easy:
     9:
     0.372647,0.409850,0.034550,0.172750,0.000000,302.000000,298.000000,4.000000,20.000000,0.000000,0.000000,0.372647,0.409850,0.034550,0.172750,0.000000,302.000000,298.000000,4.000000,20.000000,0.000000,0.000000:
00000000
00000000
00000000
00000000
,
00000000
00000000
00000000
00000000
,
00000000
00000000
00000000
00000000
,
00000000
00000000
00000000
00000000
,
10000000
00000000
01000000
00000000
00100000
00010000
00100000
00000000
,
00010000
00000000
01000000
00000000
00001000
00010000
00001000
00000000
,
00010000
00000000
00000010
00000000
00000100
00000010
00000100
00000000
,
00000001
00000000
00000010
00000000
00000100
00001000
00000200
00000000
,
00001300
00000000
00000010
00000000
00001000
00000010
00000100
00000000
,
00000001
00000010
00001000
00010000
,
00100000
00000000
10000000
00000000
00100000
10000000
00010000
00000000
,
10000000
00000000
01000000
00000000
10000000
01000000
00100000
00010000
,
00200000
00000000
00310000
00000000
00100000
00010000
10000000
00000000
,
01000000
00010000
00001000
00000100
,
00000001
00000000
00000010
00000000
00000001
00000010
00000100
00000000
,
00001000
00000000
00000010
00000000
00000100
00000001
00000010
00000000
,
00001000
00010000
00100000
10000000
,
00010000
10000000
00010000
00000000
10000000
00010000
10000000
00000000
,
02000000
03010000
00001000
00000100
,
00000001
00000010
00000001
00000000
00000010
00000001
00000010
00000000
,
00001000
00010000
00100000
10000000
,
00100000
00010000
00001000
00000010
,
00000001
00000010
00001000
00000000
,
00010000
00100000
10000000
00000000
,
00010000
10000000
00000000
00100000
00000000
02000000
00000000
00000000
,
00000000
03100000
00000000
10000000
00000000
01000000
00000000
00010000
,
00001000
00001000
00000010
00000010
,
00000022
00000000
00000000
00000033
,
00000100
00000000
00000000
00001010
,
00001000
00000100
00000010
00000000
00000001
00000000
00001000
00000000
,
00000010
00010000
00000010
00020000
00000000
00031000
00000000
00000000
,
00100000
01000000
10000000
00010000
,
01000000
00100000
01000000
00200000
00000000
00000000
10300000
00000000
,
01000000
00000000
00100000
00020000
00000000
00130000
01000000
00000000
,
10000000
01000000
00010000
00001000
,
00000010
00000001
00000010
00000000
00000001
00001000
00000100
00000000
,
00000010
00000000
00000001
00000000
00000100
00001000
00010000
00000000
,
00001000
00100000
00001000
00000000
00100000
00000000
01000000
00000000
,
10000000
01000000
10000000
02000000
00000000
00000000
13000000
00000000
,
00010000
00100000
00010000
01000000
,
00001000
00010000
00000100
00000010
,
00000001
00000000
00000100
00000020
00000000
00000130
00000001
00000000
,
00001000
00000000
00000100
00000010
00000100
00001000
00000010
00000000
,
00000100
00001000
00010000
00100000
,
10000000
00010000
01010000
00110000
,
01000000
10000000
01000000
00000000
10000000
00000000
00010000
00000000
,
00100000
00010000
00100000
00020000
00000000
00000000
01030000
00000000
,
01000000
00001000
00010000
00000100
,
00001000
00000010
00000100
00000000
00000001
00000000
00000001
00000000
,
00000010
00000100
00000010
00000200
00000000
00000000
00001300
00000000
,
00001000
00000010
00001000
00000020
00000000
00000000
00000130
00000000
,
00000001
00000010
00001000
00010000
,
00200000
00000000
20300000
00000000
,
31000000
00000000
00010000
00000000
,
00001000
00000000
00000010
00000000
,
00000001
00000000
00000000
00000000
,
00000100
00001000
00010000
01000000
,
10000000
00010000
00000000
01000000
00000000
01000000
00000000
00000000
,
00010000
10000000
00000000
01000000
00000000
00000000
00000000
10000000
,
00000000
00100000
00000000
01000000
00000000
00010000
00000000
00000000
,
00100000
00000000
00100000
00000000
00100000
01000000
10000000
00000000
,
00100000
00010000
00001000
00000010
,
00000001
00001000
00000001
00002000
00000000
00000000
00003001
00000000
,
00000100
00001000
00010000
01000000
,
10000000
00010000
01000000
00000000
00100000
10000000
01000000
00000000
,
10000000
00100000
10000000
00200000
00000000
00000000
01300000
00000000
,
00010000
00100000
00010000
00200000
00000000
00000000
01300000
00000000
,
10000000
00100000
00010000
00001000
,
00000010
00000001
00000010
00000001
,
00000010
00000000
00000001
00000000
00000010
00000001
00001000
00000100
,
00010000
00001000
00010000
00001000
,
00010000
00001000
00000000
00001000
00100000
00000000
01000000
00000000
,
00200000
00000000
00000000
00300000
,
00001000
00000000
00000000
00000000
;

//---------------dance-double - ----------------
#NOTES:
     dance-double:
     :
     Medium:
     12:
     0.540462,0.567485,0.051825,0.138200,0.051825,438.000000,432.000000,6.000000,16.000000,0.000000,0.000000,0.540462,0.567485,0.051825,0.138200,0.051825,438.000000,432.000000,6.000000,16.000000,0.000000,0.000000:
00000000
00000000
00000000
00000000
,
00000000
00000000
00000000
00000000
,
00000000
00000000
00000000
00000000
,
00000000
00000000
00000000
00000000
,
00000010
00000000
00001000
00000001
00000000
00000000
00000000
00000000
00001000
00000000
00000000
00000000
00000001
00000000
00000100
00000000
,
00000010
00000000
00000100
00000010
00000000
00000000
00000000
00000000
00001000
00000000
00000000
00000000
00000100
00000000
00010000
00000000
,
00001000
00000000
00010000
00001000
00000000
00000000
00000000
00000000
00100000
00000000
00000000
00000000
01000000
00000000
10000000
00000000
,
00100000
00000000
01000000
00100000
00000000
00000000
00000000
00000000
01000000
00000000
00000000
00000000
10010000
00000000
00000000
00000000
,
10000000
00100000
01000000
00010000
00100000
00100000
01000000
00000000
,
10000000
01000000
00010000
00001000
00000100
00000100
00000001
00000000
,
00001000
00000010
00000100
00000010
00001000
00001000
00000001
00000000
,
00000100
00001000
00010000
01000000
10000000
10000000
00010000
01000000
,
00100000
10000000
01000000
10000000
00010000
00010000
01000000
00000000
,
00100000
00010000
10000000
01000000
00010000
00010000
00001000
00000000
,
00000010
00000100
00001000
00000001
00000100
00000100
00000001
00000000
,
00000010
00001000
00010000
00100000
10000000
10000000
00010000
00100000
,
01000000
10000000
01000000
00000000
10000000
00100000
01000000
00010000
,
10000000
01000000
10000000
00000000
01000000
00010000
00001000
00000100
,
00000001
00000010
00000001
00000000
00001000
00000100
00000010
00000001
,
00000100
00001000
00000100
00000000
00001000
00010000
00100000
10000000
,
00010000
10000000
01000000
00010000
,
00001000
00000010
00000001
00000100
,
00001000
00000000
00010000
00000000
,
00100000
00000000
10000000
00000000
,
00010000
01000000
00010000
10000000
00010000
01000000
00010000
10000000
,
10000000
01000000
10000000
00010000
10000000
01000000
10000000
00010000
,
01000000
00100000
00000000
00010000
00000000
00001000
00000000
00000010
,
00000002
00000000
00000000
00000000
,
00000003
00000000
00000000
00000110
,
00000001
00000100
00000010
00001000
00000100
00000100
00000010
00000000
,
00000001
00001000
00000100
00002000
00000000
00003001
00000100
00001000
,
00010000
01000000
00010000
01000000
10000000
00100000
01000000
00010000
,
00100000
01000000
00100000
02000000
00000000
13000000
00100000
00010000
,
00001000
00000010
00001000
00000020
00000000
00000031
00001000
00000001
,
00001000
00000100
00001000
00000100
00000010
00001000
00010000
00100000
,
10000000
00010000
10000000
00000000
00010000
00000000
00000000
00000000
01000000
00000000
00100000
00000000
10000000
00000000
00010000
00000000
,
01010000
11000000
00100000
01000000
,
00010000
00100000
00010000
01000000
00100000
00100000
00010000
00000000
,
00001000
00000010
00000001
00000001
00000000
00001000
00000001
00001000
,
00000100
00000010
00000100
00001000
00000010
00000100
00001000
00010000
,
01000000
10000000
01000000
10000000
01000000
00000000
10000000
00000000
00000000
00000000
00100000
00000000
01000000
00000000
00100000
00000000
,
10000000
01000000
10000000
02000000
00000000
03010000
00001000
00010000
,
00001000
00000010
00001000
00000010
00000001
00000000
00001000
00000000
,
00001100
00000000
00000101
00000000
00000010
00000100
00001000
00000000
,
00000001
00000010
00001000
00010000
00100000
10000000
01000000
01000000
,
10000000
00100000
10000000
00100000
10000000
00000000
00000000
00000000
01000000
00000000
00100000
00000000
00010000
00000000
00000000
00000000
,
10000000
01000000
10000000
00020000
00000000
01030000
00010000
01000000
,
00100000
00010000
00001000
00000010
00000001
00000100
00000010
00001000
,
00000100
00000010
00000100
00001000
00000001
00000010
00000100
00001000
,
00000001
00000100
00000001
00000200
00000000
00001300
00010000
00001000
,
00010000
00100000
00010000
00200000
00000000
10300000
00010000
01000000
,
00100000
10000000
00100000
10000000
01000000
00100000
00010000
10000000
,
02000000
00000000
03020000
00000000
,
00031000
00000000
00000010
00000000
,
00000001
00000000
00000100
00000000
,
00002000
00000000
00000000
00000000
00003000
00000000
00000000
00010000
,
00100000
10000000
00100000
00000000
01000000
00000000
00100000
00000000
,
00010000
00001000
00000000
00000010
00000000
00000001
00000000
00000000
,
00001000
00000010
00000100
00000010
00000000
00001000
00000001
00000200
,
00000000
00001300
00000000
00020000
00000000
01030000
00000000
00000000
,
10000000
00010000
10000000
00010000
01000000
00000000
00100000
00000000
,
10000000
01000000
10000000
00000000
00010000
00000000
01000000
00000000
00100000
00000000
01000000
00000000
00010000
00000000
00100000
01000000
,
00100000
00010000
10000000
10000000
00000000
01000000
00010000
00001000
,
00000010
00000100
00000010
00000000
00000001
00000000
00001000
00000000
00000010
00000000
00000100
00000000
00000001
00000000
00000010
00000000
,
00001000
00000010
00000001
00000000
00000100
00000010
00001000
00001000
,
00000001
00000010
00000001
00000020
00000000
00001030
00010000
00001000
,
00010000
00100000
00010000
00200000
00000000
10300000
00010000
01000000
,
00100000
10000000
00100000
10000000
00100000
01000000
00100000
01000000
,
00010000
10000000
00010000
01000000
00010000
00100000
00010000
10000000
,
01000000
00010000
00001000
00000100
00000001
00000100
00000001
00001000
,
00000010
00000100
00000001
00001000
00000010
00000100
00000001
00001000
,
00000100
00000001
00000100
00000001
00000100
00001000
00000010
00000100
,
00000020
00000000
00000000
00000030
,
00010000
00000000
00000000
00000000
;

//---------------dance-double - ----------------
#NOTES:
     dance-double:
     :
     Hard:
     14:
     0.660153,0.788174,0.025913,0.224575,0.492339,535.000000,532.000000,3.000000,26.000000,0.000000,0.000000,0.660153,0.788174,0.025913,0.224575,0.492339,535.000000,532.000000,3.000000,26.000000,0.000000,0.000000:
00000000
00000000
00000000
00000000
,
00000000
00000000
00000000
00000000
,
00000000
00000000
00000000
00000000
,
00000000
00000000
00000000
00000000
,
10000000
00000000
00100000
00000000
00000000
01000000
00000000
00000000
00010000
00000000
00000000
00000000
01000000
00000000
00100000
00000000
,
10000000
00000000
01000000
00100000
00000000
00010000
00000000
00100000
01000000
00000000
00000000
00000000
00010000
00000000
00001000
00000000
,
00000010
00000000
00000000
00000001
00000000
00000000
00000010
00000000
00000100
00000000
00000000
00000000
00001000
00000000
00000001
00000000
,
00001000
00000000
00000010
00000100
00000000
00000001
00000000
00000100
00000010
00000000
00000000
00000000
00001001
00000000
00000000
00000000
,
00000001
00000000
00000100
00000010
00000000
00001000
00000000
00000100
00000000
00000100
00000000
00000010
00000001
00000000
00001000
00000000
,
00000010
00000000
00001000
00000001
00000000
00000100
00000000
00000010
00000000
00000010
00000000
00000100
00000001
00000000
00000010
00000000
,
00001000
00000000
00010000
00100000
00000000
10000000
00000000
00010000
00000000
00010000
00000000
10000000
01000000
00000000
00100000
00000000
,
00010000
00000000
10000000
00100000
00000000
01000000
00000000
00010000
00000000
00010000
00000000
00100000
01000000
00000000
00000000
00000000
,
10000000
00000000
00010000
01000000
00000000
00100000
00000000
01000000
00000000
01000000
00000000
00010000
00100000
00000000
01000000
00000000
,
10000000
00000000
01000000
00100000
00000000
00010000
00000000
10000000
00000000
10000000
00000000
00100000
00010000
00000000
00001000
00000000
,
00000010
00000000
00000001
00001000
00000000
00000010
00000000
00000100
00000000
00000100
00000000
00000001
00000010
00000000
00000100
00000000
,
00001000
00000000
00000010
00000100
00000000
00000001
00000000
00000001
00000000
00000010
00000000
00000100
00000010
00000000
00000001
00000000
,
00001000
00000000
00000100
00000000
00000010
00000000
00000000
00000001
00000000
00000100
00000000
00000010
00001000
00000000
00000001
00000000
,
00000100
00000000
00001000
00000000
00010000
00000000
00000000
01000000
00000000
10000000
00000000
01000000
10000000
00000000
00100000
00000000
,
01000000
00000000
00010000
00000000
10000000
00000000
00000000
00100000
00000000
01000000
00000000
00010000
10000000
00000000
00100000
00000000
,
01000000
00000000
00010000
00000000
00100000
00000000
00000000
00010000
00000000
01000000
00000000
00100000
10000000
00000000
01000000
00000000
,
00020000
00031000
00000200
00000301
,
00000200
00001300
00020000
01030000
,
10000000
00010000
10000000
00010000
,
00100000
00001000
00010000
00010000
,
00000100
00001000
00000100
00000010
00000100
00001000
00000100
00000010
,
00000001
00000100
00000001
00000010
00000001
00000100
00000001
00000010
,
00001000
00010000
00100000
10000000
00100000
00010000
00001000
00010000
,
00022000
00000000
00000000
00000000
00000000
00000000
00000000
00033000
,
00001000
00000000
00010000
00000000
00010000
00000000
00000100
00000000
00001000
00000010
00001000
00000000
00000001
00000000
00000000
00000000
,
00000001
00000100
00000001
00000100
00000001
00000000
00000100
00000000
00000010
00000000
00001000
00000000
00000010
00000000
00000000
00000100
,
00000001
00000100
00000001
00000000
00001000
00000000
00001000
00000000
00000000
00000000
00000001
00000000
00001000
00000000
00000100
00000000
,
00010000
00000000
00001000
00010000
00001000
00000000
00010000
00001000
00100000
00000000
01000000
00000000
01000000
00000000
10000000
00000000
,
00010000
01000000
00010000
01000000
00010000
00000000
20000000
00000000
00000000
00000000
31000000
00000000
00010000
00000000
00001000
00000000
,
00000010
00000001
00000010
00000002
00000000
00001003
00000010
00000100
,
00000001
00000010
00000001
00000010
00001000
00010000
00100000
10000000
,
00010000
01000000
00010000
00000000
10000000
00000000
01000000
10000000
01000000
00000000
00100000
00000000
00010000
00000000
01000000
00000000
,
00100000
00000000
10000000
00000000
00100000
00000000
01000000
00000000
00100000
10000000
00100000
00000000
01000000
00000000
00010000
00000000
,
10000000
01000000
10000000
01000000
10000000
00000000
00100000
00000000
01000000
00000000
00010000
00000000
00100000
00000000
00000000
01000000
,
10000000
01000000
10000000
00000000
00100000
00000000
02000000
00000000
00000000
00000000
03010000
00000000
10000000
00000000
01000000
00000000
,
00100000
00000000
00001000
00010000
00001000
00000000
00010000
00000100
00010000
00000000
00000100
00000000
00001000
00000000
00000010
00000000
,
00000100
00000001
00000100
00000001
00000100
00000000
00000020
00000000
00000000
00000000
00001030
00000000
00000001
00000000
00000100
00000000
,
00001000
00010000
00001000
00020000
00000000
00130000
10000000
01000000
,
00010000
00001000
00010000
00001000
00000010
00000001
00001000
00001000
,
00000010
00000100
00000010
00000000
00001000
00000000
00000001
00000100
00000010
00000000
00001000
00000000
00000001
00000000
00000001
00000000
,
00000100
00000000
00001000
00000000
00010000
00000000
01000000
00000000
10000000
00100000
01000000
00000000
00010000
00000000
10000000
00000000
,
00010000
00100000
00010000
00100000
00010000
00000000
10000000
00000000
00010000
00000000
10000000
00000000
00010000
00000000
01000000
00100000
,
10000000
01000000
00100000
00020000
00000000
01030000
00100000
10000000
,
01000000
10000000
01000000
10000000
01000000
00000000
00010000
00000000
00001000
00000000
00000010
00000000
00000001
00000100
00000001
00000100
,
00000010
00001000
00000010
00001000
00000010
00000000
00000100
00000001
00000100
00000000
00000010
00000000
00001000
00000000
00000001
00000000
,
00000010
00001000
00000010
00002000
00000000
00013000
00100000
01000000
,
10000000
00000000
00100000
01000000
00100000
00000000
20000000
00000000
00000000
00000000
31000000
00000000
00100000
00000000
00010000
00000000
,
01000000
00000000
00100000
01000000
00100000
00000000
01000000
00010000
01000000
00000000
00001000
00010000
00001000
00000000
00010000
00000010
,
00010000
00000000
00000000
00000010
00000100
00000000
00000000
00000000
00000001
00000000
00000000
00000010
00000100
00000000
00001000
00000000
,
00000002
00000003
00000200
00000300
,
00002000
00003000
00020000
00030000
,
00200000
00000000
00000000
00000000
00000000
00000000
00000000
00000000
00300000
00000000
00000000
00000000
00000000
00000000
10000000
00010000
,
10000000
01000000
00100000
00010000
01000000
00100000
10000000
01000000
,
00010000
00002000
00000000
00003010
00000000
00000001
00000000
00000000
,
00000100
00000010
00001000
00000001
00000000
00000100
00001000
00020000
,
00000000
00130000
00000000
00020000
00000000
00031000
00000000
00000010
,
00000001
00000100
00000010
00001000
00000100
00000000
00000011
00000000
,
00000001
00001000
00000001
00001000
00000001
00000000
00000100
00000000
00000010
00000000
00000100
00000000
00001000
00000000
00010000
00000000
,
01000000
10000000
01000000
20000000
00000000
30100000
01000000
00010000
,
10000000
00100000
10000000
00100000
10000000
00000000
00010000
00000000
01000000
00000000
00100000
00000000
10000000
00100000
10000000
00100000
,
01000000
00001000
01000000
00001000
00010000
00000000
00000100
00010000
00000100
00010000
00000100
00000000
00001000
00000000
00000010
00000000
,
00000100
00000001
00000100
00000002
00000000
00000013
00000100
00001000
,
00000001
00000000
00000100
00000010
00000100
00000000
00000002
00000000
00000000
00000000
00000013
00000000
00001000
00000000
00010000
00000000
,
00100000
00100000
10000000
10000000
01000000
01000000
00100000
00100000
,
00010000
10000000
00010000
10000000
00010000
10000000
00010000
10000000
,
01000000
00010000
01000000
00010000
00001000
00000100
00000001
00000010
,
00000100
00001000
00000100
00001000
00000100
00001000
00000100
00001000
,
00000100
00000000
00000010
00000001
00001000
00000000
00000010
00000001
00001000
00000000
00000010
00000000
00000100
00000000
00001000
00000000
,
00020000
00000000
00000000
00030000
,
00100000
00000000
00000000
00000000
;

//---------------dance-double - ----------------
#NOTES:
     dance-double:
     :
     Challenge:
     16:
     0.772441,1.040389,0.069100,0.138200,0.833520,626.000000,618.000000,8.000000,16.000000,0.000000,0.000000,0.772441,1.040389,0.069100,0.138200,0.833520,626.000000,618.000000,8.000000,16.000000,0.000000,0.000000:
00000000
00000000
00000000
00000000
,
00000000
00000000
00000000
00000000
,
00000000
00000000
00000000
00000000
,
00000000
00000000
00000000
00000000
,
00010000
00000000
01000000
00100000
00000000
10000000
00000000
00100000
01000000
00000000
00000000
00000000
00010000
00000000
10000000
00000000
,
01000000
00000000
00100000
00001000
00000000
00010000
00000000
00000100
00001000
00000000
00000000
00000000
00000010
00000000
00000100
00000000
,
00000001
00000000
00000010
00000100
00000000
00001000
00000000
00000100
00000010
00000000
00000000
00000000
00000001
00000000
00000100
00000000
,
00000010
00000000
00010000
00001000
00000000
00100000
00000000
00010000
01000000
00000000
00000000
00000000
10100000
00000000
00000000
00000000
,
10000000
00000000
00010000
01000000
00000000
10100000
00000000
01000000
00000000
01000000
00000000
00010000
10000000
00000000
00010000
00000000
,
10000000
00000000
01000000
00010000
00000000
00001000
00000000
00000100
00000000
00000100
00000000
00000001
00000010
00000000
00000100
00000000
,
00001000
00000000
00000010
00001000
00000000
00000101
00000000
00000010
00000000
00000010
00000000
00001000
00000100
00000000
00000010
00000000
,
00000001
00000000
00000100
00001000
00000000
00010000
00000000
01000000
00000000
01000000
00000000
10000000
00100000
00000000
01000000
00000000
,
00010000
00000000
10000000
00010000
00000000
01100000
00000000
00010000
00000000
00010000
00000000
01000000
00100000
00000000
10000000
00000000
,
01000000
00000000
00010000
00001000
00000000
00000010
00000000
00000001
00000000
00000001
00000000
00001000
00000010
00000000
00000100
00000000
,
00000001
00000000
00000100
00000010
00000000
00001100
00000000
00000010
00000000
00000010
00000000
00000100
00000001
00000000
00001000
00000000
,
00000001
00000000
00000010
00001000
00000000
00010000
00000000
00100000
00000000
00100000
00000000
10000000
01000000
00000000
00100000
00000000
,
00010000
01000000
00100000
10000000
00000000
01000000
00100000
01000000
00000000
00100000
00000000
00010000
01000000
00000000
00100000
00000000
,
10000000
01000000
00100000
00001000
00000000
00010000
00001000
00010000
00000000
00000100
00000000
00001000
00000010
00000000
00000100
00000000
,
00000001
00000100
00000010
00001000
00000000
00000010
00000100
00000010
00000000
00000100
00000000
00000001
00001000
00000000
00000010
00000000
,
00000100
00000000
00001000
00010000
00000000
01000000
00000000
10000000
00000000
10000000
00000000
00100000
01000000
00000000
00010000
00000000
,
10000000
00000000
00010000
01000000
00000000
00010000
00000000
10000000
00000000
00010000
00000000
01000000
00010000
00000000
10000000
00000000
,
00100000
00000000
10000000
01000000
00000000
10000000
00000000
00010000
00000000
10000000
00000000
01000000
10000000
00000000
00010000
00000000
,
01000000
00100000
00010000
00001000
,
00000010
00000000
00000001
00000000
00001000
00000000
00000010
00000100
,
00000001
00000000
00000010
00000000
00000001
00000000
00001000
00000000
00000100
00000000
00000010
00000100
00001000
00000000
00000010
00000000
,
00000100
00000001
00000010
00000001
00000100
00001000
00010000
00100000
,
10000000
00010000
10000000
00010000
01000000
00010000
01000000
00010000
00100000
01000000
00100000
01000000
10000000
01000000
10000000
01000000
,
20000000
00000000
00000000
00000000
,
30010000
00000000
01000000
00000000
01000000
00000000
01000000
00000000
00010000
00100000
00010000
00000000
10000000
00000000
00000000
00000000
,
01000000
00100000
01000000
00100000
00010000
00100000
01000000
00000000
00010000
00000000
00001000
00000000
00000100
00000000
00000000
00000001
,
00001000
00000001
00001000
00000000
00000010
00000000
00000200
00000000
00000000
00000000
00000301
00000000
00001000
00000000
00000010
00000000
,
00000100
00000000
00000001
00000010
00000001
00001000
00000001
00000010
00000001
00000000
00000100
00000000
00000010
00000000
00001000
00000000
,
00000100
00000010
00000100
00000010
00000001
00000000
00000200
00000000
00000000
00000000
00001300
00000000
00010000
00000000
01000000
00000000
,
10000000
00100000
01000000
00020000
00000000
00130000
01000000
10000000
,
00010000
01000000
00100000
10000000
01000000
00010000
00001000
00000100
,
00000001
00001000
00000001
00000000
00001000
00000000
00000100
00000010
00000100
00000000
00000010
00000000
00000001
00000000
00000100
00000000
,
00000010
00000000
00000001
00000000
00000010
00000000
00001000
00000000
00000100
00000010
00000100
00000010
00000001
00000000
00000001
00000000
,
00000010
00000100
00000010
00000100
00001000
00000100
00000010
00000000
00001000
00000000
00010000
00000000
00100000
00000000
00000000
10000000
,
00010000
10000000
00010000
00000000
01000000
00000000
00200000
00000000
00000000
00000000
10300000
00000000
00010000
00000000
01000000
00000000
,
00100000
00000000
10000000
01000000
10000000
00010000
10000000
01000000
10000000
00000000
00100000
00000000
01000000
00000000
00010000
00000000
,
00100000
01000000
00100000
01000000
10000000
00000000
00200000
00000000
00000000
00000000
00310000
00000000
00001000
00000000
00000010
00000000
,
00000001
00000100
00000010
00002000
00000000
00003001
00001000
00000010
,
00000100
00000001
00000010
00001000
00010000
00100000
10000000
01000000
,
00100000
00010000
00100000
00000000
00010000
00000000
01000000
00100000
01000000
00000000
00100000
00000000
10000000
00000000
00010000
00000000
,
01000000
00100000
00010000
00001000
00000100
00000001
00001000
00000010
,
00000100
00000001
00000100
00000001
00000100
00000000
00000010
00000000
00001000
00000000
00000010
00000000
00001000
00000000
00000100
00000010
,
00000001
00000100
00001000
00020000
00000000
00130000
10000000
00100000
,
10000000
01000000
10000000
01000000
00100000
00000000
00010000
00000000
00100000
00000000
00010000
00000000
01000000
00100000
10000000
00010000
,
10000000
00100000
10000000
00100000
01000000
00000000
00010000
00100000
01000000
10000000
01000000
10000000
00100000
00000000
01000000
00000000
,
00010000
00100000
01000000
00020000
00000000
00031000
00000010
00000001
,
00001000
00000000
00000010
00000100
00000010
00000000
00000200
00000000
00000000
00000000
00000301
00000000
00000010
00000000
00000100
00000000
,
00001000
00000010
00001000
00000010
00000100
00000001
00000100
00000001
00000010
00000100
00000010
00000100
00001000
00000100
00001000
00000100
,
00001000
00000000
00000000
00001000
00000010
00000000
00000000
00000000
00000100
00000000
00000000
00000100
00000001
00000000
00001000
00000000
,
00000001
00000000
00001000
00000000
,
00010000
00000000
00000000
00000000
10000000
00000000
00000000
00100000
,
11000000
00000000
00010000
00000000
00000000
00000000
00000000
00000000
00000000
00000000
00000000
00000000
00000000
00000000
10000000
01000000
,
00010000
00001000
00000100
00000001
00000010
00000100
00001000
00000010
,
00000100
00001000
00000000
00010000
00000000
01000000
00000000
00000000
,
10000000
00100000
01000000
00010000
00000000
00100000
01000000
20000000
,
30100000
00000000
01000000
00000000
00000000
00000000
00020000
00000000
00130000
01000000
00100000
01000000
10000000
00100000
01000000
00010000
,
00100000
00010000
00100000
00010000
00100000
01000000
10000000
00100000
01000000
00000000
00010000
00000000
10010000
00000000
00000000
00000000
,
01000000
00010000
01000000
00010000
01000000
00000000
00100000
00000000
00010000
00000000
00001000
00000010
00001000
00000000
00000010
00000001
,
00000010
00000001
00000100
00000020
00000000
00001030
00000100
00000010
,
00000001
00000100
00000001
00000100
00000001
00000000
00001000
00000000
00000001
00000000
00001000
00000000
00000100
00000010
00000001
00000010
,
00000100
00001000
00000010
00000100
00000001
00000000
00000100
00000010
00001000
00000010
00000100
00000000
00000001
00000000
00000010
00000000
,
00001000
00010000
00100000
02000000
00000000
03010000
00001000
00000010
,
00000001
00000000
00001000
00000010
00000100
00000000
00002000
00000000
00000000
00000000
00013000
00000000
00100000
00000000
10000000
00000000
,
00010000
01000000
00010000
01000000
00100000
10000000
00100000
10000000
00010000
00100000
00010000
00100000
01000000
10000000
01000000
10000000
,
01000000
00010000
00001000
00010000
01000000
00010000
00001000
00000010
,
00000001
00000000
00000100
00000000
00001000
00000000
00000100
00000000
00000001
00000100
00001000
00000100
00000001
00000000
00001000
00000010
,
00000100
00000001
00000100
00000001
00000100
00000010
00000100
00000010
00010000
00000010
00010000
00000010
00010000
00001000
00010000
00001000
,
01000000
00001000
01000000
00100000
01000000
00001000
01000000
00100000
10000000
00010000
10000000
00010000
01000000
00010000
01000000
00010000
,
00200000
00000000
00000000
00300000
,
00001100
00000000
00000000
00000000
;
