#TITLE:Fire Strike;
#SUBTITLE:;
#ARTIST:Junk;
#TITLETRANSLIT:;
#SUBTITLETRANSLIT:;
#ARTISTTRANSLIT:;
#GENRE:Trance;
#CREDIT:;
#BANNER:firestrike-bn.png;
#BACKGROUND:firestrike-bg.png;
#LYRICSPATH:;
#CDTITLE:;
#MUSIC:Fire Strike.mp3;
#OFFSET:-0.040000;
#SAMPLESTART:78.980003;
#SAMPLELENGTH:11.999990;
#SELECTABLE:YES;
#DISPLAYBPM:0.000000:158.000000;
#BPMS:0.000000=158.000000
,204.000000=316.000000
,206.000000=158.000000
;
#STOPS:204.000000=0.190000,
205.000000=0.063000,
205.333328=0.063000,
205.666672=0.063000
;
#BGCHANGES:;
#KEYSOUNDS:;
#ATTACKS:;

//---------------dance-single - ----------------
#NOTES:
     dance-single:
     :
     Challenge:
     16:
     0.819007,0.927350,0.074996,0.058330,1.316601,688.000000,679.000000,9.000000,7.000000,0.000000,0.000000,0.819007,0.927350,0.074996,0.058330,1.316601,688.000000,679.000000,9.000000,7.000000,0.000000,0.000000:
0000
0000
0000
0000
,
0000
0000
0000
0000
,
0000
0000
0000
0000
,
0000
0000
0000
0000
,
1100
0000
0000
0000
0000
0000
0000
0010
0000
0000
0100
0000
0001
0000
0000
0000
,
0101
0000
0000
0000
0000
0000
0000
0010
0000
0000
1000
0000
0100
0000
0000
0000
,
1100
0000
0000
0000
0000
0000
0000
0010
0000
0000
0001
0000
1000
0000
0000
0000
,
1002
0000
0000
0010
0000
0000
0000
0000
,
1003
0100
1000
0000
0010
1000
0010
0100
0000
0010
0000
0100
0001
0000
1000
0000
,
0001
0010
0001
0000
0100
0010
0100
0001
0000
1000
0000
0100
0010
0000
0100
0000
,
1000
0001
1000
0000
0001
0100
0001
0010
0000
0100
0000
0010
0001
0000
1000
0000
,
0010
1000
0010
0000
0100
0001
0100
0010
0000
1000
0000
0100
1000
0000
0001
0000
,
0010
0100
0010
0000
0001
1000
0001
0100
0000
0010
0000
1000
0100
0000
1000
0000
,
0100
0010
0100
0000
1000
0010
1000
0100
0000
0010
0000
0001
0100
0000
0001
0000
,
0100
0010
0100
0000
0010
1000
0010
0100
0000
0010
0000
1000
0100
0000
0010
0000
,
0100
0000
1000
0000
0010
0100
0010
0100
0001
0100
0010
0100
0010
1000
0010
1000
,
0001
0010
0001
0000
0100
0001
0100
0001
0000
0010
0000
0100
1000
0000
0001
0000
,
1000
0010
1000
0000
0100
1000
0100
1000
0000
0100
0000
0010
0001
0000
1000
0000
,
0001
0100
0001
0000
0100
0010
0100
0010
0000
1000
0000
0001
0100
0000
0010
0000
,
1000
0100
1000
0000
0010
0100
0010
0100
0000
0001
0000
1000
0010
0000
0100
0000
,
0010
1000
0010
0000
1000
0100
1000
0100
0000
0010
0000
0001
1000
0000
0001
0000
,
0100
0001
0100
0000
0001
0010
0001
0010
0000
0100
0000
1000
0001
0000
1000
0000
,
0010
0100
0010
0000
1000
0010
1000
0010
0000
0100
0000
0001
1000
0000
0001
0000
,
0100
0000
0100
0001
0000
1000
0000
0001
1000
0000
0000
1000
0100
0000
0010
0000
,
0001
0000
0010
1000
0000
0000
0000
0000
,
0000
0000
0000
0000
0000
0002
0000
0000
,
1003
0000
0100
0010
0000
0000
0000
0000
,
1000
0000
0010
0001
0000
0000
0000
0000
,
0001
0000
0100
1000
0000
0000
0000
0000
,
0000
0000
0000
0000
0000
2000
0000
0000
,
3001
0000
0010
0100
0000
0000
0000
0000
,
0001
0000
0100
1000
0000
0000
0000
0000
,
0010
1000
0000
0010
0000
0100
0000
0000
0001
0000
0000
1000
0000
0100
1000
0000
,
0001
0010
0000
0100
0000
0010
0000
0000
0001
0000
0000
0101
0000
0000
1001
0000
,
0100
0010
0000
0100
0000
0001
0000
0000
1000
0000
0000
0010
0000
0100
0010
0000
,
1000
0100
0000
0010
0000
0100
1000
0100
1000
0000
0010
0100
0000
0001
0100
0001
,
0100
0001
0000
0100
0000
0010
0000
0000
1000
0000
0000
0001
0000
0010
0001
0000
,
1000
0100
0000
0010
0000
0100
0000
0000
1000
0000
0000
1100
0000
0000
1001
0000
,
0010
0100
0000
0010
0000
1000
0000
0000
0001
0000
0000
0100
0000
0010
0100
0000
,
0001
0010
0000
0100
0000
0010
0001
0010
0001
0000
0100
0010
0000
1000
0001
1000
,
0001
0100
0000
0010
0000
0100
0001
0000
1000
0100
0000
0010
0000
0100
1000
0000
,
0010
1000
0000
0001
0000
1000
0010
0000
0100
0010
0000
0100
0010
0000
0100
0000
,
0001
0010
0000
1000
0000
0010
0001
0000
1000
0100
0000
0001
0000
0100
1000
0000
,
0010
0100
0000
0001
0000
0100
0010
0100
0010
0000
1000
0010
0000
0010
0100
0010
,
1000
0010
0000
0100
0000
0010
1000
0000
0001
0010
0000
0100
0000
0010
0001
0000
,
0100
0001
0000
1000
0000
0001
0100
0000
0010
0100
0000
0010
0100
0000
0010
0000
,
1000
0100
0000
0001
0000
0100
1000
0000
0001
0010
0000
1000
0000
0010
0001
0000
,
0100
0010
0000
1000
0000
0010
0100
0010
0100
0000
0001
0100
0000
0010
1000
0010
,
1000
0000
1000
0000
0001
0000
0001
1000
0001
0000
0001
0000
1000
0000
1000
0001
,
1000
0000
1000
0000
0010
0100
0010
0100
0010
0000
0100
0000
0001
1000
0001
1000
,
0001
0010
0100
0010
0001
0100
0010
0100
0001
0010
0100
0010
0001
0100
0010
1000
,
0020
0000
0000
1030
0001
1000
0200
0000
0000
0000
0000
0000
,
1300
0010
1000
0010
0000
0100
0001
0000
1000
0100
1000
0100
0000
0010
0001
0000
,
0100
0010
0100
0010
0000
1000
0010
0000
0100
0001
0100
0001
0000
0100
0010
0000
,
1000
0100
0000
0010
0000
0001
0000
0000
1000
0100
0000
0010
0001
0000
1000
0000
,
0001
0100
0000
0010
0000
1000
0010
0100
0001
0000
1000
0001
0000
1000
0100
0010
,
0001
0100
0001
0100
0000
0010
1000
0000
0001
0010
0001
0010
0000
0100
1000
0000
,
0010
0100
0010
0100
0000
0001
0100
0000
0010
1000
0010
1000
0000
0010
0100
0000
,
0001
0010
0000
0100
0000
1000
0000
0000
0001
0010
0000
0100
1000
0000
0001
0000
,
1000
0010
0000
0100
0000
0001
0100
0010
1000
0000
0001
1000
0100
0010
0001
0100
,
0010
1000
0010
0100
0010
1000
0010
0000
0100
0000
0010
1000
0010
0100
0010
0000
,
0100
0001
0100
0010
0100
0001
0100
0000
0010
0000
0100
0001
0100
0010
0100
0000
,
0001
1000
0000
0010
0000
1000
0100
0000
0010
0001
0000
0100
0001
0000
1000
0000
,
0010
0100
0000
0001
0000
0100
0010
1000
0010
0000
0100
0001
0000
0001
1000
0010
,
1000
0100
1000
0010
1000
0100
1000
0000
0010
0000
1000
0100
1000
0010
1000
0000
,
0001
0100
0001
0010
0001
0100
0001
0000
0010
0000
0001
0100
0001
0010
0001
0000
,
0100
0010
0000
1000
0000
0100
1000
0000
0010
1000
0000
0010
0100
0000
0001
0000
,
1000
0100
0000
1000
0000
0100
1000
0100
1000
0000
0001
0100
0000
0100
0001
0100
,
0001
0000
0010
0000
0001
0100
0000
0010
0000
1000
0010
0100
0001
0000
0010
0000
,
0100
0000
1000
0000
0100
0010
0000
0001
0000
0010
0100
1000
0010
0000
0100
0000
,
0001
0000
1000
0000
0001
0100
0000
0010
0000
1000
0100
0010
0001
0000
1000
0000
,
0010
0000
0100
0000
0010
1000
0000
0100
0000
0010
0001
0010
1000
0000
0010
0000
,
0001
0000
0100
0000
0010
1000
0000
0100
0000
0010
0001
1000
0010
0000
0100
0000
,
0010
0000
1000
0000
0001
0100
0000
0001
0000
1000
0010
0100
0010
0000
1000
0000
,
0100
0000
0010
0000
0001
1000
0000
0001
0000
0010
0001
0000
0100
0000
0001
1000
,
0001
0100
0001
1000
0100
0010
0000
0100
0000
1000
0010
0001
0010
1000
0001
0000
,
2002
0000
0000
3003
;

//---------------dance-double - ----------------
#NOTES:
     dance-double:
     :
     Challenge:
     16:
     0.799960,0.927350,0.041665,0.058330,1.308268,672.000000,667.000000,5.000000,7.000000,0.000000,0.000000,0.799960,0.927350,0.041665,0.058330,1.308268,672.000000,667.000000,5.000000,7.000000,0.000000,0.000000:
// measure 0
00000000
00000000
00000000
00000000
,  // measure 1
00000000
00000000
00000000
00000000
,  // measure 2
00000000
00000000
00000000
00000000
,  // measure 3
00000000
00000000
00000000
00000000
,  // measure 4
00010100
00000000
00000000
00000000
00000000
00000000
00000000
00000010
00000000
00000000
00000100
00000000
00000001
00000000
00000000
00000000
,  // measure 5
00000011
00000000
00000000
00000000
00000000
00000000
00000000
00001000
00000000
00000000
00010000
00000000
00100000
00000000
00000000
00000000
,  // measure 6
10100000
00000000
00000000
00000000
00000000
00000000
00000000
01000000
00000000
00000000
00010000
00000000
00001000
00000000
00000000
00000000
,  // measure 7
00021000
00000000
00000000
00000100
00000000
00000000
00000000
00000000
,  // measure 8
00031000
00100000
00001000
00000000
00100000
01000000
00100000
00010000
00000000
10000000
00000000
00100000
01000000
00000000
00010000
00000000
,  // measure 9
10000000
01000000
10000000
00000000
00100000
01000000
00100000
01000000
00000000
00100000
00000000
00010000
00001000
00000000
00000100
00000000
,  // measure 10
00000001
00000010
00000001
00000000
00001000
00000100
00001000
00000010
00000000
00000100
00000000
00000001
00000010
00000000
00000001
00000000
,  // measure 11
00000100
00000010
00000100
00000000
00000001
00000100
00000001
00000100
00000000
00001000
00000000
00010000
00100000
00000000
10000000
00000000
,  // measure 12
00010000
10000000
00010000
00000000
10000000
01000000
10000000
01000000
00000000
00100000
00000000
01000000
10000000
00000000
00100000
00000000
,  // measure 13
01000000
00010000
01000000
00000000
00100000
10000000
00100000
10000000
00000000
01000000
00000000
00010000
00001000
00000000
00000100
00000000
,  // measure 14
00000001
00000010
00000001
00000000
00001000
00000010
00001000
00000010
00000000
00000100
00000000
00000001
00001000
00000000
00000001
00000000
,  // measure 15
00000100
00000000
00000010
00000000
00001000
00000100
00001000
00000100
00010000
00001000
01000000
00100000
01000000
00100000
10000000
00010000
,  // measure 16
10000000
01000000
00100000
00000000
01000000
00100000
00010000
01000000
00000000
00100000
00000000
01000000
00010000
00000000
10000000
00000000
,  // measure 17
00010000
01000000
00100000
00000000
10000000
00010000
01000000
00100000
00000000
00010000
00000000
00001000
00000100
00000000
00000001
00000000
,  // measure 18
00001000
00000010
00000100
00000000
00000001
00000010
00000100
00001000
00000000
00000001
00000000
00001000
00000100
00000000
00000010
00000000
,  // measure 19
00000001
00000100
00000010
00000000
00001000
00000001
00000100
00000010
00000000
00000100
00000000
00001000
00010000
00000000
01000000
00000000
,  // measure 20
00100000
10000000
00010000
00000000
01000000
00010000
10000000
00100000
00000000
01000000
00000000
00100000
10000000
00000000
00010000
00000000
,  // measure 21
01000000
00010000
10000000
00000000
00100000
10000000
00010000
01000000
00000000
00100000
00000000
00010000
00001000
00000000
00000010
00000000
,  // measure 22
00000001
00001000
00000100
00000000
00001000
00000010
00000100
00000001
00000000
00001000
00000000
00000001
00000100
00000000
00000010
00000000
,  // measure 23
00001000
00000000
00000001
00000100
00000000
00001000
00000000
00010000
01000000
00000000
00000000
10000000
00010000
00000000
00100000
00000000
,  // measure 24
00002000
00000000
00000000
01000000
00000000
00000000
00000000
00000000
,  // measure 25
00000000
00000000
00000000
00000000
00000000
00010000
00000000
00000000
,  // measure 26
00000100
00000000
00000000
00000100
00000000
00000000
00000000
00000000
,  // measure 27
00010000
00000000
00000000
00100000
00000000
00000000
00000000
00000000
,  // measure 28
00023000
00000000
00000000
00000100
00000000
00000000
00000000
00000000
,  // measure 29
00000000
00000000
00000000
00000000
00000000
00001000
00000000
00000000
,  // measure 30
01000000
00000000
00000000
01000000
00000000
00000000
00000000
00000000
,  // measure 31
00001000
00000000
00000000
00000010
00030000
00000000
00000000
00000000
,  // measure 32
00000100
00000001
00000000
00000100
00000000
00000010
00000000
00000000
00001000
00000000
00000000
00000001
00000000
00000010
00000001
00000000
,  // measure 33
00000100
00000010
00000000
00001000
00000000
00000010
00000100
00000000
00001000
00000000
00000000
00010000
00000000
00000000
01000000
00000000
,  // measure 34
10000000
00100000
00000000
10000000
00000000
00010000
00000000
00000000
01000000
00000000
00000000
00010000
00000000
00100000
00010000
00000000
,  // measure 35
10000000
01000000
00000000
00100000
00000000
01000000
10000000
01000000
10000000
00000000
00010000
00100000
00000000
00100000
00010000
00100000
,  // measure 36
00010000
10000000
00000000
01000000
00000000
00100000
00000000
00000000
01000000
00000000
00000000
10000000
00000000
00100000
10000000
00000000
,  // measure 37
00010000
01000000
00000000
00100000
00000000
00010000
00000000
00000000
00001000
00000000
00000000
00000100
00000000
00000000
00000001
00000000
,  // measure 38
00001000
00000010
00000000
00001000
00000000
00000001
00000000
00000000
00000010
00000000
00000000
00000100
00000000
00000010
00000100
00000000
,  // measure 39
00000010
00000001
00000000
00000100
00000000
00000100
00000001
00000100
00000001
00000000
00001000
00000010
00000000
00000010
00001000
00000010
,  // measure 40
00001000
00000001
00000000
00000100
00000000
00000001
00001000
00000000
00000001
00001000
00000000
00000100
00000000
00001000
00000001
00000000
,  // measure 41
00000100
00000010
00000000
00001000
00000000
00000010
00000100
00000000
00001000
00010000
00000000
01000000
10000000
00000000
00010000
00000000
,  // measure 42
10000000
01000000
00000000
00100000
00000000
01000000
10000000
00000000
00010000
00100000
00000000
01000000
00000000
00100000
00010000
00000000
,  // measure 43
10000000
01000000
00000000
00100000
00000000
01000000
10000000
01000000
10000000
00000000
00100000
01000000
00000000
01000000
00010000
01000000
,  // measure 44
00010000
10000000
00000000
01000000
00000000
10000000
00010000
00000000
10000000
00010000
00000000
01000000
00000000
00010000
10000000
00000000
,  // measure 45
00100000
01000000
00000000
00010000
00000000
01000000
00100000
00000000
00010000
00001000
00000000
00000100
00000001
00000000
00001000
00000000
,  // measure 46
00000010
00000100
00000000
00000001
00000000
00000100
00000010
00000000
00000100
00000010
00000000
00001000
00000000
00000010
00000100
00000000
,  // measure 47
00000001
00001000
00000000
00000010
00000000
00001000
00000100
00001000
00000100
00000000
00000010
00000001
00000000
00000001
00000100
00000001
,  // measure 48
00000100
00000000
00000100
00000000
00001000
00000000
00001000
00010000
01000000
00000000
01000000
00000000
10000000
00000000
10000000
01000000
,  // measure 49
00010000
00000000
00010000
00000000
00001000
00010000
00001000
00010000
00001000
00000000
00010000
00000000
00000010
00001000
00000010
00001000
,  // measure 50
00000010
00000100
00000001
00000100
00000010
00001000
00000100
00001000
00000010
00000100
00000001
00000100
00000010
00001000
00000100
00001000
,  // measure 51
00000020
00000000
00000000
00000130
00001000
00010000
02000000
00000000
00000000
00000000
00000000
00000000
,  // measure 52
13000000
01000000
10000000
01000000
00000000
00100000
00010000
00000000
10000000
00100000
10000000
00100000
00000000
01000000
00010000
00000000
,  // measure 53
01000000
00100000
01000000
00100000
00000000
10000000
00010000
00000000
10000000
00010000
01000000
00010000
00000000
01000000
00010000
00000000
,  // measure 54
10000000
01000000
00000000
00010000
00000000
00001000
00000000
00000000
00000100
00000001
00000000
00000100
00000001
00000000
00001000
00000000
,  // measure 55
00000001
00000010
00000000
00000100
00000000
00000010
00000001
00001000
00000100
00000000
00000010
00000100
00000000
00001000
00000001
00000010
,  // measure 56
00000001
00000100
00000001
00000100
00000000
00000010
00001000
00000000
00000001
00000010
00000001
00000010
00000000
00000100
00001000
00000000
,  // measure 57
00000010
00000100
00000010
00000100
00000000
00000001
00001000
00000000
00000001
00001000
00000001
00000100
00000000
00000001
00000100
00000000
,  // measure 58
00000001
00000010
00000000
00001000
00000000
00010000
00000000
00000000
00100000
10000000
00000000
00100000
10000000
00000000
00010000
00000000
,  // measure 59
10000000
01000000
00000000
00100000
00000000
00010000
01000000
00100000
10000000
00000000
00010000
10000000
01000000
00100000
00010000
10000000
,  // measure 60
00100000
01000000
00100000
10000000
00100000
01000000
00100000
00000000
10000000
00000000
00100000
01000000
00100000
10000000
00100000
00000000
,  // measure 61
10000000
01000000
10000000
00010000
10000000
01000000
10000000
00000000
00010000
00000000
10000000
01000000
10000000
00010000
10000000
00000000
,  // measure 62
01000000
00010000
00000000
00001000
00000000
00000100
00000000
00000001
00001000
00000000
00000000
00000010
00000000
00000010
00000100
00000000
,  // measure 63
00000001
00001000
00000000
00000010
00000000
00000100
00000010
00001000
00000001
00000000
00000100
00000010
00000000
00001000
00000001
00000010
,  // measure 64
00000100
00001000
00000100
00000010
00000100
00001000
00000100
00000000
00000010
00000000
00000100
00001000
00000100
00000010
00000100
00000000
,  // measure 65
00001000
00000010
00001000
00000001
00001000
00000010
00001000
00000000
00000001
00000000
00001000
00000010
00001000
00000001
00001000
00000000
,  // measure 66
00000010
00000100
00000000
00001000
00000000
00010000
00000000
01000000
10000000
00000000
00000000
00010000
00000000
00010000
00100000
00000000
,  // measure 67
01000000
10000000
00000000
10000000
00000000
01000000
10000000
01000000
10000000
00000000
00010000
00100000
00000000
00010000
00100000
00010000
,  // measure 68
00100000
00000000
00010000
00000000
01000000
00100000
00000000
00010000
00000000
00001000
00000100
00000000
00000001
00000000
00001000
00000000
,  // measure 69
00000001
00000000
00000010
00000000
00000100
00001000
00000000
00000010
00000000
00000100
00001000
00000000
00010000
00000000
01000000
00000000
,  // measure 70
10000000
00000000
00100000
00000000
00010000
00001000
00000000
00000010
00000000
00000001
00001000
00000000
00000010
00000000
00000100
00000000
,  // measure 71
00000001
00000000
00000010
00000000
00000100
00001000
00000000
00000010
00000000
00000100
00000001
00000010
00000001
00000010
00000001
00000100
,  // measure 72
00000001
00000000
00000010
00000000
00001000
00010000
00000000
01000000
00000000
10000000
00000000
00100000
01000000
00000000
00010000
00000000
,  // measure 73
00100000
00000000
01000000
00000000
00010000
00001000
00000000
00000100
00000000
00000001
00000000
00001000
00000010
00000000
00000100
00000000
,  // measure 74
00001000
00000000
00010000
00000000
01000000
10000000
00000000
00100000
00000000
01000000
00000000
00100000
00010000
00000000
00001000
00000000
,  // measure 75
00000100
00000000
00000001
00000000
00001000
00000010
00001000
00000010
00001000
00000000
00000001
00000100
00000001
00000100
00000001
00000000
,  // measure 76
00000202
00000000
00000000
00000303
;

//---------------dance-single - ----------------
#NOTES:
     dance-single:
     :
     Hard:
     15:
     0.714250,0.767462,0.049998,0.074996,1.087446,600.000000,594.000000,6.000000,9.000000,0.000000,0.000000,0.714250,0.767462,0.049998,0.074996,1.087446,600.000000,594.000000,6.000000,9.000000,0.000000,0.000000:
0000
0000
0000
0000
,
0000
0000
0000
0000
,
0000
0000
0000
0000
,
0000
0000
0000
0000
,
0011
0000
0000
0000
0000
0000
0000
0001
0000
0000
1000
0000
0010
0000
0000
0000
,
1010
0000
0000
0000
0000
0000
0000
1000
0000
0000
0001
0000
0010
0000
0000
0000
,
0011
0000
0000
0000
0000
0000
0000
0001
0000
0000
1000
0000
0010
0000
0000
0000
,
2000
0000
0000
0002
0000
0000
0000
3003
,
1000
0000
0100
0000
0010
0100
0000
0010
0000
0100
0010
0000
0001
0000
1000
0000
,
0001
0000
0100
0000
0010
0100
0000
0010
0000
0100
0010
0000
1000
0000
0010
0000
,
1000
0000
0100
0000
0010
0001
0000
0010
0000
0001
0010
0000
0100
0000
1000
0000
,
0001
0000
0010
0000
0100
1000
0000
0100
0000
1000
0100
0010
0001
1000
0001
0000
,
0100
0000
0010
0000
1000
0010
0000
1000
0000
0010
1000
0000
0001
0000
0100
0000
,
0010
0000
1000
0000
0001
0100
0000
0001
0000
0100
0001
0000
1000
0000
0100
0000
,
0010
0000
0001
0000
1000
0100
0000
1000
0000
0100
1000
0000
0001
0000
0010
0000
,
0001
0000
0100
0000
0010
1000
0010
1000
0010
0100
0001
1000
0001
0100
0001
0100
,
0001
0000
0010
0000
0100
1000
0000
0001
0000
1000
0100
0000
0010
0000
0001
0000
,
1000
0000
0010
0000
0100
0001
0000
1000
0000
0001
0100
0000
0010
0000
1000
0000
,
0001
0000
0010
0000
0100
0010
0000
0001
0000
0010
0100
0000
1000
0000
0001
0000
,
1000
0000
0010
0000
0100
0001
0000
0010
0000
0001
0100
0000
0010
0000
1000
0000
,
0100
0000
0010
0000
0001
0010
0000
0100
0000
0010
0001
0000
1000
0000
0010
0000
,
0100
0000
0010
0000
1000
0100
0000
0010
0000
0100
1000
0000
0001
0000
0100
0000
,
0010
0000
0100
0000
0001
1000
0000
0010
0000
1000
0001
0000
0010
0000
0100
0000
,
1000
0000
1000
0100
0000
0010
0000
0100
1000
0000
0000
1000
0001
0000
0100
0000
,
0010
0000
0001
0010
0000
0000
0000
0000
,
0000
0000
0000
0000
0000
1000
0000
0000
,
0100
0000
0010
1000
0000
0000
0000
0000
,
0010
0000
0001
0100
0000
0000
0000
0000
,
0010
0000
0001
0010
0000
0000
0000
0000
,
0000
0000
0000
0000
0000
1000
0000
0000
,
0010
0000
0100
1000
0000
0000
0000
0000
,
0100
0000
0001
0010
0000
0000
0000
0000
,
0001
0010
0000
0010
0000
0001
0000
0000
0100
0000
0000
0010
0000
1000
0100
0000
,
0010
0100
0000
0100
0000
1000
0000
0000
0010
0000
0000
0100
0000
0000
0010
0000
,
1000
0100
0000
0100
0000
0010
0000
0000
0001
0000
0000
0100
0000
0010
1000
0000
,
0001
0010
0000
0010
0000
0001
1000
0001
1000
0000
0010
0100
0000
0010
0100
0000
,
0010
1000
0000
1000
0000
0001
0000
0000
1000
0000
0000
0100
0000
0010
0100
0000
,
1000
0001
0000
0001
0000
0010
0000
0000
0001
0000
0000
0100
0000
0000
0010
0000
,
0100
0001
0000
0001
0000
1000
0000
0000
0010
0000
0000
1000
0000
0100
1000
0000
,
0010
0100
0000
0100
0000
0001
1000
0001
1000
0000
0010
1000
0000
0010
1000
0000
,
0100
0010
0000
0001
0000
0010
0100
0000
0010
0001
0000
0100
0000
0001
0010
0000
,
0001
1000
0000
0100
0000
1000
0001
0000
1000
0010
0000
1000
0010
0000
1000
0000
,
0010
0100
0000
0001
0000
0100
0010
0000
0100
0010
0000
1000
0000
0010
0100
0000
,
0001
1000
0000
0001
0000
1000
0001
1000
0001
0000
0100
0010
0000
0100
0001
0000
,
0010
0100
0000
1000
0000
0100
0010
0000
0100
1000
0000
0010
0000
1000
0100
0000
,
1000
0001
0000
0010
0000
0001
1000
0000
0001
0100
0000
0001
0100
0000
0001
0000
,
0100
0010
0000
1000
0000
0010
0100
0000
0010
0100
0000
0001
0000
0100
0010
0000
,
1000
0001
0000
1000
0000
0001
1000
0001
1000
0000
0010
0100
0000
0010
0100
0000
,
0001
0000
1000
0000
0001
0000
1000
0100
0010
0000
0100
0000
0010
0000
0100
0010
,
0001
0000
1000
0000
0001
1000
0100
0010
0001
0000
0100
0000
0001
0000
0100
0000
,
0001
0000
0000
0001
1000
0000
0000
1000
0010
0000
0010
0000
1000
0000
1000
0000
,
0002
0000
0000
1003
0001
1000
0002
0000
0000
0000
0000
0000
,
1003
0010
0000
1000
0000
0010
1000
0000
0001
0010
0000
0100
0000
0010
0001
0000
,
1000
0100
0000
1000
0000
0100
1000
0000
0010
0000
0000
0101
0000
0000
0010
0000
,
0100
0001
0000
0010
0000
0001
0100
0000
0010
1000
0000
0100
0000
1000
0010
0000
,
0100
0001
0000
1000
0000
0010
1000
0010
1000
0000
0001
0100
0000
0100
0001
0000
,
0010
0001
0000
0010
0000
0001
0010
0000
0100
0010
0000
0001
0000
0010
0100
0000
,
1000
0100
0000
1000
0000
0100
1000
0000
0010
0000
0000
1100
0000
0000
0010
0000
,
0100
0001
0000
1000
0000
0010
0100
0000
0010
1000
0000
0100
0000
0010
0001
0000
,
0100
0001
0000
0010
0000
0001
0100
0001
0100
0000
0010
1000
0000
1000
0010
0000
,
1000
0100
1000
0100
1000
0001
0000
0000
0001
0000
0000
0100
0000
0001
0100
0000
,
0001
0010
0001
0010
0001
1000
0000
0000
1000
0000
0000
0110
0000
0000
1000
0000
,
0010
0100
0000
0010
0000
0100
0000
0000
0001
0000
0000
0010
0000
0010
0100
0000
,
1000
0010
0000
0100
0000
0100
0001
0100
0001
0000
0001
0010
0000
0100
1000
0000
,
0001
0010
0001
0010
0001
1000
0000
0000
1000
0000
0000
0010
0000
1000
0010
0000
,
1000
0100
1000
0100
1000
0001
0000
0000
0001
0000
0000
0100
0000
0000
0001
0000
,
0100
0010
0000
0100
0000
0010
0000
0000
1000
0000
0000
0100
0000
0100
0010
0000
,
0002
0000
0000
0023
0000
0000
0130
0000
2000
0000
0000
3020
0000
0000
0130
0000
,
0001
0000
0010
0000
0001
0010
0000
0100
0000
0100
1000
0100
1000
0000
0001
0000
,
1000
0000
0010
0000
1000
0010
0000
0100
0000
0100
0001
0100
0001
0000
1000
0000
,
0001
0000
0100
0000
0001
0100
0000
0010
0000
0010
1000
0010
1000
0000
0001
0000
,
1000
0000
0100
0000
0010
0001
0000
1000
0000
0000
0000
0001
0010
0000
0100
0000
,
1000
0000
0100
0000
1000
0100
0000
0010
0000
0010
0001
0010
0001
0000
1000
0000
,
0001
0000
0100
0000
0001
0100
0000
0010
0000
0010
1000
0010
1000
0000
0001
0000
,
1000
0000
0010
0000
1000
0010
0000
0100
0000
0100
0001
0100
0001
0000
1000
0000
,
0001
0000
0010
0000
0100
1000
0000
0001
0000
0000
0000
0001
1000
0000
0010
0000
,
0200
0000
0000
0300
;

//---------------dance-single - ----------------
#NOTES:
     dance-single:
     :
     Medium:
     12:
     0.489261,0.511641,0.000000,0.074996,0.516641,411.000000,411.000000,0.000000,9.000000,0.000000,0.000000,0.489261,0.511641,0.000000,0.074996,0.516641,411.000000,411.000000,0.000000,9.000000,0.000000,0.000000:
0000
0000
0000
0000
,
0000
0000
0000
0000
,
0000
0000
0000
0000
,
0000
0000
0000
0000
,
0010
0000
0000
0000
0000
0000
0000
1000
0000
0000
0001
0000
0010
0000
0000
0000
,
0010
0000
0000
0000
0000
0000
0000
0001
0000
0000
1000
0000
0010
0000
0000
0000
,
0010
0000
0000
0000
0000
0000
0000
0100
0000
0000
0001
0000
0010
0000
0000
0000
,
0200
0000
0000
2000
0000
0000
0000
3300
,
0010
0000
0100
0000
0001
0100
0000
0001
0000
0000
0000
0000
1000
0000
0001
0000
,
1000
0000
0100
0000
1000
0010
0000
1000
0000
0000
0000
0000
0010
0000
0100
0000
,
0001
0000
0100
0000
0010
1000
0000
0010
0000
0000
0000
0000
1000
0000
0100
0000
,
0010
0000
0001
0000
0010
0100
0000
0010
0000
0000
0000
0000
0001
0000
0001
0000
,
0100
0000
0010
0000
1000
0010
0000
1000
0000
0000
0000
0000
0001
0000
0010
0000
,
0100
0000
1000
0000
0100
1000
0000
0100
0000
0000
0000
0000
0010
0000
0001
0000
,
0100
0000
0001
0000
0010
0001
0000
0010
0000
0000
0000
0000
0100
0000
1000
0000
,
0010
0100
0001
1000
0100
0010
0001
1000
,
0001
0000
0010
0000
0001
0010
0000
0100
0000
0000
0000
0000
0010
0000
0100
0000
,
1000
0000
0100
0000
1000
0100
0000
0010
0000
0000
0000
0000
0001
0000
1000
0000
,
0001
0000
0100
0000
0001
0100
0000
0010
0000
0000
0000
0000
0100
0000
0010
0000
,
1000
0000
0001
0000
1000
0001
0000
0100
0000
0000
0000
0000
0010
0000
0100
0000
,
0010
0000
1000
0000
0010
1000
0000
0001
0000
0000
0000
0000
0100
0000
0010
0000
,
0100
0000
0001
0000
0100
0001
0000
1000
0000
0000
0000
0000
0010
0000
1000
0000
,
0100
0000
0010
0000
0100
0010
0000
0001
0000
0000
0000
0000
1000
0000
0001
0000
,
0100
0000
0100
0001
0000
1000
0000
0001
0100
0000
0000
0000
0010
0000
0100
0000
,
0002
0000
0000
0010
0000
0000
0000
0000
,
0000
0000
0000
0000
0000
0100
0000
0000
,
1000
0000
0000
1000
0000
0000
0000
0000
,
0010
0000
0000
0010
0000
0000
0000
0000
,
2003
0000
0000
0010
0000
0000
0000
0000
,
0000
0000
0000
0000
0000
0100
0000
0000
,
0001
0000
0000
0001
0000
0000
0000
0000
,
0010
0000
0000
0010
0000
0000
3000
0000
,
0020
0000
0000
1000
0000
0000
0130
0000
0010
0000
0000
1000
0000
0000
0100
0000
,
0020
0000
0000
0001
0000
0000
0130
0000
0010
0000
0000
0001
0000
0000
0100
0000
,
0010
0000
0000
0100
0000
0000
0000
0000
0100
0000
0000
0010
0000
0000
1000
0000
,
0010
0000
0000
0010
0000
0000
0000
0000
0100
0000
0000
0001
0000
0000
1000
0000
,
0002
0000
0000
0100
0000
0000
0013
0000
0001
0000
0000
0100
0000
0000
0010
0000
,
2000
0000
0000
0100
0000
0000
3010
0000
1000
0000
0000
0100
0000
0000
0010
0000
,
0001
0000
0000
0001
0000
0000
0000
0000
0100
0000
0000
0010
0000
0000
1000
0000
,
0001
0000
0000
0001
0000
0000
0010
0000
0100
0000
1000
0000
0000
0000
0010
0000
,
0100
0000
0000
0001
0000
0000
0100
0000
0010
0000
0000
1000
0000
0000
0010
0000
,
1000
0000
0000
0100
0000
0000
1000
0000
0010
0000
0000
0010
0000
0000
0100
0000
,
0001
0010
0000
0001
0000
0000
0000
0000
0001
0000
0000
0010
0000
0000
0001
0000
,
1000
0100
0000
1000
0000
0000
0000
0000
0010
0000
0000
0000
0100
0000
0000
0000
,
0010
0000
0000
1000
0000
0000
0010
0000
0100
0000
0000
0001
0000
0000
0100
0000
,
0001
0000
0000
0010
0000
0000
0001
0000
0100
0000
0000
0100
0000
0000
0010
0000
,
1000
0100
0000
1000
0000
0000
0000
0000
1000
0000
0000
0100
0000
0000
1000
0000
,
0001
0010
0000
0001
0000
0000
0000
0000
0100
0000
0010
0000
1000
0000
0000
0000
,
0001
0001
0001
0001
0010
0000
0000
0000
,
1000
1000
1000
1000
0010
0000
0000
0000
,
0100
0000
0000
0100
0001
0000
0000
0001
1000
0000
0010
0000
1000
0000
0010
0000
,
0100
0000
0000
0000
,
0001
0000
0000
0010
0000
0000
0100
0000
0010
0000
0000
0010
0000
0000
0100
0000
,
1000
0000
0000
0010
0000
0000
0100
0000
0010
0000
0000
0010
0000
0000
0100
0000
,
0001
0010
0000
0001
0000
0000
0000
0000
0100
0000
0000
0010
0000
0000
1000
0000
,
0010
1000
0000
0010
0000
0000
0000
0000
1000
0000
0100
0000
0010
0000
0001
0000
,
1000
0000
0000
0100
0000
0000
0010
0000
0100
0000
0000
0100
0000
0000
0010
0000
,
0001
0000
0000
0100
0000
0000
0010
0000
0100
0000
0000
0100
0000
0000
0010
0000
,
1000
0100
0000
1000
0000
0000
0000
0000
0010
0000
0000
0100
0000
0000
0001
0000
,
0100
0001
0000
0100
0000
0000
0000
0000
0001
0000
0010
0000
0100
0000
0100
0000
,
1000
0000
0000
0010
0000
0000
0100
0000
0001
0000
0000
0010
0000
0000
0100
0000
,
1000
0000
0000
0100
0000
0000
0001
0000
0100
0000
0000
1000
0000
0000
0100
0000
,
1000
0010
0000
0100
0000
0000
0000
0000
0001
0000
0000
0001
0000
0000
0000
0000
,
0001
0010
0000
0100
0000
0000
0000
0000
1000
0000
0010
0000
0100
0000
0000
0000
,
0001
0000
0000
0100
0000
0000
0010
0000
1000
0000
0000
0100
0000
0000
0010
0000
,
0001
0000
0000
0100
0000
0000
1000
0000
0100
0000
0000
0001
0000
0000
0100
0000
,
0001
0100
0000
0010
0000
1000
0000
0000
0010
0000
0000
1000
0000
0000
0001
0000
,
1000
0100
0000
0010
0000
0000
0000
0000
0001
0000
0100
0000
0010
0000
1000
0000
,
0001
0000
0010
0000
0001
0010
0000
0001
0000
0000
0000
0000
0100
0000
0010
0000
,
1000
0000
0010
0000
1000
0010
0000
1000
0000
0000
0000
0000
0010
0000
0100
0000
,
0001
0000
0010
0000
0001
0010
0000
0001
0000
0000
0000
0000
0100
0000
0010
0000
,
1000
0000
0100
0000
0010
0001
0000
0010
0000
0000
0000
0001
0010
0000
0100
0000
,
1000
0000
0100
0000
1000
0100
0000
1000
0000
0000
0000
0000
0100
0000
0010
0000
,
0001
0000
0100
0000
0001
0100
0000
0001
0000
0000
0000
0000
0100
0000
0010
0000
,
1000
0000
0100
0000
1000
0100
0000
1000
0000
0000
0000
0000
0100
0000
0010
0000
,
0001
0000
0100
0000
0010
1000
0000
0010
0000
0000
0000
0100
0001
0000
0100
0000
,
0002
0000
0000
0003
;

//---------------dance-single - ----------------
#NOTES:
     dance-single:
     :
     Easy:
     7:
     0.355935,0.415708,0.008333,0.174991,0.012499,299.000000,298.000000,1.000000,21.000000,0.000000,0.000000,0.355935,0.415708,0.008333,0.174991,0.012499,299.000000,298.000000,1.000000,21.000000,0.000000,0.000000:
0000
0000
0000
0000
,
0000
0000
0000
0000
,
0000
0000
0000
0000
,
0000
0000
0000
0000
,
0010
0000
0000
0000
0000
0000
0000
1000
0000
0000
0001
0000
0100
0000
0000
0000
,
0100
0000
0000
0000
0000
0000
0000
0001
0000
0000
1000
0000
0010
0000
0000
0000
,
0010
0000
0000
0000
0000
0000
0000
1000
0000
0000
0001
0000
0100
0000
0000
0000
,
0200
0000
0000
0020
0000
0000
0000
0330
,
0010
0000
1000
0100
0010
0000
0100
0000
,
1000
0000
0001
0010
0100
0000
0010
0000
,
0001
0000
0100
0010
1000
0000
0010
0000
,
0100
0000
0001
1000
0020
0000
1000
0000
,
0130
0000
0001
0010
0100
0000
1000
0000
,
0001
0000
1000
0100
0010
0000
0001
0000
,
1000
0000
0010
0100
0001
0000
1000
0000
,
2002
0000
0000
3003
,
0001
0010
0001
0100
0001
0000
0000
0000
,
1000
0010
1000
0100
1000
0000
0000
0000
,
0010
0100
0010
1000
0010
0000
0000
0000
,
0100
0010
0100
0001
0100
0000
0001
0000
,
0010
0100
1000
0100
0010
0000
0000
0000
,
0001
0010
0100
0010
0001
0000
0000
0000
,
1000
0010
0100
0010
1000
0000
0000
0000
,
0001
1000
0001
1000
0000
0000
0010
0100
,
0020
0000
0000
1000
0000
0000
0000
0000
,
0000
0000
0000
0000
0000
0230
0000
0000
,
0320
0000
0000
1000
0000
0000
0000
0000
,
0130
0000
0000
0100
0000
0000
0000
0000
,
0200
0000
0000
0001
0000
0000
0000
0000
,
0000
0000
0000
0000
0000
0320
0000
0000
,
0230
0000
0000
0001
0000
0000
0000
0000
,
0310
0000
0000
0010
0000
0000
0000
0000
,
2000
0000
0000
0000
3001
0010
0100
1000
,
0002
0000
0013
0000
,
0002
0000
0000
0000
0103
0010
1000
0100
,
0010
0000
0000
0100
1000
0000
0001
0000
,
0002
0000
0000
0000
1003
0100
0010
0001
,
2000
0000
3100
0000
,
0020
0000
0000
0000
0130
0010
0001
0010
,
0100
0000
0000
1000
0001
0000
0100
0000
,
0010
0000
0000
0010
1000
0000
0001
0000
,
1000
0000
0000
1000
0100
0000
0000
0000
,
0010
0001
0010
0000
0001
0000
0100
0010
,
0100
0000
0010
1000
0010
0100
0001
0000
,
0100
0000
0000
0100
0001
0000
1000
0000
,
0001
0000
0000
0001
0010
0000
0000
0000
,
0100
1000
0100
0000
1000
0000
0010
0100
,
0010
0000
0100
0001
0100
0010
1000
0000
,
0002
0000
0000
0000
0013
0100
1000
0100
,
0020
0000
0000
0000
0130
1000
0010
0100
,
0001
0001
1000
1000
,
0001
0000
0000
0000
,
1000
0100
0010
0000
0001
0000
0000
0000
,
1000
0100
0010
0000
0001
0000
0000
0000
,
0001
1000
0010
0100
,
0001
1000
0010
0100
0001
0000
0000
0000
,
0001
0010
0100
0000
1000
0000
0000
0000
,
0001
0010
0100
0000
1000
0000
0000
0000
,
0001
1000
0010
0100
,
0010
0100
0001
1000
0010
0000
0000
0000
,
1000
0100
0010
0000
0001
0000
1000
0000
,
0001
0010
0100
0000
1000
0000
0001
0000
,
1000
0010
0100
0001
,
0001
0010
0100
1000
0001
0000
1000
0000
,
0001
0010
0100
0000
1000
0000
0001
0000
,
1000
0100
0010
0000
0001
0000
1000
0000
,
0010
0100
0001
0000
0100
0000
0010
0000
,
2000
0000
0000
0000
,
3001
0100
0001
0000
0001
0000
0000
0000
,
1000
0100
1000
0000
1000
0000
0000
0000
,
0010
0100
0010
0000
0010
0000
0000
0000
,
1000
0100
0010
0001
0000
0000
0001
1000
,
0001
0100
0001
0000
0001
0000
0000
0000
,
1000
0010
1000
0000
1000
0000
0000
0000
,
0100
0010
0100
0000
0100
0000
0000
0000
,
1000
0001
0100
0010
0000
0000
0100
0010
,
0200
0000
0000
0300
;

//---------------dance-single - ----------------
#NOTES:
     dance-single:
     :
     Beginner:
     2:
     0.117851,0.159888,0.000000,0.083329,0.000000,99.000000,99.000000,0.000000,10.000000,0.000000,0.000000,0.117851,0.159888,0.000000,0.083329,0.000000,99.000000,99.000000,0.000000,10.000000,0.000000,0.000000:
0000
0000
0000
0000
,
0000
0000
0000
0000
,
0000
0000
0000
0000
,
0000
0000
0000
0000
,
1000
0000
0000
0000
,
0010
0000
0000
0000
,
0100
0000
0000
0000
,
0002
0000
0000
0003
,
0001
0000
0000
1000
,
1000
0000
0000
0000
,
0010
0000
0000
0100
,
0100
0000
0000
0001
,
0001
0000
0000
0010
,
0010
0000
0000
0000
,
0100
0000
0000
0000
,
2000
0000
0000
3000
,
1000
0000
0000
0010
,
0010
0000
0000
0000
,
0100
0000
0000
0001
,
0001
0000
0000
0000
,
1000
0000
0000
0001
,
0001
0000
0000
0000
,
0010
0000
0000
0100
,
0100
0000
0000
1000
,
2000
0000
0000
3000
,
0000
0000
0000
0000
,
2000
0000
3000
0000
,
0020
0000
0030
0000
,
0002
0000
0000
0003
,
0000
0000
0000
0000
,
0002
0000
0003
0000
,
0020
0000
0030
0000
,
1000
0000
0000
0000
,
0100
0000
0000
0000
,
0001
0000
0000
0000
,
0010
0000
1000
0000
,
0001
0000
0000
0000
,
0100
0000
0000
0000
,
1000
0000
0000
0000
,
0010
0000
0001
0000
,
1000
0000
0000
0000
,
1000
0000
0100
0000
,
0010
0000
0000
0000
,
0001
0000
1000
0000
,
0001
0000
0000
0000
,
0001
0000
0010
0000
,
0100
0000
0000
0000
,
1000
0000
0001
0000
,
1000
0000
0000
0000
,
0001
0000
0000
0000
,
1000
0000
0000
0000
,
0001
0000
0000
0000
,
0100
0000
0000
0010
,
0010
0000
0000
0000
,
0100
0000
0000
0010
,
0010
0000
0001
0000
,
1000
0000
0000
0001
,
0001
0000
0000
0000
,
1000
0000
0000
0001
,
0001
0000
0100
0000
,
0010
0000
0000
1000
,
1000
0000
0000
0000
,
0010
0000
0000
1000
,
1000
0000
0001
0000
,
0100
0000
0000
0001
,
0001
0000
0000
0000
,
0100
0000
0000
0001
,
0002
0000
0000
0003
,
0001
0000
0000
0000
,
0010
0000
0000
0000
,
0100
0000
0000
0000
,
1000
0000
0000
1000
,
1000
0000
0000
0000
,
0100
0000
0000
0000
,
0010
0000
0000
0000
,
0001
0000
0000
0001
,
0002
0000
0000
0003
;

//---------------dance-double - ----------------
#NOTES:
     dance-double:
     :
     Hard:
     14:
     0.579733,0.607574,0.024999,0.041665,0.741630,487.000000,484.000000,3.000000,5.000000,0.000000,0.000000,0.579733,0.607574,0.024999,0.041665,0.741630,487.000000,484.000000,3.000000,5.000000,0.000000,0.000000:
00000000
00000000
00000000
00000000
,
00000000
00000000
00000000
00000000
,
00000000
00000000
00000000
00000000
,
00000000
00000000
00000000
00000000
,
01100000
00000000
00000000
00000000
00000000
00000000
00000000
00001000
00000000
00000000
00010000
00000000
00001000
00000000
00000000
00000000
,
00000110
00000000
00000000
00000000
00000000
00000000
00000000
00010000
00000000
00000000
00001000
00000000
00010000
00000000
00000000
00000000
,
01100000
00000000
00000000
00000000
00000000
00000000
00000000
00010000
00000000
00000000
00001000
00000000
00010000
00000000
00000000
00000000
,
00002000
00000000
00000000
00003200
00000000
00000000
00000000
00000000
,
00000301
00000000
00001000
00000000
00000001
00000100
00000000
00000001
00000000
00000000
00000000
00000000
00001000
00000000
00000010
00000000
,
00000100
00000000
00000001
00000000
00000010
00000100
00000000
00000010
00000000
00000000
00000000
00000000
00000001
00000000
00000100
00000000
,
00001000
00000000
00010000
00000000
01000000
10000000
00000000
01000000
00000000
00000000
00000000
00000000
10000000
00000000
00100000
00000000
,
01000000
00000000
00010000
00000000
00100000
01000000
00000000
00100000
00000000
00000000
00000000
00010000
10000000
00000000
00010000
00000000
,
10000000
00000000
01000000
00000000
00100000
00010000
00000000
00100000
00000000
00000000
00000000
00000000
01000000
00000000
10000000
00000000
,
00010000
00000000
01000000
00000000
00100000
10000000
00000000
00100000
00000000
00000000
00000000
00000000
10000000
00000000
01000000
00000000
,
00010000
00000000
00001000
00000000
00000100
00000001
00000000
00000100
00000000
00000000
00000000
00000000
00000001
00000000
00001000
00000000
,
00000001
00000000
00000010
00000000
00001000
00010000
00000000
00001000
00000000
01000000
00000000
00100000
10000000
00000000
00010000
00000000
,
10000000
00000000
01000000
00000000
00100000
01000000
00000000
10000000
00000000
01000000
00100000
00000000
00010000
00000000
01000000
00000000
,
00010000
00000000
00100000
00000000
00001000
00010000
00000000
00000100
00000000
00010000
00001000
00000000
00000010
00000000
00000001
00000000
,
00000100
00000000
00000010
00000000
00001000
00000010
00000000
00000100
00000000
00000010
00001000
00000000
00000001
00000000
00000010
00000000
,
00000100
00000000
00000010
00000000
00000001
00000010
00000000
00001000
00000000
00010000
00100000
00000000
10000000
00000000
01000000
00000000
,
10000000
00000000
00100000
00000000
01000000
00010000
00000000
10000000
00000000
00010000
01000000
00000000
00100000
00000000
10000000
00000000
,
00010000
00000000
01000000
00000000
00100000
00010000
00000000
00001000
00000000
00000100
00000001
00000000
00001000
00000000
00000010
00000000
,
00000100
00000000
00000001
00000000
00000100
00000010
00000000
00001000
00000000
00000010
00000100
00000000
00000001
00000000
00001000
00000000
,
00000010
00000000
00000010
00001000
00000000
00000001
00000000
00001000
00000010
00000000
00000000
00000010
00000100
00000000
00000010
00000000
,
00000100
00000000
00000000
00001000
00000000
00000000
00000000
00000000
,
00000000
00000000
00000000
00000000
00000000
00010000
00000000
00000000
,
01000000
00000000
00000000
10000000
00000000
00000000
00000000
00000000
,
00100000
00000000
00000000
00001000
00000000
00000000
00000000
00000000
,
00000010
00000000
00000000
00000001
00000000
00000000
00000000
00000000
,
00000000
00000000
00000000
00000000
00000000
00000100
00000000
00000000
,
00001000
00000000
00000000
01000000
00000000
00000000
00000000
00000000
,
00010000
00000000
00000000
00000010
00000000
00000000
00000000
00000000
,
00000001
00001000
00000000
00000001
00000000
00000100
00000000
00000000
00000010
00000000
00000000
00000000
00000000
00000000
00000000
00000000
,
00000001
00001000
00000000
00000001
00000000
00000100
00000000
00000000
00001000
00000000
00000000
00010000
00000000
00000000
01000000
00000000
,
10000000
00100000
00000000
01000000
00000000
00100000
00000000
00000000
10000000
00000000
00000000
00010000
00000000
00000000
10000000
00000000
,
00010000
00100000
00000000
01000000
00000000
00100000
00010000
00000000
10000000
00000000
00010000
00000000
00000000
00000000
10000000
00000000
,
00100000
01000000
00000000
00010000
00000000
01000000
00000000
00000000
00100000
00000000
00000000
00000000
00000000
00000000
00000000
00000000
,
00100000
01000000
00000000
00010000
00000000
01000000
00000000
00000000
00100000
00000000
00000000
00010000
00000000
00000000
00001000
00000000
,
00000010
00000001
00000000
00001000
00000000
00000001
00000000
00000000
00000010
00000000
00000000
00000100
00000000
00000000
00000010
00000000
,
00000001
00000100
00000000
00000010
00000000
00000000
00000100
00000000
00000001
00000000
00001000
00000000
00000010
00000000
00000000
00000000
,
00000100
00001000
00000000
00010000
00000000
01000000
00000000
00000000
10000000
00000000
00000000
00010000
00000000
00000000
10000000
00000000
,
01000000
00010000
00000000
00001000
00000000
00000100
00000000
00000000
00000001
00000000
00000000
00000010
00000000
00000000
00000001
00000000
,
00000100
00000010
00000000
00000100
00000000
00000010
00000000
00000000
00000100
00000000
00000000
00001000
00000000
00000000
00010000
00000000
,
01000000
10000000
00000000
01000000
00000000
00000000
10000000
00000000
01000000
00000000
00100000
00000000
00010000
00000000
10000000
00000000
,
01000000
00010000
00000000
00001000
00000000
00000100
00000000
00000000
00000001
00000000
00000000
00001000
00000000
00000000
00000001
00000000
,
00000100
00001000
00000000
00010000
00000000
01000000
00000000
00000000
10000000
00000000
00000000
00100000
00000000
00000000
10000000
00000000
,
00010000
01000000
00000000
00100000
00000000
01000000
00000000
00000000
00100000
00000000
00000000
00010000
00000000
00000000
00001000
00000000
,
00000010
00000001
00000000
00000010
00000000
00000000
00000001
00000000
00001000
00000000
00000010
00000000
00000100
00000000
00000010
00000000
,
00001000
00000000
00001000
00000000
00000100
00000000
00000010
00000000
00001000
00000000
00000000
00010000
00000000
00000000
00100000
00000000
,
10000000
00000000
10000000
00000000
00010000
00000000
01000000
00000000
00100000
00000000
00000000
00010000
00000000
00000000
00001000
00000000
,
00000010
00000000
00000001
00000000
00000100
00001000
00010000
01000000
,
20000000
00000000
00000000
30010000
10000000
00010000
20000000
00000000
00000000
00000000
00000000
00000000
,
30100000
01000000
00000000
00010000
00000000
01000000
00000000
00000000
00100000
00000000
00000000
10000000
00000000
00000000
00100000
00000000
,
01000000
00010000
00000000
00100000
00000000
00010000
00000000
00000000
01000000
00000000
00000000
00100000
00000000
00000000
00010000
00000000
,
00001000
00000010
00000000
00000001
00000000
00000010
00000000
00000000
00000001
00000000
00000000
00000100
00000000
00000100
00000010
00000000
,
00000100
00001000
00000000
00010000
00000000
01000000
10000000
00000000
00100000
00000000
00010000
00000000
00001000
00000000
00000010
00000000
,
00000100
00000010
00000000
00000001
00000000
00000010
00000000
00000000
00000001
00000000
00000000
00001000
00000000
00000000
00000001
00000000
,
00001000
00000001
00000000
00000010
00000000
00000001
00000000
00000000
00000100
00000000
00000000
00001000
00000000
00000000
00010000
00000000
,
01000000
10000000
00000000
01000000
00000000
10000000
00000000
00000000
10000000
00000000
00000000
00100000
00000000
00100000
01000000
00000000
,
00100000
00010000
00000000
00001000
00000000
00000010
00000001
00000000
00000100
00000000
00001000
00000000
00010000
00000000
01000000
00000000
,
10000000
00010000
10000000
00010000
10000000
00000000
00000000
00000000
00100000
00000000
00000000
01000000
00000000
00000000
00100000
00000000
,
10000000
00010000
10000000
00010000
10000000
00000000
00000000
00000000
00100000
00000000
00000000
00010000
00000000
00000000
00001000
00000000
,
00000010
00000001
00000000
00000010
00000000
00000001
00000000
00000000
00001000
00000000
00000000
00000001
00000000
00000000
00001000
00000000
,
00000001
00000100
00000000
00000001
00000000
00000000
00000100
00000000
00000010
00000000
00001000
00000000
00000001
00000000
00001000
00000000
,
00000001
00000100
00000001
00000100
00000001
00000000
00000000
00000000
00000010
00000000
00000000
00000100
00000000
00000000
00000010
00000000
,
00000001
00000100
00000001
00000100
00000001
00000000
00000000
00000000
00000100
00000000
00000000
00001000
00000000
00000000
00010000
00000000
,
01000000
10000000
00000000
01000000
00000000
10000000
00000000
00000000
00100000
00000000
00000000
00100000
00000000
00000000
00100000
00000000
,
10000000
01000000
00010000
00001000
00010000
00001000
00000010
00000001
,
00001000
00000000
00000100
00000000
00000010
00000001
00000000
00000010
00000000
00000000
00000001
00000000
00001000
00000000
00000001
00000000
,
00000100
00000000
00001000
00000000
00010000
01000000
00000000
10000000
00000000
00000000
00100000
00000000
10000000
00000000
00100000
00000000
,
10000000
00000000
01000000
00000000
00010000
00001000
00000000
00000010
00000000
00000000
00000001
00000000
00000100
00000000
00000001
00000000
,
00000010
00000000
00001000
00000000
00010000
00100000
00000000
10000000
00000000
00000000
00000000
10000000
00010000
00000000
10000000
00000000
,
00100000
00000000
01000000
00000000
00100000
00010000
00000000
00001000
00000000
00000000
00000010
00000000
00000001
00000000
00000010
00000000
,
00000001
00000000
00000100
00000000
00001000
00010000
00000000
00001000
00000000
00000000
00010000
00000000
00100000
00000000
10000000
00000000
,
01000000
00000000
00010000
00000000
00001000
00000010
00000000
00000001
00000000
00000000
00001000
00000000
00000010
00000000
00000100
00000000
,
00001000
00000000
00010000
00000000
01000000
10000000
00000000
01000000
00000000
00000000
00000000
10000000
01000000
00000000
00100000
00000000
,
00020000
00000000
00000000
00030000
;

//---------------dance-double - ----------------
#NOTES:
     dance-double:
     :
     Medium:
     12:
     0.480928,0.543619,0.000000,0.066663,0.491642,404.000000,404.000000,0.000000,8.000000,0.000000,0.000000,0.480928,0.543619,0.000000,0.066663,0.491642,404.000000,404.000000,0.000000,8.000000,0.000000,0.000000:
00000000
00000000
00000000
00000000
,
00000000
00000000
00000000
00000000
,
00000000
00000000
00000000
00000000
,
00000000
00000000
00000000
00000000
,
10000000
00000000
00000000
00000000
00000000
00000000
00000000
01000000
00000000
00000000
00100000
00000000
00001000
00000000
00000000
00000000
,
00010000
00000000
00000000
00000000
00000000
00000000
00000000
00000100
00000000
00000000
00000010
00000000
00000001
00000000
00000000
00000000
,
00000100
00000000
00000000
00000000
00000000
00000000
00000000
00000010
00000000
00000000
00010000
00000000
00001000
00000000
00000000
00000000
,
00200000
00000000
00000000
02000000
00000000
00000000
00000000
03300000
,
10000000
01000000
00100000
00010000
00000000
00010000
10000000
00010000
,
01000000
00100000
00010000
00001000
00000000
00000010
00000001
00000010
,
00000100
00010000
00001000
00100000
00000000
01000000
10000000
01000000
,
10000000
00100000
00010000
00001000
00000000
00000010
00000001
00000010
,
00000001
00000100
00000010
00001000
00000000
00001000
00000001
00001000
,
00000010
00000100
00001000
00010000
00000000
01000000
10000000
01000000
,
00100000
00001000
00010000
00000100
00000000
00000010
00000001
00000010
,
00000001
00000100
00001000
00000100
00001000
00010000
01000000
10000000
,
00100000
00000000
10000000
00000000
00100000
01000000
00000000
00100000
00000000
00000000
00000000
00000000
00000000
00000000
00000000
00000000
,
10000000
00000000
01000000
00000000
00100000
00001000
00000000
00010000
00000000
00000000
00000000
00000000
00001000
00000000
00010000
00000000
,
00000010
00000000
00000100
00000000
00000001
00000010
00000000
00000001
00000000
00000000
00000000
00000000
00000000
00000000
00000000
00000000
,
00000100
00000000
00000010
00000000
00010000
00001000
00000000
00010000
00000000
00000000
00000000
00000000
00001000
00000000
00100000
00000000
,
01000000
00000000
10000000
00000000
01000000
00100000
00000000
01000000
00000000
00000000
00000000
00000000
00000000
00000000
00000000
00000000
,
00100000
00000000
00010000
00000000
01000000
00001000
00000000
01000000
00000000
00000000
00000000
00000000
00001000
00000000
00010000
00000000
,
00000010
00000000
00000100
00000000
00000001
00001000
00000000
00000001
00000000
00000000
00000000
00000000
00000100
00000000
00001000
00000000
,
00010000
00000000
01000000
10000000
00000000
01000000
00000000
10000000
01000000
00000000
00000000
10000000
00010000
00000000
10000000
00000000
,
00100000
00000000
00000000
00010000
00000000
00000000
00000000
00000000
,
00000000
00000000
00000000
00001000
00000000
00000000
00000000
00000000
,
00000010
00000000
00000000
00000001
00000000
00000000
00000000
00000000
,
00000001
00000000
00000000
00000010
00000000
00000000
00000000
00000000
,
00001000
00000000
00000000
00010000
00000000
00000000
00000000
00000000
,
00000000
00000000
00000000
00000000
00000000
01000000
00000000
00000000
,
10000000
00000000
00000000
00100000
00000000
00000000
00000000
00000000
,
00100000
00000000
00000000
10000000
00000000
00000000
00000000
00000000
,
00010000
01000000
00000000
00100000
00000000
10000000
00000000
00000000
00010000
00000000
00000000
00000000
00000000
00000000
00000000
00000000
,
00010000
01000000
00000000
00100000
00000000
10000000
00000000
00000000
00020000
00000000
00000000
00000000
00000000
00000000
00000000
00000000
,
10030000
01000000
00000000
00100000
00000000
00001000
00000000
00000000
00010000
00000000
00000000
00000100
00000000
00000000
00000000
00000000
,
00001000
00000100
00000000
00000010
00000000
00000000
00000000
00000000
00000001
00000000
00001000
00000000
00000001
00000000
00000000
00000000
,
00001000
00000010
00000000
00000100
00000000
00000001
00000000
00000000
00001000
00000000
00000000
00000000
00000000
00000000
00000000
00000000
,
00001000
00000010
00000000
00000100
00000000
00000001
00000000
00000000
00002000
00000000
00000000
00000000
00000000
00000000
00000000
00000000
,
00003001
00000010
00000000
00000100
00000000
00010000
00000000
00000000
00001000
00000000
00000000
00100000
00000000
00000000
00000000
00000000
,
00010000
00100000
00000000
01000000
00000000
00000000
00000000
00000000
10000000
00000000
00010000
00000000
10000000
00000000
00100000
00000000
,
10000000
01000000
00000000
00100000
00000000
01000000
00000000
00000000
10000000
00000000
00000000
00000000
00000000
00000000
00000000
00000000
,
10000000
01000000
00000000
00100000
00000000
01000000
00000000
00000000
00010000
00000000
00000000
00001000
00000000
00000000
00000100
00000000
,
00000001
00001000
00000000
00000010
00000000
00001000
00000000
00000000
00000001
00000000
00000000
00001000
00000000
00000000
00000010
00000000
,
00001000
00000001
00000000
00000010
00000000
00000000
00000000
00000000
00000001
00000000
00000100
00000000
00000010
00000000
00001000
00000000
,
00000001
00000010
00000000
00000100
00000000
00000010
00000000
00000000
00000001
00000000
00000000
00000000
00000000
00000000
00000000
00000000
,
00000001
00000010
00000000
00000100
00000000
00000010
00000000
00000000
00001000
00000000
00000000
00010000
00000000
00000000
00100000
00000000
,
10000000
00010000
00000000
01000000
00000000
00010000
00000000
00000000
10000000
00000000
00000000
00010000
00000000
00000000
01000000
00000000
,
00010000
10000000
00000000
01000000
00000000
00000000
00000000
00000000
10000000
00000000
00100000
00000000
01000000
00000000
00010000
00000000
,
10000000
00010000
10000000
00010000
01000000
00000000
00000000
00000000
,
00010000
10000000
00010000
10000000
01000000
00000000
00000000
00000000
,
00010000
00000000
00001000
00000000
00000100
00000001
00000100
00000001
,
00000100
00000000
00000000
00000000
,
00000001
00000100
00000000
00000001
00000000
00000100
00000000
00000000
00000010
00000000
00000000
00000000
00000000
00000000
00000000
00000000
,
00000001
00000100
00000000
00000001
00000000
00000100
00000000
00000000
00000020
00000000
00000000
00000000
00000000
00000000
00000000
00000000
,
00010030
00001000
00000000
00010000
00000000
00001000
00000000
00000000
01000000
00000000
00000000
00100000
00000000
00000000
01000000
00000000
,
00010000
00000000
00000000
10000000
00000000
00000000
00010000
00000000
01000000
00000000
00100000
00000000
10000000
00000000
00000000
00000000
,
10000000
00100000
00000000
10000000
00000000
00100000
00000000
00000000
01000000
00000000
00000000
00000000
00000000
00000000
00000000
00000000
,
10000000
00100000
00000000
10000000
00000000
00100000
00000000
00000000
02000000
00000000
00000000
00000000
00000000
00000000
00000000
00000000
,
03001000
00010000
00000000
00001000
00000000
00010000
00000000
00000000
00000010
00000000
00000000
00000100
00000000
00000000
00000010
00000000
,
00001000
00000000
00000000
00000001
00000000
00000000
00001000
00000000
00000010
00000000
00000100
00000000
00000001
00000000
00000000
00000000
,
00001000
00000000
00000100
00000000
00001000
00000000
00000010
00000000
00001000
00000000
00000000
00000100
00000000
00000000
00001000
00000000
,
00000010
00000000
00000100
00000000
00001000
00000000
00010000
00000000
01000000
00000000
00000000
10000000
00000000
00000000
01000000
00000000
,
10000000
00000000
00000000
00100000
00000000
00000000
10000000
00000000
00010000
00000000
00000000
00010000
00000000
00000000
00010000
00000000
,
10000000
00000000
00000000
00100000
00000000
00000000
10000000
00000000
01000000
00000000
00100000
00000000
00010000
00000000
00000000
00000000
,
00010000
00000000
00100000
00000000
00010000
00000000
01000000
00000000
00010000
00000000
00000000
00100000
00000000
00000000
00010000
00000000
,
01000000
00000000
00100000
00000000
00010000
00000000
00001000
00000000
00000010
00000000
00000000
00000001
00000000
00000000
00000010
00000000
,
00000001
00000000
00000000
00000100
00000000
00000000
00000001
00000000
00001000
00000000
00000000
00001000
00000000
00000000
00001000
00000000
,
00000002
00000000
00000000
00000000
00000103
00001000
00010000
01000000
,
10000000
00000000
00100000
00000000
10000000
00100000
00000000
10000000
00000000
00000000
00000000
00000000
00010000
00000000
00000000
00000000
,
10000000
00000000
00100000
00000000
10000000
00100000
00000000
10000000
00000000
00000000
00000000
00000000
10000000
00000000
01000000
00000000
,
00100000
00000000
00001000
00000000
00010000
00001000
00000000
00010000
00000000
00000000
00000000
00000000
00000010
00000000
00000100
00000000
,
00000010
00000000
00001000
00000000
00000010
00000100
00000000
00000010
00000000
00000000
00001000
00000000
00000001
00000000
00001000
00000000
,
00000001
00000000
00000010
00000000
00000001
00000010
00000000
00000001
00000000
00000000
00000000
00000000
00001000
00000000
00000000
00000000
,
00000001
00000000
00000010
00000000
00000001
00000010
00000000
00000001
00000000
00000000
00000000
00000000
00000001
00000000
00000010
00000000
,
00000100
00000000
00010000
00000000
00001000
00010000
00000000
00001000
00000000
00000000
00000000
00000000
01000000
00000000
00100000
00000000
,
01000000
00000000
00010000
00000000
01000000
00100000
00000000
01000000
00000000
00000000
00000000
00000000
00010000
00000000
10000000
00000000
,
00200000
00000000
00000000
00300000
;

//---------------dance-double - ----------------
#NOTES:
     dance-double:
     :
     Easy:
     7:
     0.333317,0.447686,0.008333,0.033332,0.000000,280.000000,279.000000,1.000000,4.000000,0.000000,0.000000,0.333317,0.447686,0.008333,0.033332,0.000000,280.000000,279.000000,1.000000,4.000000,0.000000,0.000000:
00000000
00000000
00000000
00000000
,
00000000
00000000
00000000
00000000
,
00000000
00000000
00000000
00000000
,
00000000
00000000
00000000
00000000
,
01000000
00000000
00000000
01000000
00000000
00000000
00000000
00000000
,
00000000
00000000
00000000
00000000
00000000
01000000
00000000
00000000
,
00001000
00000000
00000000
00010000
00000000
00000000
00000000
00000000
,
00000010
00000000
00000000
00000010
00000000
00000000
00000000
00000000
,
00000100
00000001
00001000
00000000
00000010
00000000
00010000
00000000
,
00001000
00100000
01000000
00000000
10000000
00000000
00100000
00000000
,
01000000
00001000
00010000
00000000
00000100
00000000
00001000
00000000
,
00000010
00000100
00000001
00000000
00000010
00000000
00000010
00000000
,
00000001
00000100
00000010
00000000
00010000
00000000
00001000
00000000
,
01000000
00100000
01000000
00000000
00010000
00000000
10000000
00000000
,
01000000
00100000
00001000
00000000
00010000
00000000
00000100
00000000
,
00000010
00000001
00001000
00000000
00000100
00010000
00001000
00000000
,
01000000
00100000
01000000
00010000
00000000
00000000
00000000
00000000
,
01000000
00100000
01000000
00010000
00000000
00000000
00000000
00000000
,
00100000
00001000
00100000
00010000
00000000
00000000
00000000
00000000
,
00100000
00001000
00010000
00000010
00000000
00000000
00000100
00000000
,
00000001
00000010
00000001
00000100
00000000
00000000
00000000
00000000
,
00000001
00000010
00000001
00000100
00000000
00000000
00000000
00000000
,
00000010
00010000
00000010
00001000
00000000
00000000
00000010
00010000
,
00001000
00100000
00000000
00000000
01000000
00000000
10000000
00000000
,
00100000
00000000
00000000
00100000
00000000
00000000
00000000
00000000
,
00000000
00000000
00000000
00000000
00000000
01000000
00000000
00000000
,
00001000
00000000
00000000
00010000
00000000
00000000
00000000
00000000
,
00000010
00000000
00000000
00000010
00000000
00000000
00000000
00000000
,
00000100
00000000
00000000
00000100
00000000
00000000
00000000
00000000
,
00000000
00000000
00000000
00000000
00000000
00000010
00000000
00000000
,
00010000
00000000
00000000
00001000
00000000
00000000
00000000
00000000
,
00100000
00000000
00000000
00100000
00000000
00000000
00000000
00000000
,
00010000
00000000
01000000
00000000
,
10000000
00000000
00100000
00000000
,
00010000
00001000
00000010
00000000
,
00000001
00000100
00001000
00010000
,
01000000
00000000
10000000
00000000
,
00100000
00000000
00010000
00000000
,
00001000
00000010
00000001
00000000
,
00000100
00001000
00010000
01000000
,
10000000
00000000
00010000
00000000
,
01000000
00010000
00100000
00000000
00001000
00000000
00000000
00000000
,
00010000
00000100
00001000
00000000
00000100
00000000
00000000
00000000
,
00000010
00000001
00000100
00000000
00000010
00000000
00000010
00000000
,
00000100
00000000
00000001
00000000
,
00000010
00000100
00010000
00000000
00001000
00000000
00000000
00000000
,
00100000
01000000
10000000
00000000
01000000
00100000
00010000
00000000
,
10000000
00010000
01000000
00000000
00100000
00000000
00100000
00000000
,
10000000
01000000
10000000
01000000
10000000
00000000
00000000
00000000
,
00010000
01000000
00010000
01000000
00010000
00000000
00000000
00000000
,
01000000
00100000
00010000
00001000
,
00000010
00000000
00000000
00000000
,
00000001
00000100
00000001
00001000
00000001
00000000
00000000
00000000
,
00000001
00000100
00000001
00001000
00000001
00000000
00000000
00000000
,
00000001
00000100
00001000
00010000
,
01000000
00000000
10000000
00000000
00010000
10000000
00010000
10000000
,
00010000
00100000
00010000
01000000
00010000
00000000
00000000
00000000
,
00010000
00100000
00010000
01000000
00010000
00000000
00000000
00000000
,
10000000
01000000
00010000
00001000
,
00000100
00000000
00000001
00000000
00001000
00000001
00001000
00000001
,
00000100
00000010
00000100
00000010
00000100
00000000
00000000
00000000
,
00000010
00000100
00000010
00000100
00000010
00000000
00000000
00000000
,
00000100
00001000
00010000
01000000
,
10000000
00000000
00010000
00000000
01000000
00100000
01000000
00100000
,
10000000
01000000
10000000
01000000
10000000
00000000
00000000
00000000
,
00010000
01000000
00010000
01000000
00010000
00000000
00000000
00000000
,
01000000
00100000
00010000
00001000
,
00000020
00000000
00000000
00000000
00000002
00000000
00000000
00000033
,
00000001
00000100
00000010
00000000
00000000
00000000
00001000
00000000
,
00000001
00000100
00000010
00000000
00000000
00000000
00001000
00000000
,
00000001
00000100
00000010
00000000
00010000
00000000
00001000
00000000
,
01000000
00100000
10000000
00010000
00000000
00000000
10000000
00000000
,
10000000
00100000
01000000
00000000
00010000
00000000
00000000
00000000
,
10000000
00100000
01000000
00000000
00010000
00000000
00000000
00000000
,
10000000
00100000
01000000
00000000
00001000
00000000
00010000
00000000
,
00000010
00000100
00000001
00001000
00000000
00000000
00000010
00000000
,
00000220
00000000
00000000
00000330
;
