#TITLE:Fire In My Heart;
#SUBTITLE:;
#ARTIST:96 & keiichi;
#TITLETRANSLIT:;
#SUBTITLETRANSLIT:;
#ARTISTTRANSLIT:;
#GENRE:Rock;
#CREDIT:;
#BANNER:fireinmyheart-bn.png;
#BACKGROUND:fireinmyheart-bg.png;
#LYRICSPATH:;
#CDTITLE:;
#MUSIC:Fire In My Heart.mp3;
#OFFSET:-0.055000;
#SAMPLESTART:47.985001;
#SAMPLELENGTH:11.999990;
#SELECTABLE:YES;
#BPMS:0.000000=240.000000
;
#STOPS:
;
#BGCHANGES:;
#KEYSOUNDS:;
#ATTACKS:;

//---------------dance-single - ----------------
#NOTES:
     dance-single:
     :
     Challenge:
     14:
     0.715594,0.820423,0.346483,0.148493,0.000000,506.000000,471.000000,35.000000,15.000000,0.000000,0.000000,0.715594,0.820423,0.346483,0.148493,0.000000,506.000000,471.000000,35.000000,15.000000,0.000000,0.000000:
// measure 0
0000
0000
0000
0000
,  // measure 1
0000
0000
0000
0110
,  // measure 2
1001
0000
0000
0000
,  // measure 3
0000
0000
0000
0110
,  // measure 4
0101
0000
0000
0000
,  // measure 5
0000
0000
0000
0000
,  // measure 6
0000
0000
0010
1000
0010
0100
0000
0000
,  // measure 7
0100
0010
1000
0100
0000
0010
0001
0010
,  // measure 8
0001
0010
0100
0010
0000
0011
0000
0000
,  // measure 9
1000
0100
0010
0001
1000
0000
0001
1000
,  // measure 10
0100
0000
0010
0100
0000
1100
0000
0000
,  // measure 11
0001
0010
0100
1000
0010
0000
1100
0000
,  // measure 12
0011
0000
1000
0100
0000
0110
0000
0000
,  // measure 13
0100
0010
0001
1000
0010
0000
0110
0000
,  // measure 14
0100
0000
0010
1000
0010
1000
0000
0100
,  // measure 15
0010
0001
0010
0001
0000
0010
0100
1000
,  // measure 16
0100
0000
1000
0000
0100
1000
0100
0000
,  // measure 17
1000
0000
0100
0000
1000
0100
1000
0000
,  // measure 18
0001
0000
0010
0000
0001
0010
0001
0000
,  // measure 19
0010
0000
0001
0000
0010
0001
0100
0010
,  // measure 20
1000
0000
0010
0000
1000
0010
1000
0000
,  // measure 21
0010
0000
1000
0000
0010
1000
0010
0000
,  // measure 22
1000
0100
0010
0001
1000
0010
0100
0001
,  // measure 23
1000
0100
0010
0001
1000
0010
0200
0000
,  // measure 24
0301
0000
0100
0000
0001
0010
0001
0000
,  // measure 25
0100
0000
0001
0000
0100
0010
0100
0000
,  // measure 26
0010
0000
1000
0000
0010
0100
0010
0000
,  // measure 27
1000
0000
0010
0000
1000
0100
1000
0001
,  // measure 28
0100
0000
0010
0000
0100
0001
0100
0000
,  // measure 29
0010
0000
1000
0000
0010
0100
0010
0000
,  // measure 30
0100
0010
1000
0001
1000
0100
0010
0001
,  // measure 31
0100
0010
1000
0001
0010
0100
2000
0000
,  // measure 32
3010
0000
0000
1010
0000
0000
0010
0100
,  // measure 33
0001
0000
0000
0101
0000
0000
0001
0000
,  // measure 34
0010
0000
0000
0011
0000
0000
0010
0100
,  // measure 35
1000
0000
0000
1100
0000
0000
0110
0000
,  // measure 36
2000
0100
3002
0100
,  // measure 37
2003
0010
3002
0010
,  // measure 38
1003
0100
0010
0001
0100
0010
1000
0001
,  // measure 39
1000
0010
0100
0010
0100
0010
0100
0000
,  // measure 40
0010
0000
0000
1010
0000
0000
1000
0100
,  // measure 41
0010
0000
0000
0110
0000
0000
0000
0000
,  // measure 42
0010
0000
0000
0011
0000
0000
0001
0100
,  // measure 43
0010
0000
0000
0110
0000
0000
0010
0000
,  // measure 44
1000
0100
1000
0000
0001
0100
0001
0000
,  // measure 45
0010
0001
0010
0000
0100
1000
0100
0000
,  // measure 46
0001
0010
0001
0100
0001
0010
0100
1000
,  // measure 47
0100
0010
0100
1000
0200
0020
0000
0330
,  // measure 48
0010
0000
0001
0000
0010
0000
0100
1000
,  // measure 49
0000
0010
0001
0010
,  // measure 50
1000
0000
0100
0000
0010
0000
1000
0010
,  // measure 51
0000
0001
0100
0010
,  // measure 52
0000
0000
1000
0100
0010
0001
0010
0000
,  // measure 53
0100
0000
0000
0110
0000
0000
0010
0000
,  // measure 54
0100
1000
0100
1000
,  // measure 55
0010
0100
0010
0100
0010
0100
0010
0000
,  // measure 56
0100
0000
0001
0000
0101
0000
0010
1000
,  // measure 57
0000
0100
0001
0100
,  // measure 58
1000
0000
0100
0000
1100
0000
0010
0001
,  // measure 59
0000
0100
1000
0100
,  // measure 60
0001
0000
0000
0110
0000
0000
0100
0010
,  // measure 61
1000
0000
0000
1010
0000
0000
0100
0000
,  // measure 62
0012
0000
0000
0200
0000
0003
2000
0000
,  // measure 63
0300
0200
3000
0000
0301
0000
1000
0000
,  // measure 64
0001
0100
0001
0100
1000
0100
1000
0100
,  // measure 65
0001
0010
0001
0010
0100
0001
0100
0010
,  // measure 66
0100
0000
0010
0000
0100
0000
0010
0001
,  // measure 67
0100
0000
0010
1000
0000
0000
0220
0000
,  // measure 68
0330
0000
0100
0010
0100
1000
0100
0010
,  // measure 69
0100
0001
0010
0100
0010
1000
0010
0100
,  // measure 70
0010
0001
0100
0010
1000
0010
0100
0001
,  // measure 71
0100
0001
0100
0001
1000
0001
1000
0000
,  // measure 72
1000
0010
1000
0010
0001
0010
0001
0010
,  // measure 73
1000
0100
1000
0100
0010
0001
0010
0100
,  // measure 74
0010
0000
0100
0000
0010
0000
0100
0010
,  // measure 75
0001
0010
0100
1000
,  // measure 76
1000
0100
1000
0100
1000
0100
1000
0100
,  // measure 77
0001
0100
0001
0100
0001
0100
0001
0100
,  // measure 78
1000
0010
0000
1010
0000
1000
0001
0000
,  // measure 79
0001
0010
0100
1000
0100
0010
0001
0000
,  // measure 80
1000
0000
0010
0000
1010
0000
0100
0001
,  // measure 81
0000
0010
0100
1000
,  // measure 82
0001
0000
0100
0000
0110
0000
0001
1000
,  // measure 83
0000
0010
1000
0100
,  // measure 84
0010
0000
0000
0011
0000
0000
0001
0100
,  // measure 85
0010
0000
0000
0110
0000
0000
0010
0000
,  // measure 86
1000
0100
0001
0100
,  // measure 87
1000
0001
1000
0001
1000
0001
1000
0000
,  // measure 88
0001
0000
0100
0000
0110
0000
0001
1000
,  // measure 89
0000
0100
0001
0100
,  // measure 90
1000
0000
0010
0000
1010
0000
0100
0001
,  // measure 91
0000
1000
0010
0001
,  // measure 92
0010
0000
0000
1010
0000
0000
1000
0001
,  // measure 93
0100
0000
0000
0101
0000
0000
1000
0000
,  // measure 94
0001
0010
0000
1000
0010
0000
0001
0010
,  // measure 95
0000
1000
0010
0000
0001
0100
0001
0000
,  // measure 96
1000
0100
1000
0020
0000
0000
0000
0000
,  // measure 97
0000
0000
0030
0000
;

//---------------dance-single - ----------------
#NOTES:
     dance-single:
     :
     Hard:
     13:
     0.569929,0.723902,0.237588,0.227689,0.000000,403.000000,379.000000,24.000000,23.000000,0.000000,0.000000,0.569929,0.723902,0.237588,0.227689,0.000000,403.000000,379.000000,24.000000,23.000000,0.000000,0.000000:
0000
0000
0000
0000
,
0000
0000
0000
0011
,
0101
0000
0000
0000
,
0000
0000
0000
1010
,
1100
0000
0000
0000
,
0000
0000
0000
0000
,
0000
0000
0001
0000
0000
0100
0000
0000
,
0010
0000
0000
1000
0000
0100
0010
0100
,
0010
0000
0001
0100
0000
0010
0000
0000
,
0001
0100
0000
0010
0000
0000
0000
0000
,
0000
0000
1000
0100
0000
0010
0000
0000
,
1000
0100
0000
0000
1000
0010
0000
0000
,
0010
0000
0100
0010
0000
1000
0000
0000
,
0100
0010
0000
1000
0001
0000
1000
0000
,
0001
0000
0011
0000
0000
1100
0000
0000
,
1010
0000
0000
0101
0000
0000
0010
0000
,
0100
1000
0100
1000
,
0100
0010
0100
0010
,
0001
0100
0001
0100
,
0001
0000
0010
0000
0001
0010
0100
0010
,
0001
0010
0001
0010
,
0100
1000
0100
1000
,
1000
0100
1000
0000
0001
1000
0001
0000
,
0010
0100
0010
0100
1000
0001
1000
0000
,
0001
0100
0010
0100
,
0001
0010
0100
1000
,
0100
0010
0001
0100
,
0010
0000
1000
0000
0010
0100
0001
0100
,
0010
1000
0100
1000
,
0010
0100
0001
1000
,
0100
0010
0100
0000
0010
0100
0010
0000
,
0100
0010
0100
0010
0100
0010
0100
0000
,
1000
0000
0000
0010
0000
0000
1000
0000
,
1100
0000
0000
0010
0000
0000
0001
0000
,
0101
0000
0000
0010
0000
0000
1000
0000
,
1100
0000
0000
0010
0000
0000
0000
0000
,
0001
0010
1000
0010
,
0001
0100
1000
0100
,
0001
1000
0010
0100
,
0010
1000
0001
1000
0001
1000
0001
0000
,
0001
0000
0000
0100
0000
0000
0001
0000
,
0011
0000
0000
0100
0000
0000
0000
0000
,
1010
0000
0000
0100
0000
0000
0001
0000
,
0011
0000
0000
0100
0000
0000
1000
0000
,
0010
0001
0010
0001
,
0010
1000
0010
1000
,
0001
0010
0100
1000
0001
0100
0010
1000
,
0010
0100
0001
1000
0100
0020
0000
0030
,
0001
0000
1000
0000
0001
0000
0010
0100
,
0000
1000
0010
1000
,
0100
0000
0010
0000
0100
0000
1000
0001
,
0000
0100
0010
0100
,
0001
0000
0000
0020
0000
0000
2030
0000
,
3002
0000
0000
0203
0000
0000
2300
0000
,
3001
1000
0001
1000
,
0010
0100
0001
1000
0001
0100
0010
0000
,
0100
0000
0001
0000
0010
0000
0100
1000
,
0000
0100
0010
0001
,
0100
0000
0010
0000
1000
0000
0100
0010
,
0000
0100
1000
0010
,
2000
0000
0000
3200
0000
0000
0302
0000
,
2003
0000
0000
3020
0000
0000
0032
0000
,
1003
0000
0000
1010
0000
0000
0001
0000
,
0000
0101
0000
0000
1000
0000
0100
0000
,
2000
3010
2000
3100
,
0010
0000
0001
1000
0000
0010
0100
0000
,
0020
0000
0001
0000
0000
0000
1030
0100
,
0010
0000
0000
0110
0000
0000
2000
0000
,
0000
3001
0100
0001
,
0100
0001
0100
0001
,
0100
0010
0100
0000
0010
1000
0010
0000
,
1000
0100
1000
0000
0001
0010
0001
0000
,
0002
0013
0002
0103
,
0001
0000
0100
0010
0000
1000
0001
0000
,
0200
0000
1000
0000
0000
0000
0301
0100
,
0020
0000
0000
1030
,
0100
0010
0100
0000
1000
0010
1000
0000
,
0001
0010
0001
0000
0100
0010
0100
0000
,
0001
0000
0000
0110
0000
0000
1000
0000
,
0100
0010
0001
0100
0010
1000
0001
0000
,
1000
0000
0100
0000
0010
0000
0001
1000
,
0000
0100
0001
0100
,
1000
0000
0010
0000
0100
0000
0001
1000
,
0000
0010
0001
0010
,
1000
0000
0000
1100
0000
0000
0001
0000
,
0100
0000
0000
0101
0000
0000
0010
0000
,
1000
0001
0100
0001
,
1000
0100
0010
0001
0100
0010
1000
0000
,
0001
0000
0010
0000
0100
0000
1000
0001
,
0000
0010
1000
0010
,
0001
0000
0100
0000
0010
0000
1000
0001
,
0000
0100
1000
0100
,
0001
0000
0000
0011
0000
0000
1000
0000
,
0010
0000
0000
1010
0000
0000
0200
0000
,
0010
0000
0000
0010
0000
0000
0010
0000
,
0000
0310
0000
0000
1001
0000
0101
0000
,
1000
0010
0200
0020
0000
0000
0000
0000
,
0000
0000
0330
0000
;

//---------------dance-single - ----------------
#NOTES:
     dance-single:
     :
     Beginner:
     3:
     0.144250,0.241301,0.098995,0.059397,0.000000,102.000000,92.000000,10.000000,6.000000,0.000000,0.000000,0.144250,0.241301,0.098995,0.059397,0.000000,102.000000,92.000000,10.000000,6.000000,0.000000,0.000000:
0000
0000
0000
0000
,
0000
0000
0000
0000
,
1001
0000
0000
0000
,
0000
0000
0000
0000
,
1001
0000
0000
0000
,
0000
0000
0000
0000
,
0000
0010
0000
0000
,
0010
0000
0000
0000
,
0000
0100
0000
0000
,
0100
0000
0000
0000
,
0000
1000
0000
0000
,
1000
0000
0000
0000
,
0000
0001
0000
0000
,
0001
0000
0000
0000
,
0000
0100
0000
0000
,
0010
0000
0000
0000
,
1000
0000
0000
0000
,
1000
0000
0000
0000
,
0001
0000
0000
0000
,
0001
0000
0000
0000
,
0010
0000
0000
0000
,
0010
0000
0000
0000
,
0200
0000
0000
0000
,
0000
0000
0300
0000
,
0100
0000
0000
0000
,
0100
0000
0000
0000
,
1000
0000
0000
0000
,
1000
0000
0000
0000
,
0001
0000
0000
0000
,
0001
0000
0000
0000
,
0020
0000
0000
0000
,
0000
0000
0030
0000
,
0010
0000
0000
0000
,
0010
0000
0000
0000
,
0010
0000
0000
0000
,
0110
0000
0000
0000
,
1000
0000
1000
0000
,
1000
0000
1000
0000
,
2000
0000
0000
0000
,
3000
0000
0000
0000
,
0100
0000
0000
0000
,
0100
0000
0000
0000
,
0100
0000
0000
0000
,
0110
0000
0000
0000
,
0002
0000
0000
0000
,
0000
0000
0003
0000
,
0001
0000
0001
0000
,
0001
0000
0001
0000
,
0001
0000
0000
0100
,
0000
0000
0000
0000
,
0010
0000
0000
0100
,
0000
0000
0000
0000
,
0000
1001
0000
0000
,
0000
0000
0000
0000
,
1000
0000
0000
0000
,
1000
0000
0000
0000
,
1000
0000
0000
0010
,
0000
0000
0000
0000
,
0100
0000
0000
0010
,
0000
0000
0000
0000
,
0100
0000
0000
0000
,
0100
0000
0000
0000
,
0100
0000
0000
0000
,
0000
0000
0000
0000
,
0001
0000
0000
0000
,
1000
0000
0000
1001
,
0000
0000
0000
0000
,
0000
0000
0000
0000
,
0000
0010
0000
0010
,
0000
0010
0000
0010
,
0000
0010
0000
0010
,
0000
0010
0000
0000
,
0100
0000
0000
0000
,
0010
0000
0000
0110
,
0000
0000
0000
0000
,
1001
0000
0000
0000
,
0100
0000
0100
0000
,
0100
0000
0100
0000
,
0100
0000
0000
0000
,
0000
0000
0000
0000
,
1000
0000
0000
0010
,
0000
0000
0000
0000
,
0100
0000
0000
0010
,
0000
0000
0000
0000
,
0000
1001
0000
0000
,
0000
0000
0000
0000
,
0001
0000
0000
0000
,
0100
0000
0000
0000
,
0001
0000
0000
0100
,
0000
0000
0000
0000
,
0010
0000
0000
0100
,
0000
0000
0000
0000
,
0010
0000
0000
0000
,
0100
0000
0000
0000
,
0010
0000
0000
0000
,
0000
0000
0000
0000
,
0220
0000
0000
0000
,
0000
0000
0330
0000
;

//---------------dance-single - ----------------
#NOTES:
     dance-single:
     :
     Medium:
     8:
     0.326684,0.434341,0.079196,0.098995,0.000000,231.000000,223.000000,8.000000,10.000000,0.000000,0.000000,0.326684,0.434341,0.079196,0.098995,0.000000,231.000000,223.000000,8.000000,10.000000,0.000000,0.000000:
0000
0000
0000
0000
,
0000
0000
0000
1001
,
1001
0000
0000
0000
,
0000
0000
0000
1100
,
1100
0000
0000
0000
,
0000
0000
0000
0000
,
0000
0000
0010
0000
0000
0001
0000
0000
,
0010
0000
0000
0100
0000
0000
1000
0000
,
0001
0000
0100
0001
0000
0100
0000
0000
,
0100
0001
0000
0100
0000
0000
0000
0000
,
0000
0000
0010
1000
0000
0010
0000
0000
,
0010
1000
0000
0010
0000
0000
0000
0000
,
0000
0000
0100
1000
0000
0100
0000
0000
,
0100
1000
0000
0100
0000
0000
0000
0000
,
0000
0000
0010
0000
0000
0001
0000
0000
,
0010
0000
0000
0100
0000
0000
1000
0000
,
0001
0100
0001
0000
,
0001
0000
1000
0000
,
1000
0100
1000
0000
,
1000
0100
1000
0010
,
0100
0010
0100
0000
,
0100
0000
0010
0000
,
0010
1000
0010
1000
,
0001
0100
0001
0100
,
0001
0010
0001
0000
,
0001
0000
1000
0000
,
1000
0010
1000
0000
,
1000
0010
1000
0100
,
0010
0001
0100
0000
,
0010
1000
0100
0000
,
1000
0001
1000
0001
,
1000
0001
1000
0001
,
1000
0000
0000
0100
0000
0000
0000
0000
,
1000
0000
0000
0100
0000
0000
0000
0000
,
0001
0000
0000
0100
0000
0000
0000
0000
,
0001
0000
0000
0100
0000
0000
0000
0000
,
0010
0000
0010
0000
,
0010
0000
0010
0000
,
0010
0000
0000
0000
,
0000
0110
0000
0000
,
1000
0000
0000
0010
0000
0000
0000
0000
,
1000
0000
0000
0010
0000
0000
0000
0000
,
0001
0000
0000
0010
0000
0000
0000
0000
,
0001
0000
0000
0010
0000
0000
0000
0000
,
0220
0000
0000
0000
,
0000
0000
0330
0000
,
2002
0000
0000
0000
,
0000
0000
3003
0000
,
0001
0100
0001
0100
,
0000
0000
0000
0000
,
1000
0010
1000
0010
,
0000
0000
0000
0000
,
0000
0010
0000
1000
,
0001
0000
0000
0100
0000
0000
0001
0000
,
1000
0000
0010
0000
,
0100
0000
0100
0000
,
0001
0010
0001
0010
,
0000
0000
0000
0000
,
1000
0100
1000
0100
,
0000
0000
0000
0000
,
1000
0000
0000
0100
0000
0000
0010
0000
,
0100
0000
0000
1000
0000
0000
0001
0000
,
0020
0000
0000
0000
,
0030
0000
0000
0000
,
0001
0000
1000
0000
,
0010
0000
0000
1000
0000
0000
0200
0000
,
0000
0000
0000
0000
,
0310
0000
0000
0001
0000
0000
0100
0000
,
0000
0001
0000
0001
,
0000
0001
0000
0001
,
0010
0100
0010
0100
,
0010
0001
0010
0001
,
0100
0000
0001
0000
,
0100
0000
0000
0010
0000
0000
2000
0000
,
0000
0000
0000
0000
,
3200
0000
0000
0000
,
0310
0100
0010
0100
,
1000
0100
1000
0100
,
1000
0000
0000
0001
0000
0000
0100
0000
,
0100
0001
1000
0010
,
1000
0100
1000
0100
,
0000
0000
0000
0000
,
0001
0010
0001
0010
,
0000
0000
0000
0000
,
0010
0000
0000
0001
0000
0000
0100
0000
,
0010
0000
0000
1000
0000
0000
0100
0000
,
0010
0000
1001
0000
,
0010
1000
0010
0100
,
0001
0010
0001
0010
,
0000
0000
0000
0000
,
1000
0100
1000
0100
,
0000
0000
0000
0000
,
1000
0000
0000
0001
0000
0000
0010
0000
,
0100
0000
0000
1000
0000
0000
0100
0000
,
0010
0000
0000
0010
0000
0000
0001
0000
,
0000
0001
0000
0000
0100
0000
0100
0000
,
0020
2000
0000
0000
,
0000
0000
3030
0000
;

//---------------dance-single - ----------------
#NOTES:
     dance-single:
     :
     Easy:
     6:
     0.247488,0.482602,0.148493,0.148493,0.000000,175.000000,160.000000,15.000000,15.000000,0.000000,0.000000,0.247488,0.482602,0.148493,0.148493,0.000000,175.000000,160.000000,15.000000,15.000000,0.000000,0.000000:
0000
0000
0000
0000
,
0000
0000
0000
0001
,
0001
0000
0000
0000
,
0000
0000
0000
0100
,
0100
0000
0000
0000
,
0000
0000
0000
0000
,
0000
0000
1000
0000
0000
0100
0000
0000
,
0001
0000
0000
0100
0000
0000
0000
0000
,
0000
0010
0000
0000
,
1100
0000
0000
0000
,
0000
0010
0000
0000
,
0101
0000
1001
0000
,
0000
1000
0000
0000
,
0011
0000
0000
0000
,
0000
0000
0001
0000
0000
1000
0000
0000
,
0001
0000
0000
1000
0000
0000
0000
0000
,
0010
0000
1000
0000
,
0100
0000
0010
0000
,
0001
0000
0100
0000
,
0010
0000
1001
0000
,
0010
0000
1000
0000
,
0001
0000
0100
0000
,
0020
0000
0000
0000
,
0000
0000
0030
0000
,
1000
0000
0100
0000
,
0010
0000
0001
0000
,
0100
0000
0010
0000
,
1000
0000
0101
0000
,
0100
0000
0001
0000
,
0010
0000
0001
0000
,
0220
0000
0000
0000
,
0000
0000
0330
0000
,
1000
0000
0000
1000
,
0001
0000
0000
0000
,
0001
0000
0000
0001
,
1000
0000
0000
0000
,
1010
0000
1100
0000
,
0011
0000
0101
0000
,
0220
0000
0000
0000
,
0330
1000
0001
1000
,
0001
0000
0000
0001
,
0100
0000
0000
0000
,
1000
0000
0000
1000
,
0010
0000
0000
0000
,
0010
0200
0000
0001
,
0000
1000
0000
0301
,
1000
0010
0100
0001
,
1000
0010
0100
0000
,
0001
0010
0001
0010
,
0000
0000
0000
0000
,
0001
0100
0001
0100
,
0000
0000
0000
0000
,
0000
0000
0010
0000
,
1000
0000
0001
0000
,
0100
0000
0100
0000
,
0020
0000
0000
0000
,
1030
0100
1000
0100
,
0000
0000
0000
0000
,
1000
0010
1000
0010
,
0000
0000
0000
0000
,
0100
0000
0000
0000
,
0001
0000
0000
0000
,
2002
0000
0000
0000
,
0000
0000
3003
0000
,
0001
0000
0001
0000
,
0001
0000
0000
0001
,
0000
0000
0000
0000
,
0010
0000
0000
0010
,
0000
1000
0000
1000
,
0000
1000
0000
1000
,
0010
0000
0010
0000
,
0001
0000
0001
0000
,
1000
0000
1000
0000
,
1000
0000
0000
1000
,
0000
0000
0000
0000
,
0100
0000
0000
0000
,
0001
0000
0001
0000
,
0100
0000
0100
0000
,
1000
0000
0000
1000
,
0001
0000
0100
0000
,
0001
0100
0010
1000
,
0000
0000
0000
0000
,
0001
0100
0010
1000
,
0000
0000
0000
0000
,
0010
0000
0100
0000
,
0010
0000
0100
0000
,
1001
0000
0100
0000
,
0022
0000
0033
0000
,
1000
0100
0010
0001
,
0000
0000
0000
0000
,
1000
0100
0010
0001
,
0000
0000
0000
0000
,
2000
0000
0000
0000
,
3002
0000
0000
0000
,
0103
0000
0000
0100
,
0000
0000
0100
0010
,
2000
0002
0000
0000
,
0000
0000
3003
0000
;

//---------------dance-double - ----------------
#NOTES:
     dance-double:
     :
     Easy:
     7:
     0.220618,0.338687,0.079196,0.039598,0.000000,156.000000,148.000000,8.000000,4.000000,0.000000,0.000000,0.220618,0.338687,0.079196,0.039598,0.000000,156.000000,148.000000,8.000000,4.000000,0.000000,0.000000:
00000000
00000000
00000000
00000000
,
00000000
00000000
00000000
00000000
,
00000000
00000000
00000000
00000000
,
00000000
00000000
00000000
01000000
,
01000000
00000000
00000000
00000000
,
00000000
00000000
00000000
00000000
,
00000000
00000000
00000010
00000000
00000000
00000010
00000000
00000000
,
00000010
00000000
00000000
00000010
00000000
00000000
00000000
00000000
,
00000000
00000000
00000010
00000000
00000000
00001000
00000000
00000000
,
00000010
00000000
00010000
00000000
,
00000000
00000000
00001000
00000000
00000000
01000000
00000000
00000000
,
00001000
00000000
00100000
00000000
,
00000000
00000000
01000000
00000000
00000000
10000000
00000000
00000000
,
00100000
00000000
01000000
00000000
,
00000000
00000000
00001000
00000000
00000000
00001000
00000000
00000000
,
00010000
00000000
00000000
00010000
00000000
00000000
00010000
00000000
,
00000010
00000000
00000000
00000000
,
00000010
00000000
00000000
00000000
,
00000010
00000000
00000100
00000000
,
00000001
00000000
00000000
00000000
,
00000010
00000000
00000000
00000000
,
00000010
00000000
00000000
00000000
,
00001000
00000000
00010000
00000000
,
00100000
00000000
10000000
00000000
,
01000000
00000000
00000000
00000000
,
01000000
00000000
00000000
00000000
,
10000000
00000000
00010000
00000000
,
00100000
00000000
00000000
00000000
,
01000000
00000000
00000000
00000000
,
01000000
00000000
00000000
00000000
,
00010000
00000000
00001000
00000000
,
00000100
00000000
00000001
00000000
,
00001000
00000000
00000000
00000000
,
00001010
00000000
00000000
00000000
,
00001000
00000000
00000000
00000000
,
00001010
00000000
00000000
00000000
,
00000001
00000000
00000100
00000000
,
00001000
00000000
00010000
00000000
,
02000000
00000000
00000000
00000000
,
10000000
10000000
13000000
00000000
,
00010000
00000000
00000000
00000000
,
00110000
00000000
00000000
00000000
,
00010000
00000000
00000000
00000000
,
00110000
00000000
00000000
00000000
,
10000000
00000000
01000000
00000000
,
00010000
00000000
00001000
00000000
,
00000020
00000000
00000000
00000000
,
00000000
00000000
00000030
00000000
,
00000001
00001000
00000001
00000100
,
00000000
00000000
00000000
00000000
,
00000001
00001000
00000001
00000100
,
00000000
00000000
00000000
00000000
,
00000001
00000000
00000000
00000010
00000000
00000000
00000001
00000000
,
00001000
00000000
00000000
00000100
00000000
00000000
00010000
00000000
,
00001000
00000000
01000000
00000000
,
00100000
00000000
00100000
00000000
,
10000000
00010000
01000000
00010000
,
00000000
00000000
00000000
00000000
,
10000000
00010000
01000000
00010000
,
00000000
00000000
00000000
00000000
,
10000000
00000000
00000000
00000000
,
01000000
00000000
00000000
00000000
,
00010000
00000000
00000000
00000000
,
00000000
00000000
00000000
00000000
,
00001000
00000000
00000010
00000000
,
00000001
00000000
00001000
00000000
,
00000000
00000000
00000000
00000000
,
00010010
00000000
00000000
00000000
,
00000000
00000001
00000000
00000001
,
00000000
00000001
00000000
00000001
,
00000100
00000000
00001000
00000000
,
00010000
00000000
01000000
00000000
,
10000000
00000000
00000000
00000000
,
00100000
00000000
00000000
00000000
,
00000000
00000000
00000000
00000000
,
01001000
00000000
00000000
00000000
,
00001000
00000000
00001000
00000000
,
00010000
00000000
00010000
00000000
,
00010010
00000000
00000000
00000000
,
00000101
00000000
00000000
00000000
,
00000010
00001000
00000100
00001000
,
00000000
00000000
00000000
00000000
,
00000010
00001000
00000100
00001000
,
00000000
00000000
00000000
00000000
,
00000001
00000000
00000000
00000100
00000000
00000000
00000001
00000000
,
00001000
00000000
00000000
00000010
00000000
00000000
00010000
00000000
,
00001000
00000000
00100000
00000000
,
01000000
00000000
01000000
00000000
,
10000000
00100000
01000000
00100000
,
00000000
00000000
00000000
00000000
,
10000000
00100000
01000000
00100000
,
00000000
00000000
00000000
00000000
,
10000000
00000000
00000000
00000000
,
01000000
00000000
00000000
00000000
,
00010000
00000000
00000000
00000000
,
00000000
00000000
00000000
00000000
,
00002000
00000020
00000000
00000000
,
00000000
00000000
00000000
00003030
;

//---------------dance-double - ----------------
#NOTES:
     dance-double:
     :
     Challenge:
     17:
     0.913584,1.064446,0.772163,0.029699,0.108895,646.000000,568.000000,78.000000,3.000000,0.000000,0.000000,0.913584,1.064446,0.772163,0.029699,0.108895,646.000000,568.000000,78.000000,3.000000,0.000000,0.000000:
00000000
00000000
00000000
00000000
,
00000000
00000000
00000000
00110000
,
00001100
00000000
00000000
00000000
,
00000000
00000000
00000000
00001010
,
01010000
00000000
00000000
00000000
,
00000000
00000000
00000000
00000000
,
00000000
00000000
10000000
00010000
00001000
00000001
00000000
00000000
,
00000001
00001000
00010000
10000000
00000000
01000000
00010000
00001000
,
00000100
00000000
00000001
00000010
00000000
00011000
00000000
00000010
,
00000001
00000010
00000000
00000001
00000100
00001000
00000000
00010000
,
01000000
00000000
10000000
00100000
00000000
00011000
00000000
00100000
,
10000000
00100000
00000000
10000000
01000000
00010000
00001000
00000000
,
00000100
00000000
00000001
00000100
00000000
00011000
00000000
00000100
,
00000001
00000100
00000000
00000001
00000010
00001000
00010000
00100000
,
10000000
00010000
10010000
00000000
00000000
01100000
00000000
00000000
,
00011000
00000000
00000000
00000110
00000000
00000000
00001001
00000000
,
00000001
00000100
00001000
00000100
00000001
00000000
00001001
00000000
,
00000001
00000100
00001000
00010000
01000000
00000000
10010000
00000000
,
10000000
01000000
00010000
01000000
10000000
00000000
10010000
00000000
,
10000000
01000000
00010000
00001000
00000100
00000001
00000100
00000001
,
00001000
00000010
00000001
00000010
00001000
00000000
00001001
00000000
,
00000001
00000010
00001000
00010000
00100000
00000000
10010000
00000000
,
10000000
00100000
00010000
00100000
10000000
00100000
00010000
00001000
,
00000100
00000001
00000100
00001000
00000100
00000001
00001001
00000000
,
00000001
00000100
00001000
00010000
00001000
00000100
00000001
00000000
,
00000100
00001000
00010000
01000000
00010000
00001000
00000100
00000000
,
00001000
00010000
01000000
10000000
01000000
00010000
00001000
00000000
,
00010000
01000000
10000000
01000000
00010000
10000000
00010000
10000000
,
01000000
00010000
00001000
00000100
00001000
00010000
01000000
00000000
,
00010000
00001000
00000100
00000001
00000100
00001000
00010000
00000000
,
00001000
00000100
00001000
00000100
00000001
00000100
00000001
00000100
,
00000001
00000010
00000001
00000010
00001000
00010000
00100000
00000000
,
10000000
01000000
00010000
01000000
00000000
10000000
01000000
00010000
,
01000000
00000000
10000000
00010000
00000000
01000000
00100000
00000000
,
00001000
00010000
00100000
00010000
00000000
00001000
00010000
00100000
,
00010000
00000000
00001000
00000010
00000000
00000000
00001001
00000000
,
00000001
00000100
00000010
00000000
00000001
00000010
00001000
00000000
,
00000010
00000100
00001000
00000000
00010000
01000000
10000000
00000000
,
10000000
00010000
10000000
00010000
10000000
00010000
10000000
00010000
,
01000000
00000000
00100000
01000000
00100000
00000000
00010000
00000000
00001000
00000000
00000100
00000000
00000001
00000000
00000000
00000000
,
00000001
00000010
00001000
00000010
00000000
00000001
00000010
00001000
,
00000010
00000000
00000001
00001000
00000000
00000010
00000100
00000000
,
00010000
00001000
00000010
00001000
00000000
00010000
00001000
00000010
,
00001000
00000000
00010000
01000000
00000000
00000000
10010000
00000000
,
10000000
01000000
00010000
01000000
10000000
01000000
00010000
01000000
,
10000000
01000000
00010000
00001000
00000100
00000001
00001000
00000000
,
00000010
00000100
00000010
00000000
00001000
00000000
00000001
00000000
00000100
00000000
00000010
00000000
00001000
00000000
00000001
00000000
,
00000100
00001000
00010000
00100000
00020000
00002000
00000000
00033000
,
00001010
00000000
00000101
00000000
00001100
00000000
00001000
00010000
,
00000000
00000000
00001000
00010000
01000000
00000000
10010000
00000000
,
10100000
00000000
00110000
00000000
00011000
00000000
00010000
00000010
,
00000000
00000000
00000100
00000010
00001000
00000000
00011000
00000000
,
00000000
00000000
00000000
00000000
00000010
00000100
00000010
00000000
00000000
00000000
00000000
00000000
00001001
00000000
00000000
00000000
,
00000001
00000100
00001000
00010000
00000000
01000000
10000000
00000000
,
10000000
00100000
00010000
00100000
10000000
00000000
10010000
00000000
,
10000000
00010000
10000000
00000000
00100000
00000000
00010000
00000000
00001000
00000000
00000100
00000000
00000010
00000000
00000000
00000000
,
00000110
00000000
00001100
00000000
00011000
00000000
00100000
10000000
,
00000000
00000000
01000000
00010000
00001000
00000000
00011000
00000000
,
01100000
00000000
11000000
00000000
01010000
00000000
00001000
00000010
,
00000000
00000000
00000001
00001000
00000010
00000100
00000010
00000000
,
00001100
00000000
00000001
00000010
00001000
00000000
00000110
00000000
,
00001000
00010000
00100000
00010000
00001000
00000000
01100000
00000000
,
10000000
11000000
00000000
00010000
01010000
00000000
10000000
10100000
,
00000000
00010000
00110000
00000000
01000000
00100000
00010000
00001000
,
00000010
00000001
00000010
00001000
00000010
00000001
00000100
00001000
,
00010000
00100000
10000000
00100000
00010000
00100000
10000000
00010000
,
10000000
00000000
00100000
00010000
00001000
00000000
00000010
00000001
,
00001000
00000001
00001000
00000000
00000000
00000000
00000110
00000000
00000000
00000000
00000000
00000000
00001001
00000000
00000000
00000000
,
00000000
00000000
00000100
00000010
00001000
00000001
00001000
00000000
00000010
00000000
00000100
00000000
00000001
00001000
00000001
00000000
,
00000100
00000000
00000010
00000000
00010000
00001000
00010000
00000000
00001000
00000000
01000000
00000000
00100000
10000000
00100000
00000000
,
10000000
01000000
10000000
01000000
00010000
00001000
00010000
00001000
,
00000010
00000001
00001000
00000001
00000010
00000001
00001001
00000000
,
00000001
00000100
00000001
00000100
00000001
00000000
00000000
00000000
00001000
00000010
00001000
00000010
00001000
00000000
00000000
00000000
,
00000010
00000100
00001000
00010000
01000000
10000000
10010000
00000000
,
01000000
00000000
00010000
00000000
00001000
00000000
00000000
00000000
00010000
00000000
00000010
00000000
00010000
00000100
00001000
00000000
,
00000010
00000000
00000100
00000001
00001000
00000000
00010100
00000000
,
00001000
00010000
00001000
00000000
00100000
00000000
01000000
00000000
10000000
00010000
10000000
00000000
01000000
00000000
00100000
00000000
,
00001000
00010000
00001000
00000000
00010000
00000000
00000010
00000000
00000100
00000001
00000100
00000000
00000010
00000000
00001000
00000000
,
00000101
00000000
00000000
00011000
00000000
00000000
11000000
00000000
,
10000000
00010000
01000000
00000000
00100000
00000000
00010000
00000000
00001000
00000000
00000100
00000000
00000101
00000000
00000000
00000000
,
00000011
00000000
00011000
00000000
10100000
00000000
10000000
00010000
,
00000000
00000000
10000000
01000000
00100000
00000000
10010000
00000000
,
11000000
00000000
00011000
00000000
00000101
00000000
00000001
00001000
,
00000000
00000000
00000001
00000010
00000100
00000000
00001001
00000000
,
00000001
00000100
00001000
00010000
00001000
00000000
00000101
00000000
,
00001000
00010000
00100000
10000000
00100000
00000000
00011000
00000000
,
01000000
00100000
00010000
00001000
00010000
00000000
01100000
00000000
,
00001000
00010000
00001000
00000000
00010000
00000000
00000010
00000000
00000100
00000000
00000001
00000000
00001000
00000000
00000000
00000000
,
00000101
00000000
00011000
00000000
11000000
00000000
10000000
00010000
,
00000000
00000000
10000000
00100000
01000000
00000000
01100000
00000000
,
10100000
00000000
00011000
00000000
00000011
00000000
00000001
00001000
,
00000000
00000000
00000100
00000010
00001000
00000000
00001010
00000000
,
00000001
00000100
00000010
00001000
00000001
00000000
00001000
00000000
,
00000100
00010000
00001000
00010000
00000100
00000000
00011000
00000000
,
00100000
00101000
00000000
00001000
00011000
00000000
00010000
00010100
,
00000000
00000100
00001100
00000000
00000010
00000100
00000110
00000000
,
00000010
00000100
00000001
00000000
00000100
00000000
00002000
00000000
00000000
00000000
00000000
00000000
00000000
00000000
00000000
00000000
,
00000000
00000000
00000000
00003000
;

//---------------dance-double - ----------------
#NOTES:
     dance-double:
     :
     Hard:
     14:
     0.748121,0.822526,0.316785,0.079196,0.000000,529.000000,497.000000,32.000000,8.000000,0.000000,0.000000,0.748121,0.822526,0.316785,0.079196,0.000000,529.000000,497.000000,32.000000,8.000000,0.000000,0.000000:
00000000
00000000
00000000
00000000
,
00000000
00000000
00000000
01001000
,
00101000
00000000
00000000
00000000
,
00000000
00000000
00000000
00010010
,
00010100
00000000
00000000
00000000
,
00000000
00000000
00000000
00000000
,
00000000
00000000
00010000
00001000
01000000
00100000
00000000
00000000
,
00010000
00001000
00000100
00000001
00000000
00001000
00000010
00000100
,
00000001
00000000
00000010
00000100
00000000
00001100
00000000
00000010
,
00000100
00000010
00000000
00000100
00000001
00000100
00000001
00000010
,
00000100
00000000
00010000
00001000
00000000
00011000
00000000
00100000
,
01000000
00100000
00000000
01000000
10000000
01000000
10000000
00100000
,
01000000
00000000
00010000
00100000
00000000
00110000
00000000
00010000
,
01000000
00001000
00000000
00010000
00001000
00010000
00001000
00100000
,
00001000
00000000
00011000
00000000
00000000
00010100
00000000
00000000
,
00000110
00000000
00000000
00000011
00000000
00000000
00001001
00000000
,
00000001
00000000
00000010
00000000
00000001
00000010
00000001
00000000
,
00000010
00000000
00001000
00000000
00000010
00001000
00000010
00000000
,
00001000
00000000
00010000
00000000
00001000
00010000
00001000
00000000
,
00010000
00000000
00100000
00000000
10000000
00010000
10000000
00010000
,
10000000
00000000
01000000
00000000
10000000
01000000
10000000
00000000
,
00010000
00000000
00100000
00000000
00010000
00100000
00010000
00000000
,
01000000
00010000
00100000
00010000
01000000
00001000
00010000
00001000
,
01000000
00100000
10000000
00100000
01000000
00010000
10000000
00000000
,
10000000
00000000
00100000
00000000
10000000
00100000
10000000
00000000
,
00100000
00000000
00010000
00000000
00100000
00010000
00100000
00000000
,
00010000
00000000
00001000
00000000
00010000
00001000
00010000
00000000
,
00001000
00000000
00000010
00000000
00000001
00001000
00000001
00001000
,
00000001
00000000
00000100
00000000
00000001
00000100
00000001
00000000
,
00001000
00000000
00000010
00000000
00001000
00000010
00001000
00000000
,
00000010
00001000
00000100
00001000
00000010
00010000
00001000
00010000
,
00000010
00000100
00000001
00000100
00000010
00001000
00000001
00000000
,
00001000
00000100
00000000
00000100
00000010
00000000
00000100
00010000
,
00001000
00000000
00000000
00011000
00000000
00000000
00001000
00000000
,
00100000
01000000
00000000
01000000
10000000
00000000
00100000
01000000
,
00010000
00000000
00000000
01010000
00000000
00000000
00100000
00000000
,
00001000
00010000
00000100
00000000
00000100
00001000
00000010
00000000
,
00000010
00000100
00000001
00000000
00000001
00001000
00000010
00000000
,
00000010
00000100
00000010
00000100
00000010
00000100
00000010
00000100
,
00000010
00001000
00000001
00000100
00000001
00001000
00000010
00000000
,
00000100
00000001
00000000
00000001
00001000
00000000
00000100
00010000
,
00001000
00000000
00000000
00011000
00000000
00000000
00000000
00000000
,
00001000
00100000
00000000
00100000
00010000
00000000
01000000
00100000
,
10000000
00000000
00000000
10010000
00000000
00000000
00010000
00000000
,
10000000
01000000
00100000
00010000
01000000
00100000
10000000
01000000
,
00100000
00001000
00010000
00000100
00000010
00000001
00000200
00000000
,
00000310
00001000
00000010
00000100
00000010
00001000
00000010
00000100
,
00000001
00000010
00000100
00001000
00000100
00000020
00000000
00000030
,
00000001
00000000
00000100
00000000
00000101
00000000
00000010
00001000
,
00000000
00000001
00000100
00001000
,
00010000
00000000
00001000
00000000
00101000
00000000
00100000
00010000
,
00000000
00000000
01000000
00010000
10000000
00000000
00100000
00000000
,
01000000
00000000
00000000
01100000
00000000
00000000
00100000
10000000
,
00010000
00000000
00000000
10010000
00000000
00000000
01000000
00010000
,
00100000
00000000
00110000
00000000
,
00100000
00010000
10000000
01000000
10000000
00010000
00100000
00000000
,
00010000
00000000
01000000
00000000
01010000
00000000
00010000
10000000
,
00000000
01000000
00010000
00001000
,
00010000
00000000
00000010
00000000
00010010
00000000
00000100
00000001
,
00000000
00000010
00000100
00000110
,
00000001
00000000
00000000
00000101
00000000
00000000
00000100
00000000
,
00000010
00000000
00000000
00001010
00000000
00000000
00000100
00000000
,
00010000
00001000
00000000
00001000
00010000
00000000
00001000
00010000
,
00000000
00010000
00001000
00000000
00100000
00010000
00100000
00000000
,
00010000
01000000
00010000
01000000
00100000
00010000
00100000
00010000
,
00001000
00000100
00001000
00000100
00000001
00001000
00000001
00001000
,
00000001
00000000
00000100
00000010
00000100
00000000
00000010
00001000
,
00000200
00000000
00000300
00000220
00000000
00000330
00002200
00000000
,
00003300
00000000
00000001
00000100
00001000
00010000
00001000
00010000
,
01000000
10000000
01000000
10000000
00100000
10000000
00100000
10000000
,
01000000
00100000
00001000
00010000
00000010
00000100
00000001
00000010
,
00000100
00001000
00000010
00000100
00000001
00001000
00000001
00000000
,
00000100
00001000
00000100
00001000
00010000
01000000
00010000
01000000
,
10000000
00100000
10000000
00100000
00010000
00001000
00010000
00001000
,
00010000
00000000
00000100
00001000
00000100
00000000
00001000
00000010
,
00001000
00000000
00000010
00000100
00000010
00000000
00000100
00000001
,
00000100
00000010
00000100
00001000
00000100
00000010
00000100
00000001
,
00000100
00001000
00000100
00000010
00000100
00000001
00000100
00000010
,
00010000
00000000
00000000
00001000
00000000
00000000
00010000
00000000
,
00001000
00100000
01000000
10000000
01000000
00100000
00001000
00000000
,
01000000
00000000
00010000
00000000
01010000
00000000
00100000
10000000
,
00000000
01000000
00010000
00001000
,
00000010
00000000
00000001
00000000
00000101
00000000
00000010
00001000
,
00000000
00000001
00001000
00000001
,
00000100
00000010
00000100
00000010
00000000
00001000
00000001
00000000
,
00000010
00000100
00000010
00000100
00000000
00001000
00000001
00000000
,
00000100
00000010
00010000
00001000
,
00010000
00000010
00000100
00000001
00000100
00000010
00010000
00000000
,
00000010
00000000
00000100
00000000
00000101
00000000
00000001
00000100
,
00000000
00001000
00010000
01000000
,
10000000
00000000
00100000
00000000
10100000
00000000
01000000
00010000
,
00000000
10000000
00010000
10000000
,
00010000
00100000
00010000
00100000
00000000
00010000
01000000
00000000
,
01000000
00001000
01000000
00001000
00000000
00010000
00001000
00000000
,
00010000
00000010
00000000
00010000
00001000
00000000
00001000
01000000
,
00000000
00001000
00010000
00000000
00000100
00001000
00000010
00000000
,
00000100
00000001
00000100
00000020
00000000
00000000
00000000
00000000
,
00000000
00000000
00000000
00000030
;

//---------------dance-double - ----------------
#NOTES:
     dance-double:
     :
     Medium:
     11:
     0.480834,0.579122,0.168292,0.059397,0.000000,340.000000,323.000000,17.000000,6.000000,0.000000,0.000000,0.480834,0.579122,0.168292,0.059397,0.000000,340.000000,323.000000,17.000000,6.000000,0.000000,0.000000:
00000000
00000000
00000000
00000000
,
00000000
00000000
00000000
00100000
,
00001000
00000000
00000000
00000000
,
00000000
00000000
00000000
00010000
,
00000100
00000000
00000000
00000000
,
00000000
00000000
00000000
00000000
,
00000000
00000000
00001000
00000000
00000010
00001000
00000000
00000000
,
00000001
00000000
00000100
00000001
00000000
00000000
00000010
00000000
,
00000001
00000000
00000100
00000010
00000000
00001000
00000000
00000000
,
00000100
00010000
00000000
00000100
00010000
00000000
00000000
00000000
,
00000000
00000000
00001000
00100000
00000000
00010000
00000000
00000000
,
01000000
00010000
00000000
01000000
00010000
00000000
00000000
00000000
,
10000000
00000000
00100000
10000000
00000000
00010000
00000000
00000000
,
00100000
00001000
00000000
00100000
00001000
00000000
00000000
00000000
,
00010000
00000000
00000100
00000000
00000000
00001100
00000000
00000000
,
00001000
00000000
00000000
00001010
00000000
00000000
00001000
00000000
,
00000001
00000010
00000001
00000010
,
00000001
00000100
00000001
00000100
,
00001000
00000000
00010000
00000000
,
01000000
10000000
01000000
00100000
,
01000000
10000000
01000000
10000000
,
01000000
00100000
01000000
00100000
,
00010000
01000000
00010000
00100000
,
00010000
01000000
00100000
10000000
,
10000000
01000000
10000000
01000000
,
10000000
00100000
10000000
00100000
,
00010000
00000000
00001000
00000000
,
00000010
00000000
00000001
00001000
,
00000001
00000010
00000001
00000010
,
00000100
00001000
00000100
00001000
,
00000001
00000010
00000001
00000100
,
00000001
00000100
00000010
00001000
,
00000010
00000000
00000000
00001010
00000000
00000000
00001000
00000000
,
00000100
00000000
00000000
00010100
00000000
00000000
00000000
00000000
,
00010000
00000000
00000000
00011000
00000000
00000000
00001000
00000000
,
00100000
00000000
00000000
00101000
00000000
00000000
00000000
00000000
,
00100000
01000000
10000000
00000000
,
01000000
00100000
00010000
00000000
,
01000000
00001000
01000000
00001000
,
00100000
00010000
01000000
00100000
,
10000000
00000000
00000000
11000000
00000000
00000000
01000000
00000000
,
00100000
00000000
00000000
00101000
00000000
00000000
00000000
00000000
,
00001000
00000000
00000000
00011000
00000000
00000000
00010000
00000000
,
00000010
00000000
00000000
00010010
00000000
00000000
00000010
00000000
,
00000100
00000010
00000100
00000010
,
00000100
00000010
00000100
00000010
,
00001000
00000100
00000010
00000001
,
00000100
00000000
00000010
00000000
00002000
00000002
00000000
00003003
,
00001000
00000000
00000100
00000000
00001000
00000000
00000100
00001000
,
00000000
00000100
00010000
00000100
,
00010000
00000000
00001000
00000000
00010000
00000000
00001000
00010000
,
00000000
00001000
00100000
00001000
,
00100000
00000000
00000000
11000000
00000000
00000000
10000000
00000000
,
01000000
00000000
00000000
00100000
00000000
00000000
00010000
00000000
,
10000000
00000000
10010000
00000000
,
00010000
00100000
01000000
10000000
01000000
00100000
00010000
00000000
,
01000000
00000000
00010000
00000000
01000000
00000000
00010000
01000000
,
00000000
00001000
00010000
00001000
,
00010000
00000000
00000010
00000000
00010000
00000000
00000010
00010000
,
00000000
00000010
00000100
00000001
,
00001000
00000000
00000000
00001001
00000000
00000000
00000001
00000000
,
00000100
00000000
00000000
00000101
00000000
00000000
00000010
00000000
,
00001000
00000000
00000000
00000001
00000000
00000000
00001000
00000000
,
00000000
00000001
00000000
00000000
00000010
00000000
00000010
00000000
,
00000001
00000100
00001000
00000000
,
00010000
00000000
00000000
01000000
00000000
00000000
20000000
00000000
,
00000000
00000000
00000000
00000000
30000000
00000000
00010000
10000000
,
00010000
00000000
00000000
01000000
00000000
00000000
00100000
00000000
,
00000000
10000000
00000000
00100000
,
00000000
00010000
00000000
00001000
,
00000010
00000001
00001000
00000001
,
00000010
00000001
00001000
00000001
,
00001000
00000100
00000010
00000000
,
00001000
00000000
00000000
00010000
00000000
00000000
00100000
00000000
,
00000000
01000000
00000000
00010000
,
00002000
00000000
00000000
00003010
,
00000001
00001000
00000001
00001000
,
00000100
00010000
00000100
00010000
,
00001000
00000000
00000000
00100000
00000000
00000000
00010000
00000000
,
00100000
00010000
01000000
00100000
10000000
00010000
10000000
00000000
,
10000000
00000000
01000000
00000000
00100000
00000000
00010000
01000000
,
00000000
00001000
00010000
00000100
,
00001000
00000000
00000010
00000000
00000100
00000000
00000001
00001000
,
00000000
00000010
00000100
00000010
,
00001000
00000000
00000000
00001001
00000000
00000000
00000001
00000000
,
00000010
00000000
00000000
00000011
00000000
00000000
00000010
00000000
,
00000100
00000000
00001100
00000000
,
00001000
00000100
00000010
00000001
00000010
00000100
00001000
00000000
,
00000001
00000000
00000010
00000000
00000100
00000000
00001000
00000100
,
00000000
00010000
00001000
01000000
,
00010000
00000000
00100000
00000000
01000000
00000000
10000000
00010000
,
00000000
01000000
00100000
01000000
,
00010000
00000000
00000000
00100000
00000000
00000000
00001000
00000000
,
00010000
00000000
00000000
00000010
00000000
00000000
00000100
00000000
,
00000001
00000000
00000000
00000100
00000000
00000000
00001000
00000000
,
00000000
00010000
00000000
00000000
01000000
00000000
10000000
00000000
,
00100000
01000000
00200000
02000000
00000000
00000000
00000000
00000000
,
00000000
00000000
03300000
00000000
;
