#TITLE:Fantasy Spaceship;
#SUBTITLE:;
#ARTIST:Creamy;
#TITLETRANSLIT:;
#SUBTITLETRANSLIT:;
#ARTISTTRANSLIT:;
#GENRE:Pop;
#CREDIT:;
#BANNER:;
#BACKGROUND:;
#LYRICSPATH:;
#CDTITLE:;
#MUSIC:Fantasy Spaceship.mp3;
#OFFSET:-0.919000;
#SAMPLESTART:38.700001;
#SAMPLELENGTH:11.999990;
#SELECTABLE:YES;
#BPMS:0.000000=138.000000
;
#STOPS:84.000000=0.870000,
150.000000=0.870000
;
#BGCHANGES:;
#KEYSOUNDS:;
#ATTACKS:;

//---------------dance-single - ----------------
#NOTES:
     dance-single:
     :
     Hard:
     12:
     0.494774,0.558694,0.212836,0.154790,0.207999,358.000000,336.000000,22.000000,16.000000,0.000000,0.000000,0.494774,0.558694,0.212836,0.154790,0.207999,358.000000,336.000000,22.000000,16.000000,0.000000,0.000000:
0000
0000
0000
0000
0000
0000
0100
0010
,
0110
0000
1000
0001
0100
0001
0010
0001
,
0000
1010
0000
0000
0000
0000
0001
1000
,
0010
0000
1000
0010
0000
0100
0001
1000
,
0000
1100
0000
0000
0000
0000
0001
0010
,
0200
0000
0000
0000
0300
0000
0010
0001
,
0200
0000
0310
0001
0000
0010
0000
1000
,
0001
0000
0000
0001
0000
0000
1000
0000
0000
1000
0000
0000
0010
0000
0100
0000
,
0220
0000
0000
0000
0000
0000
0330
1000
,
0100
0000
1000
0100
0001
0000
0100
0001
,
0100
0001
0100
1000
0100
1000
0010
0100
,
0001
0000
0001
0100
1000
0000
0001
0100
,
1000
0100
1000
0100
0001
0100
0001
1000
,
0020
0000
0130
0010
0100
0000
0010
1000
,
0020
0000
0031
0010
0002
0000
0013
1000
,
0100
1000
0100
0000
0010
0000
0001
0000
0100
0001
0100
0000
0010
0000
1000
0000
,
0100
1000
0100
0000
0010
0000
0001
0000
0100
0001
0100
0000
0010
0000
0000
0000
,
1000
0000
0000
1000
0001
0000
0000
0001
0100
0000
0000
0100
0001
0000
0000
0001
,
1000
0010
0100
0010
1000
0000
0001
1000
,
0001
0000
0000
0001
1000
0000
0000
1000
0100
0000
0000
0100
1000
0000
0000
1000
,
0001
0100
0001
0100
0010
1000
0010
1000
,
2002
3003
0010
0100
0110
0000
1000
0100
,
0001
0100
1000
0001
0000
1001
0000
0101
,
0000
0010
1000
0100
0010
0000
0100
1000
,
0000
0010
0100
0001
0000
1100
0000
1001
,
0000
0010
1000
0001
0200
0000
1000
0000
,
0001
0000
1300
0100
0001
0000
0010
1000
,
0000
0000
0100
0000
0000
0000
0001
0000
1000
0000
0000
1000
0000
0000
0010
0000
,
0000
0010
0000
0000
0100
0000
0001
0000
0010
0000
0000
0010
0000
0000
0100
0000
,
1000
0000
0100
0000
0010
0000
0010
0000
0001
0000
0000
0001
0000
0000
1000
0000
,
0000
1000
0000
0000
0010
0000
0100
0000
0010
0000
0000
0010
0000
0000
0100
0000
,
0000
0100
0000
0000
0001
0000
1000
0000
0010
0000
0000
0010
0000
0000
0100
0000
,
0000
0100
0000
0000
0010
0000
1000
0000
0001
0000
0000
0001
0000
0000
0100
0000
,
1000
0000
0000
0100
0000
0000
0001
0000
1000
0000
0010
1000
0000
0010
1000
0000
,
0100
1000
0000
0100
1000
0000
0010
0000
0100
0000
0001
0010
0000
0001
0010
0000
,
0001
0100
0000
0001
0100
0000
0010
0000
1000
0000
0100
1000
0000
0100
1000
0000
,
0001
0010
0000
0001
0010
0000
0001
0000
0100
0000
0010
0000
1000
0000
0001
0000
,
0100
0010
1000
0001
0220
0330
1000
0100
,
1100
0000
0001
0100
1000
0100
0001
1000
,
0000
0000
1001
0000
0000
0000
1000
0000
0000
0001
0000
0000
0100
0000
0010
0000
,
1010
0000
0100
0001
0000
1000
0010
0101
,
0000
1010
0000
0001
1000
0000
0010
0100
,
0020
0000
1000
0000
0001
0000
1030
0010
,
0001
0000
0100
1000
0000
0010
0000
0001
,
1000
0000
0000
1000
0000
0000
0010
0000
0000
0010
0000
0000
0001
0000
0010
0000
,
1000
0100
0001
0100
1000
0100
0001
0100
,
1001
0000
1000
0010
0001
0010
1000
0001
,
0000
0000
1001
0000
0000
0000
0001
0000
0000
1000
0000
0000
0010
0000
0100
0000
,
0110
0000
0010
1000
0000
0001
0100
1010
,
0000
0101
0000
0001
1000
0000
0100
0010
,
0200
0000
0001
0000
1000
0000
0301
0100
,
1000
0000
0010
0001
0000
0100
0000
1000
,
0001
0000
0000
0001
0000
0000
0100
0000
0000
0100
0000
0000
1000
0000
0100
0000
,
0001
0010
1000
0010
0001
0010
1000
0010
,
2002
0000
0000
0000
,
3003
0000
0000
0000
;

//---------------dance-double - ----------------
#NOTES:
     dance-double:
     :
     Hard:
     12:
     0.525180,0.587959,0.251533,0.183813,0.290231,380.000000,354.000000,26.000000,19.000000,0.000000,0.000000,0.525180,0.587959,0.251533,0.183813,0.290231,380.000000,354.000000,26.000000,19.000000,0.000000,0.000000:
// measure 0
00000000
00000000
00000000
00000000
00000000
00000000
00001000
00010000
,  // measure 1
00011000
00000000
00001000
00010000
00000100
00000010
00000001
00000100
,  // measure 2
00000000
00001100
00000000
00000000
00000000
00000000
00010000
01000000
,  // measure 3
10000000
00000000
01000000
10000000
00000000
01000000
00010000
00001000
,  // measure 4
00000000
00001010
00000000
00000000
00000000
00000000
00000001
00001000
,  // measure 5
00001020
00000000
00000000
00000000
00000000
00000000
00000130
00000010
,  // measure 6
00000110
00000000
00000010
00010000
00000000
00010010
00000000
00022000
,  // measure 7
00000000
00000000
00000000
00000000
00000000
00033000
00100000
01000000
,  // measure 8
22000000
00000000
00000000
00000000
00000000
00000000
33000000
10000000
,  // measure 9
00100000
00000000
10000000
00100000
00010000
00000000
00100000
00010000
,  // measure 10
00001000
00000010
00000001
00000010
00001000
00010000
00100000
00010000
,  // measure 11
00001000
00000000
00010000
00001000
00000010
00000000
00001000
00000010
,  // measure 12
00000001
00000100
00001000
00010000
00001000
00000100
00000001
00000100
,  // measure 13
00002000
00000000
00013000
00100000
10000000
00000000
10000000
01000000
,  // measure 14
00020000
00000000
00031000
00000010
00000001
00000000
00000001
00000100
,  // measure 15
00002000
00000000
00000000
00000000
00013000
00001000
00010000
00000000
00001000
00100000
00001000
00000000
00100000
01000000
00100000
00000000
,  // measure 16
00001000
00010000
00001000
00000000
00010000
00000010
00010000
00000000
00000010
00000100
00000010
00000000
00001000
00000000
00000000
00000000
,  // measure 17
00000001
00000000
00000000
00000001
00000100
00000000
00000000
00000100
00001000
00000000
00000000
00001000
00010000
00000000
00000000
00010000
,  // measure 18
01000000
00000000
10000000
00010000
10010000
00000000
10000000
01000000
,  // measure 19
10000000
00000000
00000000
10000000
00100000
00000000
00000000
00100000
00010000
00000000
00000000
00010000
00001000
00000000
00000000
00001000
,  // measure 20
00000010
00000001
00000100
00000010
00010000
00001000
00010000
00000000
,  // measure 21
00002000
00003000
00011000
00001000
00100000
00000000
11000000
10000000
,  // measure 22
00100000
01000000
00100000
01000000
00000000
00210000
00000000
00301000
,  // measure 23
00000000
00010000
00000000
00000000
00001000
00000000
00000100
00000000
00000002
00000000
00000000
00000000
00000103
00000000
00002000
00000000
,  // measure 24
00000000
00013000
00100000
10000000
00000000
10100000
00000000
01000000
,  // measure 25
00010000
00000000
00001000
00000010
00000002
00000000
00000100
00000000
,  // measure 26
00001003
00000000
00000001
00000100
00001100
00000000
00001000
00010000
,  // measure 27
00000000
00000000
01010000
00000000
00000000
00000000
01000000
00000000
10000000
00000000
00000000
00100000
00000000
00000000
10000000
00000000
,  // measure 28
00000000
01000000
00000000
00000000
00010000
00000000
00001000
00000000
00000010
00000000
00000000
00000010
00000000
00000000
00000001
00000000
,  // measure 29
00001000
00000001
00001000
00000000
00000001
00001000
00000001
00000000
00000100
00000010
00000000
00000100
00000010
00000000
00001000
00000001
,  // measure 30
00000000
00001000
00000001
00000000
00000100
00000000
00001000
00000000
00010000
00001000
00000000
00010000
00001000
00000000
00100000
01000000
,  // measure 31
00000000
00100000
01000000
00000000
10000000
00000000
00100000
00000000
01000000
00001000
00000000
01000000
00001000
00000000
00010000
00001000
,  // measure 32
00000000
00010000
00001000
00000000
00000010
00000000
00000001
00000000
00000100
00000010
00000000
00000100
00000010
00000000
00010000
00000000
,  // measure 33
00001000
00010000
00000000
00001000
00010000
00000000
00001000
00000000
01000000
00100000
00000000
10000000
01000000
00000000
00100000
00010000
,  // measure 34
00000000
01000000
00010000
00000000
00100000
00000000
00001000
00000000
00010000
00001000
00000000
00010000
00000010
00000000
00000100
00000000
,  // measure 35
00000001
00000010
00000000
00000100
00010000
00000000
00001000
00000000
00010000
00000000
00000000
01000000
00000000
00000000
10000000
00000000
,  // measure 36
00000000
00010000
00000000
00000000
01000000
00000000
00100000
00000000
10000000
00010000
10000000
00010000
10000000
00000000
00000000
00000000
,  // measure 37
00100000
01000000
00100000
01000000
00100000
00000000
10000000
00000000
10010000
00000000
00000000
00000000
00011000
00000000
00010000
00000000
,  // measure 38
00000010
00000000
00000100
00000001
00000010
00001000
00010000
00011000
,  // measure 39
00000000
00000000
01001000
00000000
00000000
00000000
01000000
00100000
00000000
01000000
00100000
00000000
10000000
00000000
01000000
00000000
,  // measure 40
00010000
00000000
01000000
00010000
00000000
00001000
00000010
00000011
,  // measure 41
00000000
00000101
00000000
00000010
00001000
00000000
00000001
00000100
,  // measure 42
00002000
00000000
00010000
00000000
01003000
00000000
00001000
00010000
,  // measure 43
01000000
00000000
10000000
00200000
00000000
00320000
00000000
00031000
,  // measure 44
00000010
00000000
00000000
00000010
00000000
00000000
00000001
00000000
00000000
00000001
00000000
00000000
00000100
00000000
00000001
00000000
,  // measure 45
00001000
00000001
00000100
00000010
00001000
00000001
00000100
00000000
,  // measure 46
00000010
00000000
00001000
00010000
00100000
10000000
00010000
10010000
,  // measure 47
00000000
00000000
01001000
00000000
00000000
00000000
00001000
00010000
00000000
00001000
00010000
00000000
00100000
00000000
01000000
00000000
,  // measure 48
00020000
00000000
01030000
00100000
00000000
00010000
00001000
00001010
,  // measure 49
00000000
00000011
00000000
00001000
00000001
00000000
00000100
00001000
,  // measure 50
00020000
00000000
00100000
00000000
10030000
00000000
00010000
00100000
,  // measure 51
10000000
00000000
01000000
00010000
00000000
00011000
00000000
00001000
,  // measure 52
00000010
00000001
00000000
00000010
00000001
00000000
00000100
00000001
00000000
00000100
00000001
00000000
00000100
00000000
00000010
00000000
,  // measure 53
00000100
00001000
00010000
00100000
10000000
01000000
00100000
00000000
,  // measure 54
00002000
00000000
00000000
00000000
,  // measure 55
00000000
00003000
00000000
00000000
;

//---------------dance-single - ----------------
#NOTES:
     dance-single:
     :
     Beginner:
     1:
     0.100890,0.156725,0.058046,0.000000,0.000000,73.000000,67.000000,6.000000,0.000000,0.000000,0.000000,0.100890,0.156725,0.058046,0.000000,0.000000,73.000000,67.000000,6.000000,0.000000,0.000000,0.000000:
0000
0000
0000
0000
,
0000
0000
0000
0000
,
0000
0000
0000
0000
,
0000
0000
0000
0000
,
0000
0000
0000
0000
,
0010
0000
0000
0000
,
0010
0000
0100
0000
,
0100
0000
0000
0000
,
1001
0000
0000
0000
,
1000
0000
1000
0000
,
1000
0000
0000
0000
,
1000
0000
1000
0000
,
1000
0000
0000
0000
,
0010
0000
0010
0000
,
0010
0000
0010
0000
,
0010
0000
0000
0000
,
0000
0000
0000
0000
,
0100
0000
0100
0000
,
0100
0000
0000
0000
,
0001
0000
0001
0000
,
0001
0000
0000
0000
,
1001
0000
0000
0000
,
0010
0000
0010
0000
,
0000
0000
0100
0000
,
0000
0000
0100
0000
,
0000
1000
1000
0000
,
0000
0001
0001
0000
,
0000
0000
0100
0000
,
0000
0000
0010
0000
,
0000
0000
0010
0000
,
0000
0000
0001
0000
,
0000
0000
1000
0000
,
0000
0000
0010
0000
,
0100
0000
0010
0000
,
0000
0000
1000
0000
,
0000
0000
0001
0000
,
0100
0000
0001
0000
,
0000
0000
1001
0000
,
0010
0000
0000
0000
,
0010
0000
0000
0100
,
0100
0000
0000
0000
,
1000
0000
0000
0000
,
1001
0000
0000
0000
,
0110
0000
0000
0000
,
0100
0000
0000
0000
,
0001
0000
0000
0000
,
1000
0000
0000
0000
,
0010
0000
0000
1000
,
1000
0000
0000
0000
,
0001
0000
0000
0010
,
0010
0000
0000
0100
,
0100
0000
0000
0000
,
0110
0000
0000
0000
,
0000
0001
0001
0001
,
0001
0000
0000
0000
;

//---------------dance-single - ----------------
#NOTES:
     dance-single:
     :
     Medium:
     6:
     0.259826,0.345858,0.222510,0.116092,0.000000,188.000000,165.000000,23.000000,12.000000,0.000000,0.000000,0.259826,0.345858,0.222510,0.116092,0.000000,188.000000,165.000000,23.000000,12.000000,0.000000,0.000000:
0000
0000
0000
0000
,
0000
0000
0000
0000
,
0000
0000
0000
0000
,
0000
0000
0000
0000
,
0000
0000
0000
0000
0000
0000
0010
0100
,
2000
0000
0000
0000
0000
0000
3100
0010
,
0001
0000
0001
1000
0000
0010
0000
0200
,
0000
0000
0000
0300
,
2002
0000
0000
3003
,
1100
0000
1010
0000
,
1000
0000
0100
0000
0010
0001
0010
0000
,
0011
0000
0101
0000
,
0001
0000
0010
0000
0100
1000
0100
0000
,
1100
0000
0110
0000
,
0011
0000
1001
0000
,
0110
0000
0000
0000
,
0000
0000
0010
0010
,
1000
0100
0001
0010
,
1000
0000
0000
0000
0000
0000
0001
1000
,
0001
0100
1000
0010
,
0001
0000
0000
0000
,
1001
0000
0010
0100
0001
0000
0100
0000
,
0010
0000
1000
0001
0000
1001
0000
0000
,
0000
0000
0100
0010
1000
0000
0100
0010
,
0000
0001
0000
1000
0000
1001
0000
0000
,
0000
0000
0010
0100
0020
0000
0000
0000
,
0030
0000
1000
0100
1000
0000
0001
0010
,
0000
1000
0000
0200
0000
0000
0000
0000
,
0300
0000
0001
0000
,
1000
0001
1001
0000
,
0000
0000
0010
1000
0100
0000
0000
0000
,
0000
0000
0010
0001
0100
0000
0000
0000
,
0000
0000
0010
1000
0001
0000
0000
0100
,
0010
0000
0000
0100
1000
0000
0010
0000
,
0100
0000
0001
1000
0001
0000
1000
0100
,
1000
0000
0010
0100
0010
0000
1000
0000
,
0001
1000
0220
0000
,
0000
0000
0330
0000
1001
0000
0010
0100
,
1000
0000
0100
0010
0001
0010
0100
1000
,
0000
1001
0000
0000
0000
0000
0010
0100
,
0001
0000
0100
0010
0000
1000
0000
0001
,
0000
1001
0000
0000
0000
0000
0010
0100
,
0020
0000
0000
0000
0030
0000
1000
0001
,
1000
0000
0100
0001
0000
0010
0000
1000
,
0000
0000
0000
0000
,
0000
0001
1000
0010
,
1010
0000
0100
0010
0001
0010
0100
1000
,
0000
1001
0000
0000
0000
0000
1000
0001
,
0100
0000
0010
1000
0000
0100
0000
0010
,
0000
0011
0000
0000
0000
0000
0001
1000
,
0020
0000
0000
0000
0000
0000
0130
0001
,
1000
0000
0010
0001
0000
0100
0000
1000
,
0000
0000
0000
0000
,
0000
0010
0100
0101
,
2020
0000
0000
0000
,
3030
0000
0000
0000
;

//---------------dance-double - ----------------
#NOTES:
     dance-double:
     :
     Medium:
     7:
     0.269500,0.391812,0.261208,0.203162,0.000000,195.000000,168.000000,27.000000,21.000000,0.000000,0.000000,0.269500,0.391812,0.261208,0.203162,0.000000,195.000000,168.000000,27.000000,21.000000,0.000000,0.000000:
00000000
00000000
00000000
00000000
,
00000000
00000000
00000000
00000000
,
00000000
00000000
00000000
00000000
,
00000000
00000000
00000000
00000000
,
00000000
00000000
00000000
00000000
00000000
00000000
00000010
00000100
,
00000002
00000000
00000000
00000000
00000003
00000000
00000100
00001000
,
00010000
00000000
00100000
10000000
00000000
00010000
00000000
02000000
,
00000000
00000000
00000000
00000000
,
03200000
00000000
00000000
00000000
00000000
00000000
00300000
00010000
,
00001000
00000000
00000000
00010000
00001000
00000000
00000000
00000010
,
00000001
00000000
00000100
00001000
00010000
00000000
01000000
10000000
,
01000000
00000000
00000000
10000000
01000000
00000000
00000000
10000000
,
00100000
00000000
00010000
00000000
00001000
00000000
00000010
00000001
,
00000002
00000000
00000003
00000100
00000200
00000000
00000300
00000010
,
00000020
00000000
00000030
00010000
00020000
00000000
00030000
00001000
,
00002000
00000000
01000000
01003000
,
00100000
10000000
01000000
00010000
,
00001000
00010000
00011000
00010010
,
00000110
00000000
00000010
00000000
00000100
00000000
00010000
00001000
,
01000000
01010000
10100000
10010000
,
02200000
00000000
00000000
03300000
,
10010000
00000000
10000000
01000000
00010000
00000000
01000000
00010000
,
00001000
00000000
00000010
00000001
00000000
00000001
00000000
00000000
,
00000000
00000000
00000001
00000100
00001000
00000000
00000100
00001000
,
00000000
00010000
01000000
10000000
00000000
10000000
00000000
00000000
,
00000000
10100000
02020000
00000000
,
03030000
00000000
10000000
00100000
10000000
00000000
01000000
00100000
,
00000000
00001000
00000000
00022000
00000000
00000000
00000000
00000000
,
00000000
00033000
00000010
00000000
,
00000100
00000001
00000100
00000001
00000100
00000000
00000000
00000000
,
00000000
00000000
00011000
00000000
,
00000000
00000000
01001000
00000000
,
00000000
00000000
10100000
00000000
,
11000000
00000000
01100000
00001000
,
00010000
00001000
00000010
00000001
,
00000010
00000001
00000100
00001000
,
00010000
01000000
20000000
00000000
,
00000000
00000000
30010000
01000000
,
01100000
00000000
00100000
01000000
00100000
01000000
00000000
00001000
,
00000000
00011000
00000000
00000000
00000000
00000000
00010000
00000010
,
00000100
00000000
00000001
00000010
00000000
00000100
00000000
00010100
,
00000000
00011000
00000000
00000000
00000000
00000000
00002000
00000000
,
00100000
00003000
00000000
00200000
,
00001000
00000000
00301000
00010000
00000000
00000010
00000000
00000200
,
00000000
00000000
00000000
00000300
,
00000000
00000001
00000100
00001000
,
00010000
00000000
01000000
10000000
01000000
10000000
00000000
10100000
,
00000000
01010000
00000000
00000000
00000000
00000000
10000000
00100000
,
01000000
00000000
00001000
00010000
00000000
00000010
00000000
00010010
,
00000000
00000101
00000000
00000000
00000000
00000000
00000010
00000100
,
00002000
00000000
00000000
00000000
00000000
00000000
00003010
00010000
,
00001000
00000000
01000000
00100000
00000000
10100000
00000000
02020000
,
00000000
00000000
03030000
00000000
,
00000000
01000000
00100000
00001000
,
00011000
00000000
00000000
00000000
;

//---------------dance-single - ----------------
#NOTES:
     dance-single:
     :
     Easy:
     4:
     0.153408,0.211868,0.135441,0.135441,0.000000,111.000000,97.000000,14.000000,14.000000,0.000000,0.000000,0.153408,0.211868,0.135441,0.135441,0.000000,111.000000,97.000000,14.000000,14.000000,0.000000,0.000000:
0000
0000
0000
0000
,
0000
0000
0000
0000
,
0000
0000
0000
0000
,
0000
0000
0000
0000
,
0000
0000
0000
0010
,
0110
0000
0000
0100
,
0110
0000
0000
0010
,
2000
0000
0000
3000
,
0002
0000
0000
0003
,
1000
0000
0100
0000
,
0001
0100
1000
0000
,
0001
0000
0100
0000
,
1000
0100
0001
0000
,
1000
0000
0001
0000
,
0101
0000
1010
0000
,
1001
0000
0000
0000
,
0000
0000
0000
0000
,
0100
0100
0010
0010
,
0100
0000
0000
0001
,
1000
1000
0001
0001
,
2000
0000
0000
0000
,
3010
0100
0101
0000
,
0001
0010
0100
0000
,
0000
0010
0100
0000
,
0000
0000
0000
1000
0000
0001
0000
0000
,
0000
1000
1010
0000
,
0000
0001
0101
0000
,
0000
0100
0000
0010
0000
0000
0000
0000
,
0000
0000
0000
0000
,
0000
0000
2000
0000
,
0000
3010
0200
0000
,
0000
0000
0302
0000
,
0000
0000
0023
0000
,
0230
0000
1300
0010
,
0100
0000
0001
0000
,
1000
0000
0001
0000
,
0000
0000
0110
0000
,
0000
0000
1001
0010
,
0100
0000
0010
0100
,
1000
0000
0000
0001
,
0001
0000
0000
0000
,
1001
0000
0000
0100
,
0020
0000
0000
0031
,
0200
0000
0320
0000
,
2030
0000
3000
0000
,
0000
0010
0010
0010
,
0110
0000
0100
0001
,
1000
0000
0000
0010
,
0100
0000
0010
1000
,
0001
0000
0000
1000
,
1100
0000
0000
0001
,
0101
0000
0100
0000
,
0010
0000
0000
0000
,
0000
0020
0000
0000
,
2000
0000
0000
3030
;

//---------------dance-double - ----------------
#NOTES:
     dance-double:
     :
     Easy:
     3:
     0.123003,0.186231,0.019349,0.096744,0.000000,89.000000,87.000000,2.000000,10.000000,0.000000,0.000000,0.123003,0.186231,0.019349,0.096744,0.000000,89.000000,87.000000,2.000000,10.000000,0.000000,0.000000:
00000000
00000000
00000000
00000000
,
00000000
00000000
00000000
00000000
,
00000000
00000000
00000000
00000000
,
00000000
00000000
00000000
00000000
,
00000000
00000000
00000000
01000000
,
00010000
00000000
00000000
00100000
,
00001000
00000000
00010000
00000000
,
00000010
00000000
00000000
00000000
,
00000220
00000000
00000000
00000330
,
00000010
00000000
00001000
00000000
,
00000010
00000000
00010000
00010000
,
00001000
00000000
01000000
00000000
,
00010000
00000000
10000000
10000000
,
02000000
00000000
03200000
00000000
,
00302000
00000000
00023000
00000000
,
00030020
00000000
00000030
00000000
,
00000000
00000000
00000000
00000000
,
00000001
00000010
00000100
00010000
,
00010000
00000000
00000000
00010000
,
00001000
00100000
01000000
10000000
,
20000000
00000000
00000000
00000000
,
30010000
01000000
01000000
00000000
,
00000000
00000000
00100000
00000000
,
00000000
00001000
00001000
00000000
,
00000000
00000000
00010000
00000000
,
00000000
00000010
00000010
00000000
,
00000000
00000000
00000100
00000000
,
00000010
00000000
00000100
00000000
,
00000000
00000000
00000000
00000000
,
00000000
00000000
00001001
00000000
,
00000000
00000010
00000000
00000000
,
00000000
00010000
00000000
00000000
,
00000000
00001000
00000000
00000000
,
00000000
00000000
01000000
00000000
,
00000000
00000000
00100000
00000000
,
10000000
00000000
00010000
00000000
,
00000000
00000000
02000000
00000000
,
00000000
00000000
03100000
10000000
,
10000000
00000000
00010000
00000000
,
00010000
00000000
00000000
01000000
,
01000000
00000000
00001000
00000000
,
00001000
00000000
00000000
00010000
,
00010000
00000000
00000000
00000000
,
00000010
00000000
00000100
00000000
,
00000010
00000000
00000000
00000000
,
00000000
00001000
00000001
00001000
,
00000001
00000000
00000100
00000000
,
00000100
00000000
00000000
00000010
,
00000010
00000000
00010000
00000000
,
00010000
00000000
00000000
00001000
,
00001000
00000000
00000000
00000000
,
01000000
00000000
00100000
00000000
,
01000000
00000000
00000000
00000000
,
00000000
10000000
00010000
10000000
,
00020000
00000000
00000000
00000000
,
00030000
00000000
00000000
00000000
;
