#TITLE:Exhaust Hype;
#SUBTITLE:;
#ARTIST:DJ Noriken;
#TITLETRANSLIT:;
#SUBTITLETRANSLIT:;
#ARTISTTRANSLIT:;
#GENRE:House;
#CREDIT:;
#BANNER:exhausthype-bn.png;
#BACKGROUND:exhausthype-bg.png;
#LYRICSPATH:;
#CDTITLE:;
#MUSIC:Exhaust Hype.mp3;
#OFFSET:-0.049000;
#SAMPLESTART:14.721000;
#SAMPLELENGTH:11.999990;
#SELECTABLE:YES;
#BPMS:0.000000=147.000000
,96.000000=73.500000
,112.000000=147.000000
;
#STOPS:96.000000=1.224000,
173.000000=0.816000
;
#BGCHANGES:;
#KEYSOUNDS:;
#ATTACKS:;

//---------------dance-single - ----------------
#NOTES:
     dance-single:
     :
     Challenge:
     17:
     0.916688,1.638483,0.484461,0.054845,1.343693,702.000000,649.000000,53.000000,6.000000,0.000000,0.000000,0.916688,1.638483,0.484461,0.054845,1.343693,702.000000,649.000000,53.000000,6.000000,0.000000,0.000000:
0000
0000
0000
0000
,
0000
0000
0000
0000
,
0000
0000
0000
0000
,
0000
0000
0000
0000
,
0000
0000
0000
0000
1000
0001
1100
0000
,
0010
0000
0010
1000
0010
0000
1000
0000
0100
0000
0100
0010
0000
0001
1000
0000
,
0100
0000
0100
0010
0100
0000
0010
0000
0001
0000
0001
0010
0000
0100
1000
0000
,
0010
0000
1000
0000
0010
0000
1000
0000
0100
1000
0100
0010
0001
0010
0100
0010
,
0001
0000
0000
0000
0000
0000
0000
0000
0000
0000
0000
0000
0000
0000
0000
0001
0010
0100
1000
0000
0000
0000
0000
0000
,
0110
0000
0000
0100
1000
0100
0010
0000
0000
0100
0010
0100
0000
0000
0001
0000
,
1000
0000
0101
0000
0000
0001
0010
0001
0000
0100
1000
0100
0000
0000
0001
0000
,
1000
0100
0010
0001
0100
0010
0000
1100
0000
0010
0100
0000
0001
0000
1100
0000
,
0001
0010
0100
1000
0010
0100
0000
0011
0000
0100
0010
0000
1000
0000
0011
0000
,
1001
0000
0010
0000
0000
0100
1000
0100
0000
0001
0100
0001
0000
0000
1000
0000
,
0101
0000
0010
0000
0000
1000
0010
1000
0000
0010
0001
0010
0000
0000
0100
0000
,
1100
0000
0010
0000
0100
0000
0010
1000
0001
0000
0000
0001
0100
0000
0010
0000
,
0101
0010
1000
0100
0011
0100
1000
0000
,
0210
0000
0300
0000
0100
0000
0001
0010
0000
0001
1000
0001
0000
0000
1100
0000
,
0011
0000
0100
1000
0000
0010
1000
0010
0000
0100
0001
0100
0000
0000
0010
0000
,
0100
1000
0001
0010
0100
0010
0000
0101
0000
0010
0100
0000
1000
0000
0101
0000
,
0010
0001
1000
0100
0010
0100
0000
1010
0000
1000
0001
0000
0100
0000
0100
0000
,
0011
0000
1000
0000
0000
0001
0100
0001
0000
0100
1000
0100
0000
0000
1001
0000
,
1010
0000
0001
0000
0000
1000
0100
1000
0000
0100
0001
0100
0000
0000
0010
0000
,
1100
0000
0010
1000
0100
0000
0010
0001
0100
0000
0100
0010
0000
0010
1000
0000
,
1001
0000
0000
0000
1100
0000
0000
0000
0010
0001
0010
0001
0100
0010
0100
0010
1000
0100
1000
0100
0010
0001
0010
0001
0100
0010
0100
0010
1000
0100
1000
0100
,
1000
0001
1000
0001
2000
0000
3000
0000
0100
1000
0100
1000
0001
0010
0001
0010
0100
0010
0100
0010
0100
1000
0100
1000
0001
0010
0001
0010
0100
0010
0100
0010
,
0100
0000
1000
0000
0010
1000
0010
0100
0010
0000
0100
0001
0100
1000
0100
0000
0001
0010
0001
1000
0001
0000
0100
1000
0000
0100
1000
0000
0001
0100
0001
1000
,
0001
0000
0000
0000
0000
0000
0000
0000
0000
0000
0000
0000
1001
0000
0000
0000
0000
0000
0000
0000
0000
0000
0000
0000
1000
0000
0000
0000
0000
0000
0100
0000
0000
0000
0000
0000
0000
0000
0000
0000
0000
0000
0100
0000
0000
0000
0000
0000
0010
0000
0000
0000
0000
0000
0000
0000
0000
0000
0000
0000
0001
0000
0000
0000
0000
0000
0000
0000
0000
0000
0000
0000
1000
0000
0000
0000
0000
0000
0100
0000
0000
0000
0000
0000
0000
0000
0000
0000
0000
0000
0100
0000
0000
0000
0000
0000
0001
0000
0000
0000
0000
0000
0000
0000
0000
0000
0000
0000
1000
0000
0000
0000
0000
0000
0000
0000
0000
0000
0000
0000
0001
0000
0000
0000
0000
0000
0000
0000
0000
0000
0000
0000
0001
0000
0000
0000
0000
0000
0000
0000
0000
0000
0000
0000
1000
0000
0000
0000
0000
0000
0000
0000
0000
0000
0000
0000
1000
0000
0000
0000
0000
0000
0000
0000
0000
0000
0000
0000
0010
0000
0000
0000
0000
0000
0000
0000
0000
0000
0000
0000
0100
0000
0000
0000
0010
0000
0000
0000
0100
0000
0000
0000
,
0020
0000
0000
0000
0130
0000
0100
0000
0000
1001
0000
0000
0010
0100
0000
0100
,
1000
0000
0001
0000
0100
0000
0100
0000
0000
1001
0000
0000
0010
0100
0000
0100
,
0001
0000
0001
1000
0010
0000
0010
0000
0000
1001
0000
0000
0100
1000
0000
1000
,
0001
0000
0000
0000
0000
0000
0010
0000
0000
0000
0000
0000
0100
0000
0000
0000
0000
0000
0100
0000
0000
0000
0000
0000
0000
0000
0000
1001
0000
0000
0000
0000
0000
0000
0000
0000
0010
0000
0000
0000
0000
0000
0100
0000
0010
0000
1000
0000
,
0001
0000
1000
0000
1010
0000
1000
0100
0010
0000
1000
0100
0001
0000
0100
1000
,
0000
1000
0100
0000
1001
0000
0001
0010
0100
0000
0001
0100
1000
0000
0100
0001
,
0000
0001
0100
0000
1001
0000
0100
0001
1000
0000
0010
0000
1100
0000
0010
0100
,
0001
0000
0000
0000
0000
0000
1000
0000
0000
0000
0000
0000
0200
0000
0000
0000
0000
0000
0000
0000
0000
0000
0000
0000
0300
0000
0000
0000
0000
0000
0100
0000
0000
1000
0000
0000
0100
0000
0000
0010
0000
0000
0001
0000
0010
0000
0100
0000
,
1000
0000
0000
0000
0000
0000
0100
0000
0000
0000
0000
0000
1000
0000
0000
0010
0000
0000
0000
0000
0000
0010
0000
0000
1000
0000
0000
0000
0000
0000
1000
0000
0010
0000
0100
0000
0010
0000
0000
0000
0000
0000
0100
0000
0000
0001
0000
0000
,
0000
0001
1000
0000
0010
0000
0100
0000
0010
1000
0010
0100
0001
0000
0100
1000
,
0000
0000
0000
1000
0000
0000
0100
0000
0000
0000
0000
0000
0001
0000
0000
0000
0000
0000
1000
0000
0000
0000
0000
0000
0010
0000
0000
0000
0000
0000
0010
0000
0100
0000
0001
0000
0100
0000
0000
0000
0000
0000
0010
0000
0000
0100
0000
0000
,
0000
0000
0000
0100
0000
0000
1000
0000
0000
0000
0000
0000
0100
0000
0000
0000
0000
0000
0001
0000
0000
0000
0000
0000
0100
0000
0000
0001
0000
0000
0100
0000
0000
0001
0000
0000
1000
0000
0100
0000
0010
0000
0001
0000
0000
0000
0000
0000
,
0001
0000
1000
0000
0001
0000
1000
0000
0000
0000
0000
0000
1001
0000
0000
0000
0000
0000
0010
0000
0000
0100
0000
0000
0010
0000
0000
0001
0000
0000
0010
0000
0000
0100
0000
0000
0010
0000
0000
0100
0000
0000
1000
0000
0000
0001
0000
0000
,
0010
0100
0010
0000
1001
0000
0100
0010
0100
1000
0100
0010
0100
0010
0001
1000
,
0100
0010
0100
0000
1100
0000
0000
0000
0010
0100
0010
0000
0101
0000
0010
0100
,
1000
0000
0000
0100
0000
0000
0001
0000
0000
0000
0000
0000
1001
0000
0000
0000
0000
0000
0010
0000
0100
0000
0010
0000
1000
0000
0000
0000
0000
0000
1000
0000
0100
0000
0010
0000
0001
0000
0000
0000
0000
0000
0000
0000
0000
0000
0000
0000
,
0100
0000
0000
1000
0000
0000
0100
0000
0000
1000
0000
0000
0100
0000
0000
0001
0000
0000
1000
0000
0100
0000
0010
0000
0001
0000
0000
1000
0000
0000
0100
0000
0000
1000
0000
0000
0100
0000
0000
0000
0000
0000
0000
0000
0000
0000
0000
0000
,
0100
0000
0000
0001
0000
0000
0100
0000
0000
0001
0000
0000
0100
0000
0000
1000
0000
0000
0001
0000
0010
0000
0100
0000
1000
0000
0000
0001
0000
0000
0010
0000
0000
0100
0000
0000
1000
0000
0001
0000
0010
0000
0001
0000
0010
0000
0001
0000
,
1000
0100
1000
0001
0000
0000
0001
1000
0010
1000
0010
1000
0001
0100
0001
1000
0000
0000
1000
0001
0100
0001
0100
0001
,
1000
0010
1000
0001
0000
0000
0001
1000
0100
1000
0100
1000
0001
0010
0001
1000
0000
0000
0110
0000
0000
0000
0000
0000
,
0001
0000
0000
0100
0000
0000
1000
0000
0000
0100
0000
0000
0001
0000
0000
0000
0000
0000
0100
0000
0010
0000
0100
0000
0010
0000
0000
1000
0000
0000
0001
0000
0000
0100
0000
0000
0010
0000
0000
0000
0000
0000
0000
0000
0000
0000
0000
0000
,
1000
0000
0000
0010
0000
0000
0100
0000
0000
0010
0000
0000
1000
0000
0000
0000
0000
0000
0001
0000
1000
0000
0001
0000
1000
0000
0000
0100
0000
0000
0010
0000
0000
0001
0000
0000
0100
0000
0000
0000
0000
0000
0010
0000
0000
0000
0000
0000
,
0100
1000
0000
1000
0100
0000
0010
0001
0000
0001
0010
0000
1000
0000
0100
0000
,
0001
0100
0000
0100
1000
0000
0100
0001
0000
0001
0100
0000
2200
0000
3300
0000
,
1010
0000
0000
0000
0000
0000
0101
0000
0000
0000
0000
0000
0000
0000
0000
0011
0000
0000
0000
0000
0000
0001
0000
0000
0010
0000
0000
0100
0000
0000
1000
0000
0000
0000
0000
0000
1000
0000
0010
0000
0100
0000
0010
0000
0000
0000
0000
0000
,
0101
0000
1010
0000
0000
1100
0000
0000
1001
0000
1000
0010
0100
0010
1000
0000
,
0101
0000
0011
0000
0000
1010
0000
0000
0011
0000
0000
0001
0100
0010
0100
0001
,
1000
0000
1000
0000
0010
0100
0010
1000
0010
0001
0010
0001
0010
0000
1000
0100
,
0000
0100
0010
0000
0100
0010
0000
0100
1000
0000
0001
0000
0101
0000
0100
1000
,
0000
1000
0100
0000
0001
0010
0000
0100
0010
0000
0001
0000
0010
0000
0100
0000
,
1000
0000
0100
0000
0010
0001
0010
0100
1000
0100
0010
0100
1000
0000
0100
0000
,
0000
0000
0000
0001
0000
0000
0000
0000
0000
0000
0000
0000
0100
0000
0000
0000
0000
0000
1000
0000
0100
0000
0010
0000
0001
0000
0000
0000
0000
0000
0000
0000
0000
0000
0000
0000
1001
0000
0000
0000
0000
0000
0000
0000
0000
0000
0000
0000
;

//---------------dance-single - ----------------
#NOTES:
     dance-single:
     :
     Hard:
     14:
     0.665970,1.228862,0.237660,0.045704,0.717550,510.000000,484.000000,26.000000,5.000000,0.000000,0.000000,0.665970,1.228862,0.237660,0.045704,0.717550,510.000000,484.000000,26.000000,5.000000,0.000000,0.000000:
0000
0000
0000
0000
,
0000
0000
0000
0000
,
0000
0000
0000
0000
,
0000
0000
0000
0000
,
0000
0000
0000
0000
0010
0100
1010
0000
,
1001
0000
0010
0000
0100
0000
1000
0000
1001
0000
0100
0010
0000
0010
0001
0000
,
0101
0000
0010
0000
1000
0000
0100
0000
1100
0000
1000
0001
0000
0001
0100
0000
,
1001
0000
0100
0000
0001
0000
0100
0000
0010
1000
0010
1000
0010
1000
0010
1000
,
0001
0000
0000
0000
0000
0000
0000
0000
0000
0000
0000
0000
0000
0000
0000
1000
0001
1000
0001
0000
0000
0000
0000
0000
,
1000
0000
0010
0000
0000
0000
0100
0001
0000
0000
0001
1000
0000
0000
1000
0000
,
0010
0000
0001
0000
0000
0000
0010
1000
0000
0000
1000
0001
0000
0000
0001
0000
,
0100
0000
0010
0000
1000
0100
0000
0010
0000
0100
1000
0000
0001
0000
0001
0000
,
0100
0000
0001
0000
0010
0100
0000
1000
0000
0100
0010
0000
0001
0000
0100
0000
,
0101
0000
0010
0000
0000
0000
1000
0100
0000
0000
0100
0001
0000
0000
0100
0000
,
1000
0000
0010
0000
0000
0000
0100
1000
0000
0000
1000
0100
0000
0000
0100
0000
,
0001
0000
1000
0000
0010
0000
0100
0000
0010
1000
0000
1000
0001
0000
0010
0000
,
0100
0010
0001
0100
1001
0010
1000
0000
,
1200
0000
0000
0000
0310
0000
0001
1000
0000
0000
1000
0100
0000
0000
0100
0000
,
0001
0000
0100
0000
1000
0000
0010
0001
0000
0000
0001
0010
0000
0000
1000
0000
,
0001
0000
1000
0000
0100
0010
0000
0001
0000
0010
0100
0000
1000
0000
0010
0000
,
0100
0000
1000
0000
0100
0001
0000
0010
0000
0001
1000
0000
0010
0000
0010
0000
,
0110
0000
0100
0000
0000
0000
0001
0010
0000
0000
0010
1000
0000
0000
0010
0000
,
0001
0000
1000
0000
0000
0000
0100
0001
0000
0000
0001
0100
0000
0000
0100
0000
,
1000
0000
0001
0000
0010
0000
0100
0000
1000
0001
0000
1000
0001
0000
0100
0000
,
1010
0000
1100
0000
0100
0100
1000
1000
0010
0010
0100
0100
0010
0010
0001
0001
,
0010
0010
1001
0000
0001
0001
0100
0100
0010
0010
0100
0100
1000
1000
0100
0100
,
0001
0000
0001
0000
1000
0100
1000
0100
1000
0000
0010
0100
0010
0100
0010
0000
0100
0001
0100
0001
0100
0000
0010
1000
0000
0001
0100
0000
0010
0100
0010
0100
,
0010
0000
1000
0000
0001
0000
0100
0000
0010
1000
0000
0010
1000
0000
0100
0010
0000
0100
0010
0000
0001
0000
1000
0000
0001
0000
1000
0000
1001
0000
0010
0000
,
0200
0000
0000
0000
0301
0000
0010
0000
0000
0100
0000
0000
1000
0000
0000
0100
,
0000
0000
0001
0000
0100
0000
0010
0000
0000
0001
0000
0000
0100
0000
0000
1000
,
0000
0000
0100
0000
0001
0000
0100
0000
0000
0010
0000
0000
0001
0000
0000
0010
,
0000
0000
1000
0000
0010
0000
0100
0000
0000
0001
0000
0000
0010
0000
0001
1000
,
0001
0000
1000
0000
0100
0000
1000
0000
1100
0000
0000
0000
0011
0000
0000
0001
,
0000
0000
0001
0000
0010
0000
0100
0000
0110
0000
0000
0000
1100
0000
0000
1000
,
0000
0000
1000
0000
0001
0000
0010
0000
0011
0000
0000
0000
1001
0000
0000
1000
,
0000
0000
0001
0010
0200
0000
0000
0000
0000
0000
0000
0000
0310
0000
0100
0010
,
0100
0000
1000
0000
0010
0000
0100
0000
0001
0000
1000
0000
0010
1000
0000
1000
,
0100
0000
0010
0000
0100
0000
1000
0000
0001
0000
0010
0000
0100
0010
0000
0010
,
0001
0000
0100
0000
0010
0000
1000
0000
0001
0000
1000
0000
0010
1000
0000
1000
,
0001
0000
0100
0000
0101
0000
0000
0000
0010
1000
0010
1000
0010
0100
0001
0000
,
1000
0001
1000
0000
1000
0000
0100
0000
0010
0000
0001
0000
1000
0000
0100
0000
,
0010
0001
0001
0010
0100
1000
0001
0010
,
0100
1000
0100
1000
0100
0000
0000
0000
1000
0010
1000
0010
1000
0000
0001
0100
,
0001
0000
0000
0100
0000
0000
0001
0000
0000
0000
0000
0000
1000
0000
0000
0000
0000
0000
0010
0000
0100
0000
0010
0000
0100
0000
0000
0000
0000
0000
0100
0000
0010
0000
0100
0000
0010
0000
0000
0000
0000
0000
0000
0000
0000
0000
0000
0000
,
0100
0001
0100
0001
0100
0000
0010
1000
0010
0000
0100
0000
0001
0000
0000
0000
,
0010
1000
0010
1000
0010
0000
0100
0001
0100
0000
0010
0000
1000
0000
0000
1000
,
0001
0000
1000
0000
0000
0000
0000
0001
1000
0000
0001
0000
0000
0000
0000
1000
,
0001
0000
1000
0000
0000
0000
0000
0001
1000
0000
0001
0000
1001
0000
0000
0000
,
0010
1000
0010
1000
0010
0000
0100
0001
1000
0000
0010
0000
0100
0000
0000
0000
,
0100
0001
0100
0001
0100
0000
0010
1000
0001
0000
1000
0000
0100
0000
0010
0000
,
0000
0001
0000
0000
1000
0000
0000
0100
0000
0000
0010
0000
0100
0000
0100
0000
,
0000
1000
0000
0000
0010
0000
0000
0100
0000
0000
0001
0000
0101
0000
0000
0000
,
0001
1000
0001
0000
0000
1000
0000
0000
0010
0000
0100
0000
0010
1000
0010
0000
,
0100
0000
0100
0000
0000
0001
0000
0000
1000
0000
0100
0010
0001
0000
0000
1000
,
0001
1000
0001
0000
0000
1000
0000
0000
0100
0000
0010
0000
0100
1000
0100
1000
,
0100
0000
1000
0000
0100
0010
0001
0100
0010
1000
0001
0000
1001
0000
0000
0000
,
0010
0000
0000
0000
0100
0000
0000
0100
0000
0000
0100
0000
0001
0000
0000
0000
,
1000
0000
0000
0000
0100
0000
0000
0100
0000
0000
0100
0000
1000
0000
0010
0000
,
0100
0000
0001
0000
1000
0001
1000
0001
1000
0010
0100
0000
2002
0000
0000
0000
,
0000
0000
0000
0000
0000
0000
3003
0000
0000
1000
0001
1000
0001
0000
0000
0000
0000
0000
0110
0000
0000
0000
0000
0000
;

//---------------dance-single - ----------------
#NOTES:
     dance-single:
     :
     Medium:
     11:
     0.446592,0.846549,0.365631,0.000000,0.169104,342.000000,302.000000,40.000000,0.000000,0.000000,0.000000,0.446592,0.846549,0.365631,0.000000,0.169104,342.000000,302.000000,40.000000,0.000000,0.000000,0.000000:
0000
0000
0000
0000
,
0000
0000
0000
0000
,
0000
0000
0000
0000
,
0000
0000
0000
0000
,
0000
0000
0000
0000
0010
0100
1001
0000
,
1000
0000
0000
0000
0100
0000
0000
0000
1000
0000
0000
1000
0000
0000
1000
0000
,
0001
0000
0000
0000
0100
0000
0000
0000
0001
0000
0000
0001
0000
0000
0001
0000
,
0100
0010
0100
0010
1000
0010
1000
0010
,
1000
0000
0000
0101
,
1010
0000
0000
1000
0000
0100
0000
0101
,
0000
0000
0000
1000
0000
0010
0000
0011
,
0000
0000
1000
0100
0010
0001
1000
0000
,
0110
0000
0001
0010
0100
1000
0001
0000
,
0110
0000
0000
0100
0000
0010
0000
1100
,
0000
0000
0000
0010
0000
0100
0000
0011
,
0000
0000
0001
1000
0100
0000
0100
0000
,
1001
0000
1000
0001
0100
0000
0101
0000
,
0011
0000
0000
0001
0000
0100
0000
1100
,
0000
0000
0000
0001
0000
0010
0000
1010
,
0000
0000
0001
1000
0100
0010
0100
0000
,
1001
0000
1000
0001
0100
0010
0100
0100
,
0110
0000
0000
1000
0000
0100
0000
0101
,
0000
0000
0000
1000
0000
0010
0000
0011
,
0000
0000
0000
0000
1000
0000
0010
0000
1000
0000
0000
1000
0000
0000
1000
0000
,
0000
0000
0101
0000
0001
0001
0010
0010
0001
0001
0010
0010
0100
0100
1000
1000
,
0001
0000
1010
0000
1000
1000
0100
0100
1000
1000
0100
0100
0010
0010
0001
0001
,
1000
0000
0010
0000
1010
0000
0100
0000
0101
0000
0010
0000
1010
0000
1000
0001
,
1000
1100
0000
0011
0000
1000
0001
0011
,
1100
0000
0000
0000
0010
0000
1000
0000
0000
1000
0000
0000
0010
0000
0000
0010
,
0000
0000
0010
0000
0100
0000
0001
0000
0000
0001
0000
0000
1000
0000
0000
1000
,
0000
0000
1000
0000
0010
0000
0100
0000
0000
0100
0000
0000
0001
0000
0000
0001
,
0000
0000
0001
0000
1000
0000
0100
0000
0000
0100
0000
0000
0010
0000
0010
0000
,
0100
0000
0000
0000
1000
0000
0000
0000
1000
0000
0000
0000
1000
0000
0000
0001
,
0000
0000
1000
0000
0001
0000
0000
0000
0001
0000
0000
0000
0001
0000
0000
0100
,
0000
0000
0001
0000
0100
0000
0000
0000
0100
0000
0000
0000
0100
0000
0000
0010
,
0000
0100
0010
0000
0000
0000
0001
0100
,
0010
0000
0000
0000
1100
0000
0000
0000
0000
0000
0000
0000
1000
0000
0000
1000
,
0000
0000
0001
0000
0001
0000
0000
0000
0100
0000
0000
0000
0001
0000
0000
0001
,
0000
1000
1000
0000
1001
0000
0010
0100
,
0001
1000
0010
0000
1000
0100
1100
0000
,
1001
0000
0001
0000
1000
0000
0100
1000
,
0100
1000
0100
0000
0010
0000
0100
0001
,
0100
0001
0100
0000
0010
1000
0001
0000
,
0100
0001
1001
0000
1000
0000
0001
0000
,
1000
0100
1000
0010
1000
0100
1000
0000
,
0001
0100
0001
0010
0001
0100
0001
0000
,
1000
0100
0000
0000
0001
0100
0000
0000
,
1000
0100
0000
0000
0001
0100
1000
0000
,
0001
0001
0000
1000
1000
0000
0110
0000
,
1000
1000
0000
0001
0001
0000
1000
0100
,
0000
1000
0000
0000
0010
0000
0000
0010
0000
0000
0100
0000
0001
0000
0100
0000
,
0000
0001
0000
0000
1000
0000
0000
1000
0000
0000
0001
0000
0001
0000
0000
0000
,
1000
0000
0010
0000
0000
1000
0000
0000
0010
0000
0000
0000
1001
0000
0000
0000
,
0100
0000
0001
0000
0000
0100
0000
0000
0001
0000
0000
0000
1001
0000
0000
0000
,
1000
0000
0001
0000
0000
1000
0000
0000
0001
0000
0000
0000
0101
0000
0000
0000
,
0100
0010
1000
0001
1000
0001
1001
0000
,
0000
0000
0000
0000
0001
0000
0000
0001
0000
0000
0010
0000
0010
0000
0000
0000
,
1100
0000
0000
0000
0100
0000
0000
0100
0000
0000
1000
0000
1000
0000
0010
0000
,
0100
0001
0100
0010
1000
0000
0001
0000
,
0001
1000
0110
1010
;

//---------------dance-single - ----------------
#NOTES:
     dance-single:
     :
     Beginner:
     3:
     0.138417,0.191156,0.054845,0.000000,0.000000,106.000000,100.000000,6.000000,0.000000,0.000000,0.000000,0.138417,0.191156,0.054845,0.000000,0.000000,106.000000,100.000000,6.000000,0.000000,0.000000,0.000000:
0000
0000
0000
0000
,
0000
0000
0000
0000
,
0000
0000
0000
0000
,
0000
0000
0000
0000
,
0000
0000
1000
1000
,
1000
0000
0000
0000
,
0010
0000
0000
0000
,
0001
0000
0001
0000
,
0100
0000
0000
0000
,
0110
0000
1000
0000
,
0001
0000
1000
0000
,
0010
0000
0010
0000
,
0100
0000
0010
0000
,
1000
0000
0001
0001
,
0000
0000
1000
1000
,
1000
0000
0001
0000
,
1000
0000
0001
0000
,
1001
0000
0100
0000
,
0010
0000
0100
0000
,
0001
0000
1000
1000
,
0000
0000
0001
0000
,
0100
0000
0001
0000
,
0010
0000
0001
0000
,
1000
0000
0001
0001
,
0000
1000
1000
1000
,
0000
0001
0001
0001
,
0000
0100
0100
0100
,
0100
0000
0000
0010
,
0000
0010
0000
0000
,
0000
0100
0000
0000
,
0000
1000
0000
0000
,
0000
0001
0000
0000
,
0000
0100
0100
0100
,
0000
0010
0010
0010
,
0000
1000
0000
1000
,
0000
1001
0000
0000
,
0000
0010
0000
0100
,
0000
0100
0000
0001
,
0000
0001
0000
1000
,
0000
0000
0000
0010
,
0000
0100
0000
0000
,
0000
0100
0000
0000
,
0000
0100
0000
0000
,
0000
1001
0000
1001
,
0000
0000
0000
0010
,
0000
0000
0000
1000
,
0000
0001
0000
1000
,
0000
0001
0000
0010
,
0010
0000
0000
0010
,
0010
0000
0000
0100
,
0000
0000
0000
1000
,
0000
0000
0000
1001
,
0000
0000
0010
0010
,
0010
0000
0000
0100
,
0000
0100
0000
1000
,
0000
1000
0000
1000
,
0000
0000
0000
0001
,
0000
0000
0000
1000
,
0000
0000
0000
0001
,
0000
0000
0010
0010
;

//---------------dance-single - ----------------
#NOTES:
     dance-single:
     :
     Easy:
     6:
     0.255941,0.546161,0.173675,0.073126,0.000000,196.000000,177.000000,19.000000,8.000000,0.000000,0.000000,0.255941,0.546161,0.173675,0.073126,0.000000,196.000000,177.000000,19.000000,8.000000,0.000000,0.000000:
0000
0000
0000
0000
,
0000
0000
0000
0000
,
0000
0000
0000
0000
,
0000
0000
0000
0000
,
0000
0000
0001
0001
,
0100
0010
1000
0000
,
1000
0100
0001
0000
,
0100
0000
1000
0000
,
0010
0010
0010
1010
,
1001
0000
0000
0001
0000
0100
0000
1000
,
0000
0000
0000
0001
0000
0100
0000
1000
,
0000
0001
1000
0001
,
0100
0010
1000
0010
,
1010
0000
0000
1000
0000
0100
0000
0001
,
0000
0000
0000
1000
0000
0100
0000
0001
,
0000
0000
1000
1000
,
0001
0000
0001
0001
,
1001
0000
0000
0001
0000
0010
0000
1000
,
0000
0000
0000
0001
0000
0010
0000
1000
,
0000
0001
1000
0100
,
0000
1000
0001
0100
,
0110
0000
0000
1000
0000
0010
0000
0001
,
0000
0000
0000
1000
0000
0010
0000
0001
,
0000
0000
0010
1000
,
1001
0000
0100
0100
0100
0100
0100
0100
,
0100
0110
0010
0010
0010
0010
0010
0010
,
0010
1000
0100
1000
0100
0010
0001
0010
,
0001
1001
0000
0101
0000
1001
1100
1001
,
0001
2000
0000
0000
,
0000
3020
0000
0000
,
0000
0230
0000
0000
,
0000
0302
0000
1000
,
1003
0001
1000
0010
,
0000
0010
1000
0001
,
0000
1000
1000
0001
,
0001
1001
0000
0010
,
0100
1000
0000
0100
,
0010
0001
0000
0100
,
0010
1000
0000
0001
,
1000
0100
0000
0010
,
0010
0010
0000
0000
,
0000
0110
0000
0000
,
0000
1001
0000
0110
,
0000
1001
0000
1000
,
0010
0010
0010
0001
,
0010
0010
0010
2000
,
0000
3002
0000
2003
,
0000
3002
0003
0001
,
0100
0100
0100
1000
,
0100
0100
0100
0001
,
0000
1000
0000
0010
,
0000
0100
0000
0010
,
1000
0000
1001
0000
,
0001
0000
0100
0010
,
0100
0100
0100
0001
,
1000
0100
0010
0001
,
0000
1000
0100
0001
,
0000
1000
0010
0001
,
0000
1000
0000
0001
,
0000
0100
0100
0110
;

//---------------dance-double - ----------------
#NOTES:
     dance-double:
     :
     Challenge:
     17:
     0.843562,1.693099,0.411335,0.036563,1.202011,646.000000,601.000000,45.000000,4.000000,0.000000,0.000000,0.843562,1.693099,0.411335,0.036563,1.202011,646.000000,601.000000,45.000000,4.000000,0.000000,0.000000:
00000000
00000000
00000000
00000000
,
00000000
00000000
00000000
00000000
,
00000000
00000000
00000000
00000000
,
00000000
00000000
00000000
00000000
,
00000000
00000000
00000000
00000000
01000000
00010000
00101000
00000000
,
00110000
00000000
00100000
00000000
01000000
00000000
10000000
00000000
00100000
00010000
00000000
00010000
00001000
00000000
00000100
00000000
,
00001100
00000000
00001000
00000000
00010000
00000000
00000010
00000000
00000100
00000001
00000000
00000001
00000010
00000000
00000100
00000000
,
00010100
00000000
00001000
00000000
00010000
00000000
00100000
00000000
10000000
00010000
10000000
00010000
01000000
00100000
01000000
00100000
,
00001000
00000000
00000000
00000000
00000000
00000000
00000000
00000000
00000000
00000000
00000000
00000000
00000000
00000000
00000000
00010000
00001000
00010000
00001000
00000000
00000000
00000000
00000000
00000000
,
00011000
00000000
00000000
00000000
00000000
01000000
10000000
00000000
00000000
10000000
00100000
00000000
00000000
00100000
00010000
00000000
,
00011000
00000000
00000000
00000000
00000000
00000010
00000001
00000000
00000000
00000001
00000100
00000000
00000000
00000100
00001000
00000000
,
00010000
00100000
10000000
00000000
10000000
01000000
00000000
01000000
00000000
00100000
00010000
00000000
01000000
00100000
00010000
00000000
,
00001000
00000100
00000001
00000000
00000001
00000010
00000000
00000010
00000000
00000100
00001000
00000000
00000010
00000100
00001000
00000000
,
00012000
00000000
00000000
00100000
00000000
00000010
00000000
00013000
,
00021000
00000000
00000000
00000100
00000000
01000000
00000000
00031000
,
00011000
00000000
00100000
01000000
10000000
00100000
01000000
00000000
01000000
00100000
00000000
00100000
00010000
00000000
00001000
00000000
,
00000100
00000000
00000001
00000010
00000100
00000010
00001000
00000000
00011000
00000000
01010000
00000000
11000000
00000000
00000000
00000000
,
10200000
00000000
00000000
00000000
00300000
10000000
00010000
00000000
00000000
00010000
00001000
00000000
00000000
00001000
00000100
00000000
,
00000010
00000000
00000000
00000000
00000000
00000001
00001000
00000000
00000000
00001000
00010000
00000000
00000000
00010000
01000000
00000000
,
00100000
10000000
00000000
00000000
10000000
01000000
00000000
01000000
00000000
00010000
00001000
00000000
00000100
00000001
00000100
00000000
,
00000001
00000100
00000000
00000000
00000100
00001000
00000000
00001000
00000000
00010000
01000000
00000000
11000000
00000000
01100000
00000000
,
00011000
00000000
00000000
00000000
00000000
00001000
00010000
00000000
00000000
00010000
00000010
00000000
00000000
00000010
00000100
00000000
,
00011000
00000000
00000000
00000000
00000000
00010000
00001000
00000000
00000000
00001000
01000000
00000000
00000000
01000000
00100000
00000000
,
00011000
00000000
00000010
00000100
00001000
00000000
00010000
01000000
10000000
00000000
00100000
00010000
00000000
00010000
00001000
00000000
,
00001100
00000000
00000000
00000000
00000101
00000000
00000000
00000000
00000001
00000010
00000001
00000010
00000001
00000100
00000001
00000100
00001000
00010000
00001000
00010000
00001000
01000000
00001000
01000000
00100000
10000000
00100000
10000000
01000000
10000000
01000000
10000000
,
00100000
01000000
00100000
01000000
01200000
00000000
00000000
00000000
10300000
01000000
10000000
01000000
10000000
00100000
10000000
00100000
00010000
00001000
00010000
00001000
00010000
00000010
00010000
00000010
00000100
00000001
00000100
00000001
00000010
00000001
00000010
00000001
,
00000100
00000010
00000100
00000000
00000010
00001000
00000010
00000100
00000010
00000000
00000100
00001000
00010000
00001000
00000100
00000000
00010000
00100000
01000000
00100000
00010000
00000000
00001000
01000000
00000000
01000000
00100000
00000000
10000000
00100000
00010000
00100000
,
10000000
00000000
00000000
00000000
00000000
00000000
00000000
00000000
00000000
00000000
00000000
00000000
01000000
00000000
00000000
00000000
00000000
00000000
00000000
00000000
00000000
00000000
00000000
00000000
00100000
00000000
00000000
00000000
00000000
00000000
00000000
00000000
00000000
00000000
00000000
00000000
00010000
00000000
00000000
00000000
00000000
00000000
00000000
00000000
00000000
00000000
00000000
00000000
01000000
00000000
00000000
00000000
00000000
00000000
00100000
00000000
00000000
00000000
00000000
00000000
00000000
00000000
00000000
00000000
00000000
00000000
00100000
00000000
00000000
00000000
00000000
00000000
00010000
00000000
00000000
00000000
00000000
00000000
00000000
00000000
00000000
00000000
00000000
00000000
00001000
00000000
00000000
00000000
00000000
00000000
00000100
00000000
00000000
00000000
00000000
00000000
00000000
00000000
00000000
00000000
00000000
00000000
00000100
00000000
00000000
00000000
00000000
00000000
00000001
00000000
00000000
00000000
00000000
00000000
00000000
00000000
00000000
00000000
00000000
00000000
00001000
00000000
00000000
00000000
00000000
00000000
00000000
00000000
00000000
00000000
00000000
00000000
00000001
00000000
00000000
00000000
00000000
00000000
00000000
00000000
00000000
00000000
00000000
00000000
00001000
00000000
00000000
00000000
00000000
00000000
00000000
00000000
00000000
00000000
00000000
00000000
00010000
00000000
00000000
00000000
00000000
00000000
00000000
00000000
00000000
00000000
00000000
00000000
10000000
00000000
00000000
00000000
00000000
00000000
00000000
00000000
00000000
00000000
00000000
00000000
00010000
00000000
00000000
00000000
10000000
00000000
00000000
00000000
00010000
00000000
00000000
00000000
,
10000000
00000000
00000000
00000000
10000000
00000000
01000000
00000000
00000000
00010000
00000000
00000000
00001000
00000000
00000000
01000000
,
00000000
00000000
00100000
00000000
00010000
00000000
00001000
00000000
00000000
00000010
00000000
00000000
00001000
00000000
00000000
00100000
,
00000000
00000000
01000000
00000000
00010000
00000000
00001000
00000000
00000000
00100000
00000000
00000000
01000000
00000000
00000000
00001000
,
00000000
00000000
00000000
00000000
00000000
00000000
00000100
00000000
00000000
00000000
00000000
00000000
00000010
00000000
00000000
00000000
00000000
00000000
00001000
00000000
00000000
00000000
00000000
00000000
00000000
00000000
00000000
00010000
00000000
00000000
00000000
00000000
00000000
00000000
00000000
00000000
01000000
00000000
00000000
00000000
00000000
00000000
00100000
00000000
01000000
00000000
00100000
00000000
,
01000000
00000000
10000000
00000000
10010000
00000000
00100000
01000000
00010000
00000000
00010000
01000000
00001000
00000000
00000000
00011000
,
00000000
00000000
00010100
00000000
00000100
00000000
00001000
00000010
00000100
00000000
00000100
00000001
00001000
00000000
00000010
00000100
,
00000000
00000100
00000010
00000000
00001000
00000000
00000010
00000000
00000110
00000000
00000000
00000000
00010010
00000000
00000000
00101000
,
00000000
00000000
00000000
11000000
00000000
00000000
01100000
00000000
00000000
00000000
00000000
00000000
00000000
00000000
00000000
00000000
00000000
00000000
10000000
00000000
00000000
00010000
01000000
00010000
,
01000000
00100000
10000000
00010000
00100000
00000000
00010000
00001000
00010000
00000010
00000100
00000000
00001000
00000000
00000100
00000001
,
00000000
00000001
00000100
00000000
00000010
00000000
00001000
00010000
00100000
00010000
00001000
00000000
00010000
00000000
00100000
01000000
,
00000000
01000000
10000000
00000000
01000000
00000000
00100000
00010000
00100000
00000000
10000000
01000000
00100000
00010000
10000000
00010000
,
00000000
00000000
00000000
10000000
00000000
00000000
01000000
00000000
00000000
00000000
00000000
00000000
00100000
00000000
00000000
00000000
00000000
00000000
00001000
00000000
00000000
00000000
00000000
00000000
00010000
00000000
00000000
00001000
00000000
00000000
00010000
00000000
00000000
00001000
00000000
00000000
00010000
00000000
00000100
00000000
00010000
00000000
00000100
00000000
00000000
00000000
00000000
00000000
,
00001000
00000000
00000010
00000000
00001000
00000000
00000010
00000000
00000000
00000000
00000000
00000000
00000100
00000000
00000000
00000000
00000000
00000000
00000010
00000000
00000000
00000001
00000000
00000000
00000010
00000000
00000000
00000100
00000000
00000000
00000010
00000000
00000000
00000001
00000000
00000000
00000010
00000000
00000000
00000100
00000000
00000000
00001000
00000000
00000000
00010000
00000000
00000000
,
00001000
00100000
01000000
10000000
00010000
00000000
00100000
00010000
00100000
01000000
00100000
00010000
00100000
01000000
00100000
00001000
,
00010000
00000010
00000001
00000100
00001000
00000000
00000000
00000000
00000100
00001000
00010000
01000000
10000000
00000000
01000000
00010000
,
00001000
00000000
00000000
00000100
00000000
00000000
00000001
00000000
00000000
00000000
00000000
00000000
00001001
00000000
00000000
00000000
00000000
00000000
00000010
00000000
00000100
00000000
00000001
00000000
00001000
00000000
00000000
00000000
00000000
00000000
00000100
00000000
00010000
00000000
00001000
00000000
01000000
00000000
00000000
00000000
00000000
00000000
00000000
00000000
00000000
00000000
00000000
00000000
,
00000100
00000000
00000000
00010000
00000000
00000000
00000100
00000000
00000000
00010000
00000000
00000000
00000100
00000000
00000000
00000000
00000000
00000000
00010000
00000000
00001000
00000000
00010000
00000000
00001000
00000000
00000000
00100000
00000000
00000000
01000000
00000000
00000000
00000000
00000000
00000000
01100000
00000000
00000000
00000000
00000000
00000000
00000000
00000000
00000000
00000000
00000000
00000000
,
01000000
00000000
00000000
00001000
00000000
00000000
01000000
00000000
00000000
00001000
00000000
00000000
01000000
00000000
00000000
00000000
00000000
00000000
00001000
00000000
00010000
00000000
00001000
00000000
00010000
00000000
00000000
00000010
00000000
00000000
00000100
00000000
00000000
00000000
00000000
00000000
00000110
00000000
00000000
00000000
00000000
00000000
00000010
00000000
00000100
00000000
00000010
00000000
,
00000100
00010000
00001000
00010000
00000000
00000000
00001000
00000000
00000000
01000000
00100000
01000000
00100000
00001000
00010000
00001000
00000000
00000000
00010000
00000000
00000000
00000010
00000100
00000010
,
00000100
00010000
00001000
00010000
00000000
00000000
00001000
00000000
00000000
01000000
00100000
01000000
00100000
00001000
00010000
00001000
00000000
00000000
00011000
00000000
00000000
00000000
00000000
00000000
,
00000100
00000000
00000000
00001000
00000000
00000000
00000100
00000000
00000000
00001000
00000000
00000000
00000100
00000000
00000000
00000000
00000000
00000000
00000010
00000000
00000001
00000000
00000010
00000000
00000001
00000000
00000000
00000100
00000000
00000000
00001000
00000000
00000000
00010000
00000000
00000000
01000000
00000000
00000000
00000000
00000000
00000000
00000000
00000000
00000000
00000000
00000000
00000000
,
00010000
00000000
00000000
00001000
00000000
00000000
00010000
00000000
00000000
00001000
00000000
00000000
00010000
00000000
00000000
00000000
00000000
00000000
00001000
00000000
00100000
00000000
01000000
00000000
10000000
00000000
00000000
01000000
00000000
00000000
00010000
00000000
00000000
01000000
00000000
00000000
10000000
00000000
00000000
00000000
00000000
00000000
00100000
00000000
00000000
01000000
00000000
00000000
,
00000000
01000000
00010000
00000000
00100000
00001000
00000000
00001000
00010000
00000000
00000010
00000000
00000100
00000000
00000001
00000010
,
00000000
00000010
00000100
00000000
00010000
00000000
00001000
00000000
00001100
00000000
00000000
00000000
00011000
00000000
00000000
00000000
,
01010000
00000000
00000000
00000000
00000000
00000000
11000000
00000000
00000000
00000000
00000000
00000000
00000000
00000000
00000000
01010000
00000000
00000000
00000000
00000000
00000000
00000000
00000000
00000000
00011000
00000000
00000000
00000000
00000000
00000000
00100000
00000000
00000000
00001000
00000000
00000000
00010000
00000000
00000100
00000000
00010000
00000000
00000100
00000000
00000000
00000010
00000000
00000000
,
00000001
00000000
00000000
00000000
00000000
00000000
00000101
00000000
00000000
00000000
00000000
00000000
00000000
00000000
00000000
00001100
00000000
00000000
00000000
00000000
00000000
00000000
00000000
00000000
00000101
00000000
00000000
00000000
00000000
00000000
00000010
00000000
00000000
00000100
00000000
00000000
00001000
00000000
00010000
00000000
00000100
00000000
00000010
00000000
00000000
00000001
00000000
00000000
,
00000100
00000000
00000000
00001000
00000000
00000000
00000000
00000000
00000000
00010000
00000000
00000000
00000000
00000000
00000000
01000000
00000000
00000000
10000000
00000000
00000000
00000000
00000000
00000000
00010000
00000000
00000000
10000000
00000000
00000000
00010000
00000000
00000000
00000000
00000000
00000000
01000000
00000000
00010000
00000000
10000000
00000000
00100000
00000000
00000000
00000000
00000000
00000000
,
01100000
00000000
01010000
00000000
10000000
01000000
00100000
00001000
00010000
00000010
00000100
00000001
00000010
00000000
00001000
00000000
,
00100000
00000000
00010000
00000000
01000000
00000000
00000000
00001000
00000000
00000000
00000100
00000000
00000001
00000000
00000010
00000000
,
00010000
00000000
00100000
00000000
10000000
00000000
00000000
00010000
00000000
00000000
00001000
00000000
00000010
00000000
00000001
00000000
,
00000100
00000000
00001000
00000000
00010000
00000100
00010000
00001000
00010000
00100000
00010000
00001000
00010000
00000000
00001000
00000000
,
00000000
00000000
00000000
00000010
00000000
00000000
00000000
00000000
00000000
00000000
00000000
00000000
00000001
00000000
00000000
00000000
00000000
00000000
00000100
00000000
00001000
00000000
00000100
00000000
00001000
00000000
00000000
00000000
00000000
00000000
00000000
00000000
00000000
00000000
00000000
00000000
00000101
00000000
00000000
00000000
00000000
00000000
00000000
00000000
00000000
00000000
00000000
00000000
;

//---------------dance-double - ----------------
#NOTES:
     dance-double:
     :
     Hard:
     14:
     0.611126,1.174246,0.301645,0.000000,0.630713,468.000000,435.000000,33.000000,0.000000,0.000000,0.000000,0.611126,1.174246,0.301645,0.000000,0.630713,468.000000,435.000000,33.000000,0.000000,0.000000,0.000000:
// measure 0
00000000
00000000
00000000
00000000
,  // measure 1
00000000
00000000
00000000
00000000
,  // measure 2
00000000
00000000
00000000
00000000
,  // measure 3
00000000
00000000
00000000
00000000
,  // measure 4
00000000
00000000
00000000
00000000
10000000
00100000
01010000
00000000
,  // measure 5
10000000
00000000
01000000
00000000
00010000
00000000
00000000
00000000
00001000
00000000
00000000
00001000
00000000
00000000
00001000
00000000
,  // measure 6
00000100
00000000
00000001
00000000
00000010
00000000
00000000
00000000
00001000
00000000
00000000
00001000
00000000
00000000
00001000
00000000
,  // measure 7
00010000
00100000
10000000
00100000
00010000
00001000
00000100
00000001
,  // measure 8
00000100
00000000
00000000
00000000
00000000
00000000
00000000
00000000
00000000
00000000
00001000
00010000
00001000
00000000
00000000
00000000
,  // measure 9
01001000
00000000
00000000
00000000
00000000
00100000
10000000
00000000
00000000
10000000
00010000
00000000
00000000
00010000
01000000
00000000
,  // measure 10
01001000
00000000
00000000
00000000
00000000
00001000
00010000
00000000
00000000
00010000
00000010
00000000
00000000
00000010
00000100
00000000
,  // measure 11
00000001
00000000
00000010
00000000
00000100
00000010
00000000
00001000
00000000
00010000
01000000
00000000
10000000
00000000
00100000
00000000
,  // measure 12
10000000
00000000
01000000
00000000
00100000
01000000
00000000
00010000
00000000
00001000
00000100
00000000
00000001
00000000
00000010
00000000
,  // measure 13
00000110
00000000
00000000
00000000
00000000
00000001
00000100
00000000
00000000
00000100
00001000
00000000
00000000
00001000
00010000
00000000
,  // measure 14
01010000
00000000
00000000
00000000
00000000
10000000
01000000
00000000
00000000
01000000
00010000
00000000
00000000
00010000
00001000
00000000
,  // measure 15
00011000
00000000
00000000
00000000
00000100
00000000
00001000
00000000
00000010
00000000
00000000
00000100
00000000
00000000
00000010
00000000
,  // measure 16
00011000
00000000
01000000
00010000
00100000
00010000
10010000
00000000
,  // measure 17
10100000
00000000
00000000
00000000
00000000
10000000
00100000
00000000
00000000
01000000
00001000
00000000
00000000
00010000
00001000
00000000
,  // measure 18
00011000
00000000
00000000
00000000
00000000
00010000
00000100
00000000
00000000
00001000
00000010
00000000
00000000
00000100
00000001
00000000
,  // measure 19
00000100
00000000
00000001
00000000
00000010
00001000
00000000
00010000
00000000
00001000
01000000
00000000
00100000
00000000
10000000
00000000
,  // measure 20
01000000
00000000
10000000
00000000
00100000
00010000
00000000
00001000
00000000
00010000
00001000
00000000
00000100
00000000
00000100
00000000
,  // measure 21
00000101
00000000
00000000
00000000
00000000
00000001
00000010
00000000
00000000
00000010
00001000
00000000
00000000
00001000
00010000
00000000
,  // measure 22
00011000
00000000
00000000
00000000
00000000
00010000
00100000
00000000
00000000
00100000
10000000
00000000
00000000
10000000
00010000
00000000
,  // measure 23
10010000
00000000
01000000
00100000
01000000
00000000
00010000
10000000
00010000
00000000
00000000
01000000
00000000
00000000
00001000
00000000
,  // measure 24
00101000
00000000
00000110
00000000
00000001
00000001
00000100
00000100
00001000
00001000
00010000
00010000
00100000
00100000
10000000
10000000
,  // measure 25
00010000
10000000
00010000
00000000
10010000
00000000
00000000
00000000
10000000
00000000
10000000
00000000
01000000
00000000
01000000
00000000
00010000
00000000
00010000
00000000
00001000
00000000
00001000
00000000
00000100
00000000
00000100
00000000
00000001
00000000
00000001
00000000
,  // measure 26
00001000
00000000
00001000
00000000
00000010
00000100
00000010
00000100
00000010
00000000
00000100
00001000
00000100
00001000
00000100
00000000
00010000
00001000
00010000
00001000
00010000
00000000
00100000
10000000
00000000
10000000
00010000
00000000
01000000
00100000
01000000
00100000
,  // measure 27
01000000
00000000
00100000
00000000
10000000
00000000
01000000
00000000
00000000
00010000
00000000
00000000
00001000
00000000
00000000
00010000
00000000
00000000
00000010
00000000
00000100
00000000
00000001
00000000
00000011
00000000
00000000
00000000
00001010
00000000
00000000
00000000
,  // measure 28
00011000
00000000
00000000
00000000
00001000
00000000
00100000
00000000
00000000
01000000
00000000
00000000
10000000
00000000
00000000
00100000
,  // measure 29
00000000
00000000
00010000
00000000
00000100
00000000
00000001
00000000
00000000
00000010
00000000
00000000
00001000
00000000
00000000
00010000
,  // measure 30
00000000
00000000
00000010
00000000
00010000
00000000
00100000
00000000
00000000
10000000
00000000
00000000
01000000
00000000
00000000
00100000
,  // measure 31
00000000
00000000
01000000
00000000
00010000
00000000
00000100
00000000
00000000
00000001
00000000
00000000
00001000
00000000
00000001
00000000
,  // measure 32
00001001
00000000
00000000
00000000
00000110
00000000
00000000
00000000
00001100
00000000
00000000
00000000
00000010
00000000
00000000
00000100
,  // measure 33
00000000
00000000
00001000
00000000
00011000
00000000
00000000
00000000
00101000
00000000
00000000
00000000
00100000
00000000
00000000
01000000
,  // measure 34
00000000
00000000
10000000
00000000
10100000
00000000
00000000
00000000
01010000
00000000
00000000
00000000
00100000
00000000
00000000
00010000
,  // measure 35
00000000
00000000
00001000
00000000
00000010
00000000
00000000
00000000
00000000
00000000
00000000
00000000
00001001
00000000
00000010
00001000
,  // measure 36
00000010
00000000
00000100
00000000
00001000
00000000
00010000
00000000
01000000
00000000
10000000
00010000
00000000
10000000
00010000
00000000
,  // measure 37
01000000
00000000
00100000
00000000
00010000
00000000
00001000
00000000
00000100
00000000
00000001
00001000
00000000
00000001
00001000
00000000
,  // measure 38
00000010
00000000
00000100
00000000
00001000
00000000
00010000
00000000
01000000
00000000
10000000
00010000
00000000
10000000
00010000
00000000
,  // measure 39
01000000
00000000
00100000
00000000
10010000
00000000
00000000
00000000
01000000
00010000
01000000
00010000
01000000
00000100
00001000
00000100
,  // measure 40
00010000
00000000
00000000
00000000
00001000
00000000
00000000
00000000
00001000
00000000
00000000
00000000
00001000
00000000
00000000
00000100
,  // measure 41
00000000
00000000
00000001
00000000
00000010
00000000
00000000
00000000
00000010
00000000
00000000
00000000
00000010
00000000
00000000
00001000
,  // measure 42
00000000
00000000
00010000
00000000
00100000
00000000
00000000
00000000
00010000
00001000
00010000
00001000
00010000
00000000
00000000
00000000
,  // measure 43
00001000
00010000
00001000
00010000
00001000
00000000
00000000
00000000
00011000
00000000
00000000
00000000
01010000
00000000
00000000
00000000
,  // measure 44
10000000
00100000
10000000
00100000
10000000
00000000
01000000
00000000
00010000
00000000
00001000
00000000
00000100
00000000
00000000
00000000
,  // measure 45
00000001
00000010
00000001
00000010
00000001
00000000
00000100
00000000
00001000
00000000
00010000
00000000
01000000
00000000
00000000
10000000
,  // measure 46
00010000
00000000
00100000
00000000
00000000
00000000
00000000
01000000
00001000
00000000
00010000
00000000
00000000
00000000
00000000
00000010
,  // measure 47
00000100
00000000
00000001
00000000
00000000
00000000
00000000
00000010
00000100
00000000
00010000
00000000
00011000
00000000
00000000
00000000
,  // measure 48
01000000
00100000
01000000
00100000
01000000
00000000
00100000
00000000
00010000
00000000
00001000
00000000
00000010
00000000
00000000
00000000
,  // measure 49
00000100
00000010
00000100
00000010
00000100
00000000
00000010
00000000
00001000
00000000
00010000
00000000
00100000
00000000
10000000
00000000
,  // measure 50
00000000
01000000
00000000
00000000
00100000
00000000
00000000
01000000
00000000
00000000
00010000
00000000
00001000
00000000
00000100
00000000
,  // measure 51
00000000
00000001
00000000
00000000
00000010
00000000
00000001
00000000
00000100
00000000
00001000
00000000
00011000
00000000
00000000
00000000
,  // measure 52
01000000
00000000
01000000
00000000
00000000
01000000
00000000
00000000
01000000
00000000
00001000
00000000
00011000
00000000
00000000
00000000
,  // measure 53
00000010
00000000
00000010
00000000
00000000
00000010
00000000
00000000
00000010
00000000
00010000
00000000
00010000
00001000
00010000
00000000
,  // measure 54
00001000
00100000
00000000
01000000
00000000
10000000
01000000
00000000
00100000
00000000
00001000
00000000
00001000
00010000
00001000
00000000
,  // measure 55
00010000
00000100
00000000
00000010
00000001
00000100
00000010
00010000
00001000
01000000
00100000
00000000
01000000
00000000
00000000
00000000
,  // measure 56
01000000
00000000
00000000
00000000
01000000
00000000
00000000
10000000
00000000
00000000
00100000
00000000
00010000
00000000
00000000
00000000
,  // measure 57
00010000
00000000
00000000
00000000
00010000
00000000
00000000
00001000
00000000
00000000
00000010
00000000
00000001
00000000
00000100
00000000
,  // measure 58
00000001
00000100
00001000
00010000
00001000
00010000
00100000
10000000
,  // measure 59
00000000
00010000
00000000
00000000
01000000
00000000
00100000
00000000
00010000
00000000
00001000
00000000
00000100
00000000
00000000
00000000
;

//---------------dance-double - ----------------
#NOTES:
     dance-double:
     :
     Medium:
     11:
     0.454427,0.846549,0.201097,0.027422,0.246801,348.000000,326.000000,22.000000,3.000000,0.000000,0.000000,0.454427,0.846549,0.201097,0.027422,0.246801,348.000000,326.000000,22.000000,3.000000,0.000000,0.000000:
00000000
00000000
00000000
00000000
,
00000000
00000000
00000000
00000000
,
00000000
00000000
00000000
00000000
,
00000000
00000000
00000000
00000000
,
00000000
00000000
00000000
00000000
00100000
01000000
10010000
00000000
,
10000000
00000000
00000000
00000000
01000000
00000000
00000000
00000000
00010000
00000000
00000000
01000000
00000000
00000000
10000000
00000000
,
00100000
00000000
00000000
00000000
00010000
00000000
00000000
00000000
00001000
00000000
00000000
00000010
00000000
00000000
00000001
00000000
,
00000010
00001000
00000010
00001000
00010000
00100000
00010000
00100000
,
20000000
00000000
30000000
01010000
,
10100000
00000000
00000000
00000000
00000000
10000000
01000000
00000000
00000000
10000000
01000000
00000000
00000000
00000000
00010000
00000000
,
00001000
00000000
00000000
00000000
00000000
00010000
00000010
00000000
00000000
00010000
00000010
00000000
00000000
00000000
00000100
00000000
,
00000002
00000000
00000003
00000010
00000000
00001000
00000000
00010000
,
00200000
00000000
00300000
10000000
00000000
01000000
00000000
00010000
,
00001000
00000000
00000000
00000000
00000000
00010000
00000100
00000000
00000000
00010000
00000100
00000000
00000000
00000000
00010000
00000000
,
00001000
00000000
00000000
00000000
00000000
01000000
00100000
00000000
00000000
01000000
00100000
00000000
00000000
00000000
10000000
00000000
,
00010000
00000000
00000000
00000000
10000000
00000000
10000000
00000000
10000000
00000000
00000000
00100000
00000000
00000000
01000000
00000000
,
00001000
00010000
00001000
00000000
01000000
00001000
00011000
00000000
,
00010010
00000000
00000000
00000000
00000000
00000100
00000001
00000000
00000000
00000100
00000001
00000000
00000000
00000000
00000010
00000000
,
00001000
00000000
00000000
00000000
00000000
00010000
00001000
00000000
00000000
00010000
00001000
00000000
00000000
00000000
00001000
00000000
,
01000000
00000000
00100000
10000000
00010000
00000000
01000000
00100000
,
00010000
00000000
00001000
00000100
00000001
00000000
00001000
00001000
,
00001001
00000000
00000000
00000000
00000000
00000010
00010000
00000000
00000000
00000010
00010000
00000000
00000000
00000000
00001000
00000000
,
00010000
00000000
00000000
00000000
00000000
00001000
01000000
00000000
00000000
00001000
01000000
00000000
00000000
00000000
00010000
00000000
,
10000000
00000000
00000000
00000000
01000000
00000000
00010000
00000000
00001000
00000000
00000000
00000100
00000000
00000000
00000001
00000000
,
00001000
00000000
00000110
00000000
00000001
00001000
00000001
00001000
00000010
00000100
00000010
00000100
00000001
00001000
00000001
00001000
,
00000001
00000000
00001000
00000000
00010000
10000000
00010000
10000000
00100000
01000000
00100000
01000000
00010000
10000000
00010000
10000000
,
00100000
01000000
00100000
00000000
01000000
00000000
00010000
00000000
10000000
00000000
01000000
00000000
00010000
00000000
00001000
00000000
,
00000100
00000001
00000000
00001001
00000000
00000010
00000010
00010000
,
00011000
00000000
00000000
00000000
01000000
00000000
01000000
00000000
00000000
00100000
00000000
00000000
01000000
00000000
00000000
01000000
,
00000000
00000000
01000000
00000000
00001000
00000000
00010000
00000000
00000000
00000010
00000000
00000000
00000100
00000000
00000000
00000100
,
00000000
00000000
00000100
00000000
00000010
00000000
00000010
00000000
00000000
00001000
00000000
00000000
00000010
00000000
00000000
00000010
,
00000000
00000000
00000010
00000000
00010000
00000000
00001000
00000000
00000000
01000000
00000000
00000000
00100000
00000000
10000000
00000000
,
10010000
00000000
00000000
00000000
10000000
00000000
00000000
00000000
01000000
00000000
00000000
00000000
00010000
00000000
00000000
00001000
,
00000000
00000000
00000010
00000000
00000001
00000000
00000000
00000000
00000010
00000000
00000000
00000000
00001000
00000000
00000000
00010000
,
00000000
00000000
01000000
00000000
10000000
00000000
00000000
00000000
01000000
00000000
00000000
00000000
00010000
00000000
00000000
00001000
,
00000000
00000010
00000001
00000000
00000000
00000000
00000100
00000010
,
00010000
00000000
00001000
00000000
01000000
00000000
00000000
00000000
00000000
00000000
00000000
00100000
00000000
00000000
10000000
00000000
,
00010000
01000000
00100000
00000000
00010000
00001000
00000100
00000001
,
00001000
00000000
00000000
00000000
00000010
00000000
00000000
00000000
00000000
00000000
00000000
00001000
00000000
00000000
00000001
00000000
,
00000100
00000010
00010000
00000000
00001000
00000100
00001000
00000000
,
00011000
00000000
00000000
00000000
00100000
00000000
00000000
00000000
00100000
00000000
00000000
00000000
00100000
00000000
00000000
01000000
,
00000000
00000000
10000000
00000000
00100000
00000000
00000000
00000000
00100000
00000000
00000000
00000000
00100000
00000000
00000000
00010000
,
00000000
00001000
00000100
00000000
00000001
00000000
00001000
00000000
,
00000010
00000110
00001001
00000110
,
00000001
00000010
00000001
00000100
00001000
00010000
01000000
00000000
,
10000000
00100000
10000000
01000000
00010000
00001000
00000100
00000000
,
00000001
00001000
00000000
00000000
00000100
00010000
00000000
00000000
,
00001000
01000000
00000000
00000000
00010000
10000000
10010000
00000000
,
01000000
00100000
01000000
00001000
00010000
00000010
00000100
00000000
,
00000010
00000100
00000010
00010000
00001000
01000000
00100000
10000000
,
00000000
00010000
00000000
00000000
10000000
00000000
00000000
00100000
00000000
00000000
00010000
00000000
00001000
00000000
00000010
00000000
,
00000000
00000001
00000000
00000000
00001000
00000000
00000001
00000000
00001000
00000000
00000000
00000000
00000101
00000000
00000000
00000000
,
00000010
00000000
00000010
00000000
00000000
00000010
00000000
00000000
00000010
00000000
00000000
00000000
00011000
00000000
00000000
00000000
,
01000000
00000000
01000000
00000000
00000000
01000000
00000000
00000000
01000000
00000000
00000000
00000000
00011000
00000000
00000000
00000000
,
00000010
00001000
00000010
00000100
00000010
00000000
00011000
00000000
,
01000000
00100000
10000000
01000000
00100000
00001000
00101000
00000000
,
00001000
00000000
00000000
00000000
00001000
00000000
00000000
00010000
00000000
00000000
00000010
00000000
00000100
00000000
00000000
00000000
,
00000100
00000000
00000000
00000000
00000100
00000000
00000000
00000001
00000000
00000000
00000010
00000000
00001000
00000000
00000000
00000000
,
00010000
00100000
10000000
10010000
,
01010000
00000000
00100000
01000000
00001000
00000000
00100000
00000000
;

//---------------dance-double - ----------------
#NOTES:
     dance-double:
     :
     Easy:
     7:
     0.335597,0.710009,0.219378,0.073126,0.027422,257.000000,233.000000,24.000000,8.000000,0.000000,0.000000,0.335597,0.710009,0.219378,0.073126,0.027422,257.000000,233.000000,24.000000,8.000000,0.000000,0.000000:
00000000
00000000
00000000
00000000
,
00000000
00000000
00000000
00000000
,
00000000
00000000
00000000
00000000
,
00000000
00000000
00000000
00000000
,
00000000
00000000
00000000
00000000
00000100
00001000
00000010
00000000
,
00010000
00001000
01001000
00000000
,
00100000
10000000
11000000
00000000
,
01000000
00010000
00001000
00000010
,
00000001
00000000
00000000
00001100
,
00001001
00000000
00000000
00000001
00000000
00000100
00000000
00001000
,
00000000
00000000
00000000
00010000
00000000
01000000
00000000
10000000
,
00010000
10000000
10000000
00100000
,
01000000
00100000
00100000
00010000
,
00100000
00000000
00000000
10000000
00000000
00100000
00000000
00010000
,
00000000
00000000
00000000
00001000
00000000
00000010
00000000
00000001
,
00002000
00000000
00003001
00000001
,
00000200
00000000
00001300
00010000
,
02000000
00000000
03000000
10000000
00000000
00100000
00000000
00010000
,
00000000
00000000
00000000
00001000
00000000
00000100
00000000
00000001
,
00000010
00000001
00000001
00001000
,
00000010
00000100
00000100
00001000
,
00000100
00000000
00000000
00000001
00000000
00000010
00000000
00001000
,
00000000
00000000
00000000
00010000
00000000
01000000
00000000
10000000
,
00100000
00000000
01000000
00010000
,
10010000
10000000
01000000
01000000
01000000
01000000
01000000
01000000
,
00010000
00001000
00000010
00000010
00000010
00000010
00000010
00000010
,
00000010
00000000
00000001
00001000
00000001
00000000
00001000
00000100
00010000
00000000
00011000
00000000
00101000
00000000
00100000
01000000
,
10000000
00000000
00010000
00000000
00000000
00000000
11000000
00000000
01010000
00000000
10000000
00010000
10000000
00010000
10000000
00010000
,
10000000
00000000
00100000
01000000
00000000
00000000
00001000
00000000
,
00010000
00000000
00000010
00001000
00000000
00000000
00000100
00000000
,
00010000
00000000
00001000
00100000
00000000
00000000
01000000
00000000
,
10000000
00000000
00010000
00100000
00000000
00000000
00001000
00000000
,
00011000
00010000
00010000
00010000
,
00000000
00000010
00000010
00000100
,
00000000
00001000
00001000
00001000
,
00000000
00020000
00030000
01000000
,
10000000
00010000
00000000
00100000
,
00001000
00010000
00001000
00000000
00010000
00000000
00000010
00000100
,
00000001
00001000
00000000
00000020
,
00000030
00000000
00000100
00000000
00010000
00001000
00010000
00000000
,
00011000
00100000
00100000
00100000
,
00100000
00001000
00001000
00001000
,
00001000
00000000
00010000
00000000
00000010
00000100
00000010
00000000
,
00001000
00000001
00001000
00000000
00001001
00000000
00010100
00000000
,
00010000
00001000
00200000
00000000
01300000
10000000
00010000
00000000
,
01000000
00001000
00020000
00000000
00030010
00000100
00000010
00000000
,
00000101
00000000
00010010
00000000
,
00011000
00000000
01001000
01100000
,
10000000
00010000
10000000
00010000
10000000
00000000
01000000
00000000
,
00010000
00001000
00010000
00001000
00010000
00000000
00000010
00000000
,
00000000
00000100
00000000
00000010
,
00000000
00000000
00001000
00000010
00010000
00000000
00011000
00000000
,
00100000
00100000
00000000
00000000
00100000
00000000
00011000
00000000
,
00000010
00000010
00000000
00000000
00000010
00000000
00011000
00000000
,
01000000
01000000
01000000
00011000
,
00000100
00000200
00001300
00000010
,
00000000
00000100
00000010
00010000
,
00001000
00100000
01000000
10000000
,
01000000
00010000
00001000
00000010
,
00000000
00000000
00000001
00000010
00000011
00000000
00001100
00000000
;
