#TITLE:Drink I’m Sippin On;
#SUBTITLE:;
#ARTIST:yaeji;
#TITLETRANSLIT:;
#SUBTITLETRANSLIT:;
#ARTISTTRANSLIT:;
#GENRE:Hip Hop;
#CREDIT:;
#BANNER:drinkimsippinon-bn.png;
#BACKGROUND:drinkimsippinon-bg.png;
#LYRICSPATH:;
#CDTITLE:;
#MUSIC:Drink I'm Sippin On.ogg;
#OFFSET:0.010000;
#SAMPLESTART:52.070000;
#SAMPLELENGTH:13.000004;
#SELECTABLE:YES;
#BPMS:0.000000=130.000000
;
#STOPS:
;
#BGCHANGES:;
#KEYSOUNDS:;
#ATTACKS:;

//---------------dance-single - ----------------
#NOTES:
     dance-single:
     :
     Hard:
     12:
     0.455618,0.507381,0.141748,0.172122,0.283496,315.000000,301.000000,14.000000,17.000000,0.000000,0.000000,0.455618,0.507381,0.141748,0.172122,0.283496,315.000000,301.000000,14.000000,17.000000,0.000000,0.000000:
0000
0000
0000
0000
,
0000
0000
0000
0000
,
0000
0000
0000
0000
,
0000
0000
0000
0000
,
0001
0100
0100
0001
1000
0000
1100
0000
,
0000
0000
0010
0000
0000
0010
0000
0000
0020
0000
0200
0000
0000
0000
0330
0000
,
0100
0001
0000
0000
0000
0000
0000
1000
0010
0000
0000
0000
1000
0000
0000
0000
,
0000
0000
0100
0000
0000
0010
0000
0000
0001
0100
0001
0100
0001
0000
1000
0000
,
0010
1000
1000
0010
0100
0000
1001
0000
,
0000
0000
0100
0000
0000
0100
0000
0000
0200
0000
0020
0000
0000
0000
0330
0000
,
0010
1000
0000
0000
0000
0000
0000
0000
0001
0000
0000
0000
0110
0000
0000
0000
,
0001
1000
0001
0000
0000
1000
0000
0000
0100
0010
0100
0000
1000
0000
0001
0000
,
1000
0000
0100
0000
0100
0000
0010
0001
0010
0000
0000
0000
1100
0000
0000
0000
,
0000
0000
0010
0000
0000
1000
0000
0000
0002
0000
0200
0000
0000
0000
0303
0000
,
0100
0010
0000
0000
0000
0000
1000
0100
1000
0000
0000
0000
0110
0000
0000
0000
,
0000
0000
0001
0000
0000
0100
0000
0000
0010
1000
0010
1000
0010
0000
1000
0000
,
0100
0010
0010
0001
1000
0000
0011
0000
,
0000
0000
1000
0000
0000
0001
0000
0000
0200
0000
0002
0000
0000
0000
0303
0000
,
0010
0100
0000
0000
0000
0000
1000
0010
1000
0000
0000
0000
0101
0000
0000
0000
,
0001
0010
0001
0000
0000
1000
0000
0000
0010
0100
0010
0100
0010
0000
1000
0000
,
0100
0010
0001
1000
0100
0010
0001
1000
,
0000
0000
0001
0010
0100
0000
1000
0000
,
0000
0000
0000
0000
0000
0000
0000
0000
1000
0000
0000
0001
0000
0000
0100
0000
,
0000
0000
0000
0000
0000
0000
0000
0000
0010
0000
0000
0100
0000
0000
0001
0000
,
0010
0100
1000
0001
0010
0100
1000
0001
,
0000
0000
1000
0100
0010
0000
0002
0000
,
1003
0000
0000
0000
0000
0000
0000
0000
0001
0000
0000
0100
0000
0000
0010
0000
,
0000
0000
0010
0000
0000
1000
0000
0000
0001
0100
0001
0000
1000
0100
0000
0000
,
2000
0100
3100
1000
0100
1000
0100
0000
,
0011
0000
0001
0010
0001
0010
0001
0000
,
0100
0010
0000
0000
1000
0000
0001
0000
1000
0000
0001
0000
1000
0000
0000
0000
,
0001
0100
1000
0100
0001
0010
1000
0010
,
0001
1000
1000
0010
0100
0000
0101
0000
,
0000
0000
0001
0000
0000
1000
0000
0000
0200
0000
0002
0000
0000
0000
0303
0000
,
0100
1000
0000
0000
0000
0000
0010
0100
0010
0000
0000
0000
1010
0000
0000
0000
,
0000
0000
0001
0000
0000
0010
0000
0000
0100
1000
0100
1000
0100
0000
1000
0000
,
0100
0010
0010
0001
1000
0000
0110
0000
,
0000
0000
1000
0000
0000
0001
0000
0000
0200
0000
0020
0000
0000
0000
0330
0000
,
0100
0001
0000
0000
0000
0000
1000
0010
1000
0000
0000
0000
0011
0000
0000
0000
,
0100
0010
0100
0000
0000
0001
0000
0000
0010
0001
0010
0001
0010
0000
0100
0000
,
2000
0010
3010
1000
0010
1000
0010
0000
,
0101
0000
0100
0001
0100
0001
0100
0000
,
0100
0010
0000
0000
1000
0000
0001
0000
1000
0000
0001
0000
1000
0000
0000
0000
,
0001
0010
1000
0010
0001
0100
1000
0100
,
0002
0010
0013
0001
0010
0001
0010
0000
,
1100
0000
1000
0100
1000
0100
1000
0000
,
0001
1000
0000
0000
0010
0000
1000
0000
0010
0000
1000
0000
0010
0000
0000
0000
,
1000
0100
0001
0100
1000
0010
0001
0010
,
1000
0000
0001
0000
0001
0000
0100
0000
0001
0000
0000
0100
0000
0000
0010
0000
,
0000
0000
1000
0000
0000
0001
0000
0000
0100
0000
0000
0010
0000
0000
0001
0000
,
0010
1000
0000
0000
0000
0000
0001
0000
0100
0000
0000
0001
0000
0000
1000
0000
,
0100
1000
0100
0000
0000
1000
0000
0000
0010
0100
0010
0100
0010
0000
1000
0000
,
0002
0000
0000
0003
;

//---------------dance-single - ----------------
#NOTES:
     dance-single:
     :
     Easy:
     5:
     0.237211,0.236921,0.030375,0.273371,0.000000,164.000000,161.000000,3.000000,27.000000,0.000000,0.000000,0.237211,0.236921,0.030375,0.273371,0.000000,164.000000,161.000000,3.000000,27.000000,0.000000,0.000000:
0000
0000
0000
0000
,
0000
0000
0000
0000
,
0000
0000
0000
0000
,
0000
0000
0000
0000
,
0001
0001
1000
0100
,
1000
0000
0000
0000
,
0010
0010
0100
0001
,
1000
0000
0020
0000
,
1030
1000
0100
1000
,
0001
0100
0001
1000
,
0000
0200
0310
0001
,
0000
1000
1000
0001
,
0200
0310
1000
0001
,
1000
0010
0010
0010
,
0020
0130
0001
1000
,
0001
0100
0100
0100
,
0002
0013
0001
0010
,
0001
1000
0001
1000
,
0100
1000
1000
2000
,
3000
0001
0001
0002
,
0103
0010
0100
0010
,
0000
1000
0001
1001
,
0000
0000
0002
0000
,
0003
0000
2000
0000
,
3010
1000
0010
1000
,
0000
0001
0100
0001
,
0101
0000
0020
0000
,
0030
0000
1000
0001
,
0100
0010
1000
0010
,
0000
0100
0001
0100
,
0000
0010
1000
0010
,
1000
0100
0010
0001
,
0100
0001
0010
0001
,
1000
0200
0320
0230
,
1300
0010
0100
0010
,
1000
0200
0302
0203
,
1300
0001
0100
0001
,
1000
0010
1000
0001
,
0100
0010
1000
0020
,
0030
0100
0001
0200
,
0301
1000
0200
0310
,
0000
0100
2000
3001
,
0000
0100
0002
1003
,
0010
0010
2000
3001
,
0100
0010
0020
1030
,
0000
0001
0002
0103
,
0000
0010
0020
0031
,
1000
0100
0010
0001
,
1000
1000
1000
0000
,
0000
0010
0200
0000
,
0301
0000
0020
0000
,
0031
0100
0010
0010
,
0110
0000
0000
0000
;

//---------------dance-double - ----------------
#NOTES:
     dance-double:
     :
     Hard:
     12:
     0.471528,0.529023,0.172122,0.222746,0.263246,326.000000,309.000000,17.000000,22.000000,0.000000,0.000000,0.471528,0.529023,0.172122,0.222746,0.263246,326.000000,309.000000,17.000000,22.000000,0.000000,0.000000:
// measure 0
00000000
00000000
00000000
00000000
,  // measure 1
00000000
00000000
00000000
00000000
,  // measure 2
00000000
00000000
00000000
00000000
,  // measure 3
00000000
00000000
00000000
00000000
,  // measure 4
10000000
00100000
10000000
00100000
01000000
00000000
01010000
00000000
,  // measure 5
00000000
00000000
10000000
00000000
00000000
01000000
00000000
00000000
00020000
00000000
00002000
00000000
00000000
00000000
00033000
00000000
,  // measure 6
00000100
00000010
00000000
00000000
00000000
00000000
00001000
00000001
00001000
00000000
00000000
00000000
00001001
00000000
00000000
00000000
,  // measure 7
00000000
00000000
00000001
00000000
00000000
00000100
00000000
00000000
00000010
00010000
00000010
00000000
00001000
00000000
00000001
00000000
,  // measure 8
00000100
00001000
00000100
00001000
00010000
00000000
01100000
00000000
,  // measure 9
00000000
00000000
10000000
00000000
00000000
00010000
00000000
00000000
02000000
00000000
00200000
00000000
00000000
00000000
03300000
00000000
,  // measure 10
10000000
00100000
00000000
00000000
00000000
00000000
00000000
00000000
00010000
00000000
00000000
00000000
00001000
00000000
00000000
00000000
,  // measure 11
00000010
00000001
00000010
00000000
00000000
00000100
00000000
00000000
00001000
00000001
00001000
00000001
00001000
00000000
00000010
00000000
,  // measure 12
00000100
00000010
00000100
00000010
00001000
00000000
00010100
00000000
,  // measure 13
00001000
00000000
00100000
00000000
00000000
00010000
00000000
00000000
02000000
00000000
00200000
00000000
00000000
00000000
03300000
00000000
,  // measure 14
00010000
00001000
00000000
00000000
00000000
00000000
00000100
00000001
00000100
00000000
00000000
00000000
00001001
00000000
00000000
00000000
,  // measure 15
00000000
00000000
00000010
00000000
00000000
00010000
00000000
00000000
00001000
01000000
00001000
00000000
01000000
00000000
00100000
00000000
,  // measure 16
00010000
00001000
00010000
00001000
00000100
00000000
00000101
00000000
,  // measure 17
00000010
00000000
00000100
00000000
00000000
00001000
00000000
00000000
00020000
00000000
02000000
00000000
00000000
00000000
03030000
00000000
,  // measure 18
10000000
00010000
00000000
00000000
10000000
01000000
10000000
01000000
10000000
00000000
00000000
00000000
00101000
00000000
00000000
00000000
,  // measure 19
00010000
00000000
00001000
00000000
00000000
00000100
00000000
00000000
00000001
00001000
00000001
00001000
00000001
00000000
00000100
00000000
,  // measure 20
00000001
00000010
00000100
00001000
00000001
00000010
00000100
00001000
,  // measure 21
00000000
00000000
00000010
00000100
00002000
00000000
00023000
00000000
,  // measure 22
00030000
00000000
00000000
00000000
00000000
00000000
00000000
00000000
00100000
00000000
00000000
10000000
00000000
00000000
00010000
00000000
,  // measure 23
00000000
00000000
00000000
00000000
00000000
00000000
00000000
00000000
01000000
00000000
00000000
00010000
00000000
00000000
10000000
00000000
,  // measure 24
10000000
01000000
00100000
00010000
10000000
01000000
00100000
00010000
,  // measure 25
00000000
00000000
01000000
00100000
00020000
00000000
00032000
00000000
,  // measure 26
00003200
00000000
00000000
00000000
00000300
00000000
00000000
00000000
00000001
00000000
00000000
00001000
00000000
00000000
00000100
00000000
,  // measure 27
00000010
00000001
00000010
00000000
00000000
00000001
00000000
00000000
00001000
00000100
00001000
00000000
00001000
00000001
00000000
00000000
,  // measure 28
00000100
00001000
00010000
00100000
10000000
01000000
11000000
00000000
,  // measure 29
00100000
00010000
00001000
00000100
00000001
00000010
00000011
00000000
,  // measure 30
00000001
00001000
00000000
00000000
00000001
00000000
00000010
00000000
00000001
00000000
00000100
00000000
00001001
00000000
00000000
00000000
,  // measure 31
00000100
00001000
00000100
00001000
00010000
01000000
10000000
01000000
,  // measure 32
00100000
00100000
00100000
01000000
00010000
00000000
00011000
00000000
,  // measure 33
00000000
00000000
00000100
00000000
00000000
00000001
00000000
00000000
00002000
00000000
00000002
00000000
00003003
00000000
00000000
00000000
,  // measure 34
00000100
00000010
00000000
00000000
00001000
00000000
00010000
00000000
01000000
00000000
00000000
00000000
10100000
00000000
00000000
00000000
,  // measure 35
00000000
00000000
01000000
00000000
00000000
01000000
00000000
00000000
00010000
00100000
00010000
00100000
00010000
00000000
10000000
00000000
,  // measure 36
00010000
00010000
00010000
00100000
01000000
00000000
01010000
00000000
,  // measure 37
00000000
00000000
00001000
00000000
00000000
00000010
00000000
00000000
00000002
00000000
00000200
00000000
00000000
00000000
00000303
00000000
,  // measure 38
00000001
00001000
00000000
00000000
00000001
00000000
00000100
00000000
00000010
00000000
00001000
00000000
00001100
00000000
00000000
00000000
,  // measure 39
00000010
00001000
00000010
00000000
00000000
00000100
00000000
00000000
00001000
00010000
00001000
00010000
00001000
00000000
00010000
00000000
,  // measure 40
00100000
00100000
10000000
01000000
00010000
01000000
11000000
00000000
,  // measure 41
01000000
01000000
00010000
01000000
10000000
01000000
00010000
00000000
,  // measure 42
00001000
00010000
00000000
00000000
00001000
00000000
00000100
00000000
00000001
00000000
00000100
00000000
00001000
00000000
00000000
00000000
,  // measure 43
00000100
00000001
00001000
00000010
00000010
00001000
00000001
00001000
,  // measure 44
00000010
00000010
00001000
00000100
00000001
00000100
00001100
00000000
,  // measure 45
00000100
00000100
00000001
00000100
00001000
00000100
00000001
00000000
,  // measure 46
00000100
00010000
00000000
00000000
00001000
00000000
01000000
00000000
00100000
00000000
10000000
00000000
00010000
00000000
00000000
00000000
,  // measure 47
01000000
00100000
10000000
00200000
02300000
03200000
10300000
00010000
,  // measure 48
10000000
00000000
10000000
00000000
10000000
00000000
10000000
00000000
01000000
00000000
00000000
00010000
00000000
00000000
00001000
00000000
,  // measure 49
00000000
00000000
00000100
00000000
00000000
00000001
00000000
00000000
00001000
00000000
00000000
00000010
00000000
00000000
00000100
00000000
,  // measure 50
00000010
00000100
00000000
00000000
00000001
00000000
00001000
00000000
00000100
00000000
00000000
00000010
00000000
00000000
00001000
00000000
,  // measure 51
00010000
00000000
00100000
00000000
00000000
01000000
00000000
00000000
10000000
00010000
10000000
00010000
10000000
00000000
00010000
00000000
,  // measure 52
02200000
03300000
00000000
00000000
;

//---------------dance-single - ----------------
#NOTES:
     dance-single:
     :
     Beginner:
     3:
     0.172122,0.210597,0.131623,0.000000,0.000000,119.000000,106.000000,13.000000,0.000000,0.000000,0.000000,0.172122,0.210597,0.131623,0.000000,0.000000,119.000000,106.000000,13.000000,0.000000,0.000000,0.000000:
0000
0000
0000
0000
,
0000
0000
0000
0000
,
0000
0000
0000
0000
,
0000
0000
0000
0000
,
0100
0100
0000
0001
,
0000
0000
0010
0000
,
0100
0000
0000
1000
,
0000
0001
0001
0000
,
0010
0010
0000
0100
,
0000
0000
0010
0000
,
0001
0000
0000
1000
,
0000
0000
0010
0000
,
1000
1000
1000
1000
,
0000
0000
1001
0000
,
0010
0000
0000
1001
,
0000
0100
0100
0000
,
0010
0010
0010
0010
,
0000
0000
0110
0000
,
0001
0000
0000
1000
,
0000
0000
1001
0000
,
0010
0000
1000
0000
,
0010
0000
0100
0100
,
0000
0000
0110
0000
,
0000
0000
1001
0000
,
0100
0000
0001
0000
,
0100
0000
0010
0010
,
0000
0000
1001
0000
,
0000
0000
0100
0100
,
0100
0000
1000
1000
,
0000
0010
0010
0000
,
0110
0000
0100
0100
,
0000
0001
0001
0000
,
0100
0100
0100
0100
,
0000
0000
1001
0000
,
0001
0000
0000
0010
,
0000
0000
0110
0000
,
0010
0010
0010
0010
,
0000
0000
1001
0000
,
0100
0000
1000
1000
,
0000
0010
0010
0010
,
0000
0100
0100
0100
,
0000
0001
0001
0001
,
0000
1000
1000
1000
,
1000
0000
1001
0000
,
0000
0010
0010
0010
,
0000
0100
0100
0100
,
0000
0001
0001
0001
,
0001
0000
1001
0000
,
0100
0000
0001
0000
,
0000
0000
1000
0000
,
0010
0000
1000
0000
,
0000
0000
0001
0001
,
0001
0000
0000
0000
;

//---------------dance-single - ----------------
#NOTES:
     dance-single:
     :
     Medium:
     9:
     0.377512,0.425243,0.283496,0.101248,0.040499,261.000000,233.000000,28.000000,10.000000,0.000000,0.000000,0.377512,0.425243,0.283496,0.101248,0.040499,261.000000,233.000000,28.000000,10.000000,0.000000,0.000000:
0000
0000
0000
0000
,
0000
0000
0000
0000
,
0000
0000
0000
0000
,
0000
0000
0000
0000
,
1000
1000
0001
0001
0100
0000
0101
0000
,
0000
1020
0000
0000
0130
0010
0000
0000
,
1000
0001
0000
0000
0000
0000
0000
0000
0101
0000
0000
0000
1010
0000
0000
0000
,
0000
2001
0000
0000
3010
0100
0001
1000
,
0010
0010
0100
0100
0010
0000
1100
0000
,
0000
0012
0000
0000
0103
0001
0000
0000
,
1000
0001
0000
0000
0000
0000
0000
0000
0011
0000
0000
0000
1100
0000
0000
0000
,
0000
0220
0000
0330
1000
0100
0010
0001
,
1000
0010
1000
0100
1000
0000
1001
0000
,
0000
0000
0100
0010
1000
0010
0100
0000
,
0001
1000
0000
0000
0000
0000
0000
0000
0101
0000
0000
0000
1100
0000
0000
0000
,
0000
0000
0010
0100
0001
0100
0010
0000
,
0100
0001
0100
0010
0100
0000
0011
0000
,
0000
2001
0000
0000
3010
0100
0000
0000
,
1010
0000
1000
0100
0010
0100
1000
0000
,
0000
0000
0001
0010
0100
0010
0001
0000
,
1000
0100
0010
0001
1000
0100
0010
0001
,
0000
0000
0001
1000
0001
0000
0110
0000
,
0000
0000
0000
0000
,
0000
0000
0000
0000
,
0001
0010
0100
1000
0001
0010
0100
1000
,
0000
0000
1000
0001
1000
0000
0110
0000
,
0001
0000
0000
0000
,
0000
0000
0010
0000
0000
0100
0000
0000
0010
0000
0100
0000
0000
0000
0000
0000
,
0001
0010
0100
1000
0100
1000
0100
0000
,
0000
0000
1000
0010
1000
0010
1000
0000
,
0000
0000
0010
0001
0010
0001
0010
0000
,
1000
0100
0010
0001
0100
0001
0010
0100
,
1000
1000
0010
0010
0100
0000
1001
0000
,
0000
0000
0001
0000
0000
0010
0000
0000
0100
0000
1000
0000
0000
0000
0000
0000
,
1001
0000
0110
0101
,
0000
0000
1000
0000
0000
0100
0000
0000
0010
0000
0001
0000
0100
0000
0010
0000
,
0100
0100
0010
0010
1000
0000
0101
0000
,
0000
0000
0100
0000
0000
0010
0000
0000
1000
0000
0001
0000
0000
0000
0000
0000
,
0110
0000
1000
0100
0010
0001
1000
0000
,
0000
0000
0001
0010
0100
1000
0001
0000
,
0100
0010
1000
0100
1000
0100
1000
0000
,
0000
0000
0100
0001
0100
0001
0100
0000
,
0000
0000
1000
0001
1000
0001
1000
0000
,
0001
0010
0100
1000
0010
1000
0100
0010
,
0001
0000
0001
0010
0001
0010
0001
0000
,
0000
0000
0100
1000
0100
1000
0100
0000
,
0000
0000
0001
1000
0001
1000
0001
0000
,
0100
0010
1000
0001
0010
0001
1000
0010
,
0200
0300
0101
0000
,
0000
0000
0010
0000
0000
0100
0000
0000
1000
0000
0001
0000
0000
0000
0000
0000
,
1001
0000
0000
0101
,
0000
2002
0000
3003
0001
0010
0100
1000
,
0020
0000
0030
0000
;

//---------------dance-double - ----------------
#NOTES:
     dance-double:
     :
     Medium:
     9:
     0.386190,0.425243,0.192372,0.020250,0.055687,267.000000,248.000000,19.000000,2.000000,0.000000,0.000000,0.386190,0.425243,0.192372,0.020250,0.055687,267.000000,248.000000,19.000000,2.000000,0.000000,0.000000:
00000000
00000000
00000000
00000000
,
00000000
00000000
00000000
00000000
,
00000000
00000000
00000000
00000000
,
00000000
00000000
00000000
00000000
,
00000001
00001000
00000001
00001000
00000001
00000000
00000110
00000000
,
00000000
00000000
00000010
00000000
00000000
00010000
00000000
00000000
00000010
00000000
00010000
00000000
00000000
00000000
00000000
00000000
,
00101000
00000000
00010000
01000000
00010000
01000000
00010000
00000000
,
10000000
00000000
00010000
00000000
00000000
00010000
00000000
00000000
00100000
00000000
00000000
00100000
00000000
00000000
01000000
00000000
,
10000000
00010000
10000000
00010000
10000000
00000000
01100000
00000000
,
00000000
00000000
00010000
00000000
00000000
00100000
00000000
00000000
01000000
00000000
10000000
00000000
00000000
00000000
00000000
00000000
,
11000000
00010000
00001000
00000100
,
00000000
00000000
00000001
00000000
00000000
00001000
00000000
00000000
00000001
00000000
00000100
00000000
00000001
00000000
00000000
00000000
,
00000100
00000010
00000100
00000010
00000100
00000000
00001001
00000000
,
00000000
00000000
00000100
00001000
00000100
00000000
00001000
00000000
,
00010000
00000000
01000000
10000000
01000000
10000000
01000000
00000000
,
10010000
00000000
00100000
00010000
00100000
00000000
00010000
00000000
,
00001000
00000010
00001000
00000010
00001000
00000000
00000010
00000000
,
00000000
00000000
00000001
00000000
00000000
00000100
00000000
00000000
00000001
00000000
00000100
00000000
00000000
00000000
00000000
00000000
,
00001000
00000000
00010000
00001000
00010000
00000000
01000000
00000000
,
00010000
00000000
00001000
00010000
00001000
00000000
00000100
00000000
,
00000001
00000010
00000100
00010000
00001000
00100000
01000000
10000000
,
00000000
00000000
00010000
10000000
00010000
00000000
10010000
00000000
,
00000000
00000000
00000010
00000000
,
00000000
00000000
00100000
00000000
,
10000000
01000000
00100000
00001000
00010000
00000010
00000100
00000001
,
00000000
00000000
00000001
00001000
00000001
00000000
00001001
00000000
,
00000110
00000000
00000100
00000000
,
00000000
00000000
00000000
00000000
01000000
00100000
01000000
00000000
,
10010000
00000000
10000000
01000000
00100000
01000000
10000000
00000000
,
00000000
00000000
00010000
00100000
01000000
00100000
00010000
00000000
,
00000000
00000000
00100000
00001000
00010000
00001000
00100000
00000000
,
00011000
00000000
00010100
00000000
00000010
00000100
00000001
00000100
,
00000010
00001000
00000010
00001000
00000010
00000000
00001001
00000000
,
00000000
00000000
00000010
00000000
00000000
00010000
00000000
00000000
00001000
00000000
00100000
00000000
00000000
00000000
00000000
00000000
,
01100000
00000000
01000000
00010000
01000000
00010000
01000000
00000000
,
00000000
00000000
01000000
00000000
00000000
00001000
00000000
00000000
00010000
00000000
00000100
00000000
00001000
00000000
00000000
00000000
,
00000001
00000010
00000001
00000010
00000001
00000000
00001100
00000000
,
00000010
00010000
00000010
00010000
00000010
00000000
00011000
00000000
,
00100000
00010000
10000000
01000000
00100000
01000000
10000000
00000000
,
00000000
00000000
00010000
00100000
00001000
00100000
00010000
00000000
,
01000000
00100000
00010000
00000000
00001000
00000000
00000100
00000000
,
00001000
00000000
00000100
00000010
00001000
00000000
00010000
00000000
,
00100000
00000000
10000000
00010000
00100000
00000000
01000000
00000000
,
00010000
00001000
00000100
00000000
00000001
00000010
00000100
00001000
,
00000001
00000000
00000100
00000010
00001000
00000010
00000100
00000000
,
00001000
00000000
00010000
00001000
00100000
00001000
00010000
00000000
,
00100000
00000000
10000000
00010000
01000000
00010000
10000000
00000000
,
01000000
00010000
00001000
00000000
00000010
00000001
00000100
00000001
,
00000010
00000100
00000010
00000100
00000010
00000000
00000110
00000000
,
00000000
00000000
00000100
00000000
00000000
00010000
00000000
00000000
00001000
00000000
01000000
00000000
00000000
00000000
00000000
00000000
,
10010000
00000000
00000000
00000000
00000000
00000000
00000000
00000000
00100000
00000000
00000000
00001000
00000000
00000000
00010000
00000000
,
00000010
00000000
00000100
00000000
00000000
00000100
00000000
00000000
00000100
00000000
00000010
00000000
00010000
00000000
00000000
00000000
,
00022000
00000000
00033000
00000000
;

//---------------dance-double - ----------------
#NOTES:
     dance-double:
     :
     Easy:
     6:
     0.244443,0.318932,0.060749,0.080999,0.000000,169.000000,163.000000,6.000000,8.000000,0.000000,0.000000,0.244443,0.318932,0.060749,0.080999,0.000000,169.000000,163.000000,6.000000,8.000000,0.000000,0.000000:
00000000
00000000
00000000
00000000
,
00000000
00000000
00000000
00000000
,
00000000
00000000
00000000
00000000
,
00000000
00000000
00000000
00000000
,
00100000
01000000
01000000
00100000
,
00010000
00000000
00002000
00000000
,
00003100
00000001
00001000
00001000
,
00000001
00000010
00001000
00010000
,
00100000
10000000
10000000
00010000
,
01000000
01000000
00001000
00010000
,
00010000
00000010
00000100
00000010
,
00000000
00002002
00000000
00000000
00000000
00000000
00003003
00000000
,
00000001
00001000
00000001
00000000
00000010
00000000
00001000
00000000
,
00010000
00100000
00100000
10000000
,
00010000
10000000
01000000
00010000
,
00001000
00000100
00000100
00000001
,
00000000
00001000
00000001
00000101
,
00000010
00010000
00001000
00011000
,
00101000
00010000
00010000
00001000
,
00000000
01000000
01000000
00100000
,
10000000
00010000
10000000
00000000
00100000
00000000
01000000
00000000
,
00000000
00000000
00010000
10000000
00010000
00000000
01000000
00000000
,
00000000
00000000
00100000
00000000
,
00000000
00000000
00000010
00000000
,
00000001
00001000
00000001
00000000
00000100
00000000
00000010
00000000
,
00000000
00000000
00001000
00000001
00001000
00000000
00000020
00000000
,
00000230
00000300
00000100
00000000
,
00000000
00000000
02000000
00000000
,
03100000
10000000
10000000
00010000
,
00000000
00100000
00100000
01000000
,
00000000
00010000
00010000
00001000
,
00000100
00000100
00000001
00001000
,
00000010
00000100
00000010
00001000
,
00000000
00000000
00000001
00000000
00001000
00000002
00000000
00000003
,
00000100
00000000
00001000
00010000
,
00100000
10000000
00010000
10000000
,
00100000
01000000
00100000
00000000
00100000
00000000
00010000
00000000
,
00010000
00001000
00001000
00000100
,
00000100
00000001
00001000
00000001
,
00000000
00001000
00000100
00001000
,
00000000
00000100
00000100
00010000
,
00000000
00001000
00001000
00100000
,
00000000
01000000
01000000
00010000
,
00001000
00000010
00000001
00001000
,
00000001
00000100
00000100
00001000
,
00000000
00010000
00010000
00100000
,
00000000
10000000
10000000
00010000
,
10000000
01000000
00010000
00001000
,
00000010
00000001
00001000
00000100
,
00000000
00000000
00011000
00000000
,
00100000
00000000
01010000
00000000
,
00000000
10000000
01000000
00100000
,
00002000
00000000
00003000
00000000
;
