#TITLE:Drastic Dramatic;
#SUBTITLE:;
#ARTIST:KING & Princess;
#TITLETRANSLIT:;
#SUBTITLETRANSLIT:;
#ARTISTTRANSLIT:;
#GENRE:Trance;
#CREDIT:;
#BANNER:drasticdramatic-bn.png;
#BACKGROUND:drasticdramatic-bg.png;
#LYRICSPATH:;
#CDTITLE:;
#MUSIC:Drastic Dramatic.mp3;
#OFFSET:-0.040000;
#SAMPLESTART:50.639999;
#SAMPLELENGTH:12.000000;
#SELECTABLE:YES;
#BPMS:0.000000=166.000000
;
#STOPS:
;
#BGCHANGES:;
#KEYSOUNDS:;
#ATTACKS:;

//---------------dance-single - ----------------
#NOTES:
     dance-single:
     :
     Challenge:
     18:
     1.104422,1.100929,0.619495,0.050917,1.502062,911.000000,838.000000,73.000000,6.000000,0.000000,0.000000,1.104422,1.100929,0.619495,0.050917,1.502062,911.000000,838.000000,73.000000,6.000000,0.000000,0.000000:
0000
0000
0000
0000
,
0000
0000
0000
0000
,
0000
0000
0000
0000
,
0000
0000
0000
0000
,
0000
0000
0000
0000
0000
0000
0000
0000
0011
0000
0000
0010
0001
0010
0001
0000
,
1001
0000
1000
0010
0100
0000
1001
0000
0001
0010
0100
0000
1001
0000
1000
0100
,
0010
0000
1001
0000
0001
0100
0010
0000
0010
0100
0001
0100
0010
1000
0010
0000
,
1001
0000
0001
0100
0010
0000
1001
0000
1000
0010
0100
0000
1010
0000
0001
0010
,
0100
0000
1001
0000
1000
0100
0010
0000
0010
0100
1000
0001
0010
0001
0010
0001
,
1000
0000
0010
0100
0001
0000
0001
0100
0010
0000
0010
1000
0100
0000
0100
1000
,
0010
0000
0010
0100
0001
0000
0001
0100
0010
0000
1000
0100
0010
0001
0010
0100
,
1000
0000
1000
0010
0100
0000
0100
0010
1000
0000
1000
0001
0010
0000
0010
0001
,
1000
0000
1000
0010
0100
0000
0100
0010
1000
0000
0000
0000
1001
0000
0000
0000
,
0011
0000
0010
0001
0100
0000
0100
0001
0010
0000
0010
0100
1000
0000
1000
0100
,
0010
0000
0010
0001
0100
0000
0100
0001
0010
0000
0001
1000
0010
0100
0010
1000
,
0001
0000
0001
1000
0100
0000
0100
1000
0001
0000
0001
0010
1000
0000
1000
0010
,
0001
0000
0001
1000
0100
0000
0100
1000
0001
0010
0000
0000
1100
0000
0000
0000
,
0001
0000
0011
0000
0000
0110
0000
0010
0001
0010
0100
1000
0010
0100
0001
1000
,
0001
0010
0100
1000
0010
0100
0001
1000
0001
0010
0100
1000
0001
0100
0010
1000
,
0000
0000
1010
0000
0000
1001
0000
0010
1000
0010
0100
0001
1000
0001
0100
0010
,
0110
0000
0000
1010
0000
0000
2002
0000
3003
1000
0001
1000
0010
0000
0000
0000
,
0100
0001
0000
0001
0100
0010
0000
0000
1001
0000
0110
0000
0000
0101
0000
0100
,
0010
1000
0001
0100
0010
0100
0001
1000
0010
1000
0001
0100
0010
0100
0001
1000
,
0010
0000
0000
1000
0100
0000
0010
0001
0100
0000
0010
1000
0000
1010
0000
0100
,
0001
0000
0000
0001
0100
0000
0010
0000
1010
0000
0000
1001
0000
0000
0202
0000
,
0303
0000
0010
0100
0001
0000
0000
0000
0110
0000
0000
1010
0000
0000
1001
0000
,
0001
1000
0001
1000
0001
1000
0001
1000
0010
0000
0100
0001
1000
0010
0100
0001
,
1000
0100
1000
0000
0010
0100
0010
0100
0001
0010
0100
1000
0100
0010
0001
0000
,
1000
0100
1000
0100
0010
0001
1000
0100
1000
0001
0010
0001
1000
0100
0010
0000
,
0001
1000
0001
0000
1000
0010
1000
0010
0100
0001
1000
0010
1000
0001
0100
0000
,
0001
0010
1000
0000
1000
0010
0001
0000
0001
0100
1000
0100
0001
0010
1000
0010
,
0001
0010
0001
0010
0100
1000
0100
1000
0010
1000
0010
1000
0100
0010
0100
0010
,
0001
0010
0100
0001
0100
1000
0010
0100
1000
0100
0001
0010
0100
1000
0001
0000
,
1000
0100
0010
0001
1000
0010
0100
0000
0001
0010
0100
1000
0100
0010
0001
1000
,
0010
0100
0010
0001
0010
1000
0001
0000
1000
0000
0010
0000
0010
0000
0000
0000
,
1001
0000
1000
0100
1000
0000
0100
0001
0100
0000
1000
0010
1000
0001
0000
1001
,
0000
0000
0000
0010
0100
0000
0101
0000
0000
0000
0010
0000
1000
0000
0010
0000
,
1100
0000
0000
0000
1000
0100
0010
0001
0010
0100
1000
0100
0010
0001
0010
0100
,
1000
0000
0010
0000
0100
0010
0001
0010
1000
0000
0000
0000
0101
0000
0000
0000
,
1001
0000
0001
0010
0001
0000
0010
1000
0010
0000
0001
0100
0001
1000
0000
1100
,
0000
0000
0000
1000
0010
0000
0110
0000
0000
0000
0100
0000
0001
0000
1000
0000
,
1001
0000
0010
1000
0010
0000
0100
0001
0100
0000
0010
1000
0010
0100
0000
1001
,
0000
0000
0000
0001
0010
0000
0110
0000
0000
0000
0100
0000
1000
0000
0010
0000
,
0110
0000
0000
0000
0001
0100
0010
1000
0010
0100
0001
0100
0010
1000
0010
0100
,
0001
0000
0000
0000
0000
0000
0000
0000
1000
0001
1000
0000
0001
1000
0000
0001
,
1000
0000
0100
0000
0010
0001
0000
0010
0000
0000
0100
1000
0100
1000
0100
1000
,
0010
0000
0000
0000
0100
0000
0101
0000
0001
0000
0010
0001
0010
0001
0010
0001
,
0100
0000
0000
0010
0000
0100
0010
1000
0001
0000
0001
0010
0100
1000
0010
0000
,
0110
0000
0000
0100
0001
0000
0000
0100
0010
0000
0010
0000
0010
1000
0000
1000
,
0001
0000
0100
0010
1000
0010
0100
0110
0000
0000
0100
0000
0101
0000
0001
0000
,
0010
0100
0000
0100
1000
0100
0000
1000
0010
0100
0001
0100
0010
0100
0001
0000
,
0011
0000
0000
0100
1000
0000
0000
0100
0010
0000
0001
0000
0001
0000
0001
0000
,
1000
0100
0010
0001
0100
0010
1000
0000
0001
0010
0100
1000
0010
0100
0001
0000
,
1001
0000
1000
0010
1000
0010
1000
0010
1000
0000
0001
0010
0100
1000
0100
0010
,
0001
0010
0100
1000
0100
0000
1000
0010
0100
0001
0100
0010
1000
0010
0100
0001
,
0010
0100
1000
0100
0010
0000
0010
0001
0000
0001
0100
0010
1000
0010
0100
0001
,
1000
0010
0100
0001
1000
0001
0100
0010
1000
0100
0010
0001
0100
0010
1000
0001
,
0010
0100
0000
0100
1000
0000
1000
0010
0000
0010
0100
0001
0100
0001
1000
0010
,
0100
0010
1000
0000
0001
0010
0100
0000
0010
0001
1000
0100
1000
0001
0010
0000
,
0100
1000
0100
0010
0000
0101
0000
1100
0000
0010
0100
0010
0001
0010
0100
1000
,
0001
0000
0000
0000
0000
0000
0100
0000
0000
1000
0000
0000
0000
0000
0000
0100
0000
0000
0000
0000
0000
0001
0000
0000
0000
0000
0000
0000
0001
0000
0100
0000
0010
0000
1000
0000
0001
0000
0000
0000
0000
0000
0000
0000
0000
0000
0000
0000
,
1001
0000
0100
0010
0000
0100
0010
0000
0010
0100
0000
0010
0100
0000
1001
0000
,
0110
0000
0100
0010
0000
0100
0010
0000
0001
0000
0100
0000
0010
0000
1000
0000
,
0110
0000
1000
0001
0000
1000
0001
0000
0001
1000
0000
0001
1000
0000
0110
0000
,
0001
1000
0000
0001
1000
0000
1001
0000
0000
0000
0220
0000
0000
0000
0330
0000
,
0101
0000
0010
1000
0010
0000
1000
0100
0010
0000
0001
0100
0010
1000
0010
0100
,
0001
0000
0000
0000
0011
0000
0010
0001
0000
0011
0000
1010
0000
1100
0000
0101
,
0000
0001
0100
0010
1000
0000
0100
0010
1000
0000
0100
0010
1000
0001
0000
0010
,
0100
1000
0100
1000
0100
0010
0100
0010
0001
0000
1000
0000
1001
0000
0000
0001
,
1000
0000
0100
0001
0000
0100
1000
0000
0100
0001
0000
0100
1000
0000
0100
0001
,
0000
0100
1000
0000
0100
0001
0000
0100
1000
0010
0100
0001
0010
0100
1000
0000
,
1001
0000
0001
0010
0000
1000
0010
0000
0001
0010
0000
1000
0010
0000
0001
0000
,
0100
0010
0100
0010
1000
0000
0000
0100
0010
0000
0001
1000
0001
1000
0001
0000
,
0101
0000
0010
1000
0000
0000
0000
0000
1100
0000
0010
0001
0000
0000
0000
1001
,
0000
0001
0100
0001
0100
0010
0000
0010
1000
0000
1000
0100
0000
0100
0010
0001
,
0100
0010
1000
0100
0010
0001
0100
0010
1000
0000
1001
0000
0010
0100
0010
0100
,
0110
0000
0000
0000
0010
0000
1100
0000
0000
0000
1000
0000
0101
0000
0000
1001
,
0000
0001
0010
0100
1000
0100
0010
0001
0010
0100
1000
0100
0010
0000
0000
0000
,
0000
0000
0000
0000
0000
0000
1001
0000
0000
1000
0010
0100
0001
0100
0010
1000
0000
0000
0000
0000
0000
0000
0000
0000
;

//---------------dance-single - ----------------
#NOTES:
     dance-single:
     :
     Hard:
     16:
     0.923786,0.934121,0.509174,0.050917,1.073508,762.000000,702.000000,60.000000,6.000000,0.000000,0.000000,0.923786,0.934121,0.509174,0.050917,1.073508,762.000000,702.000000,60.000000,6.000000,0.000000,0.000000:
0000
0000
0000
0000
,
0000
0000
0000
0000
,
0000
0000
0000
0000
,
0000
0000
0000
0000
,
0000
0000
0000
0000
0000
0000
0000
0000
0011
0000
0000
0001
0010
0100
1000
0000
,
1010
0000
1000
0010
0100
0000
0101
0000
0001
0010
0100
0000
1100
0000
1000
0010
,
0100
0000
0101
0000
0001
0010
0000
0000
1100
0000
0000
0000
0011
0000
0000
0000
,
0101
0000
0001
0100
0010
0000
1010
0000
1000
0100
0010
0000
0011
0000
0001
0100
,
0010
0000
1010
0000
1000
0100
0000
0010
0001
0000
0000
0100
0010
0100
0010
0100
,
0010
0000
1000
0100
1000
0000
1000
0010
1000
0000
1000
0001
1000
0000
0010
0100
,
0001
0000
0001
0010
0001
0000
0001
0100
0001
0000
0001
0010
0100
1000
0100
0010
,
0100
0000
0100
1000
0100
0000
0100
0010
0100
0000
0100
1000
0100
0000
0100
0010
,
0001
0000
0001
1000
0001
0000
0000
0000
1010
0000
0000
0000
1001
0000
0000
0000
,
0010
0000
0010
0001
0010
0000
0010
0100
0010
0000
0010
1000
0010
0000
0010
0001
,
0100
0000
0100
0001
0100
0000
0100
1000
0100
0000
0010
1000
0001
0100
0001
0010
,
0001
0000
0001
0100
0001
0000
0001
1000
0001
0000
0001
0010
0001
0000
0010
0100
,
1000
0000
1000
0010
1000
0000
1000
0100
1000
0010
0000
0000
0101
0000
0000
0000
,
0010
0000
0001
0000
0000
1001
0000
0000
0010
0000
1000
0100
0010
0000
0001
0000
,
0100
0000
0010
1000
0100
0000
0010
0000
0001
0000
0000
0100
0010
0000
1000
0001
,
1000
0000
0010
0000
0000
1001
0000
0001
0100
0010
0000
0010
1000
0000
0000
0100
,
1000
0000
0000
0110
0000
0000
0011
0000
0000
0001
1000
0001
1000
0000
0000
0000
,
0100
0010
0000
0001
0000
0011
0000
0000
1001
0000
0010
0000
0000
1010
0000
0000
,
1000
0000
0100
0010
0001
0010
0100
0000
1000
0000
0010
0100
0001
0100
0010
0000
,
1000
0000
0000
0001
0100
0000
0010
1000
0010
0000
0100
0001
0000
1000
0000
0010
,
1000
0000
0000
0100
0010
0000
0001
0000
0101
0000
0000
0110
0000
0000
1010
0000
,
0000
0000
1000
0001
0100
0000
0000
0000
1010
0000
0000
0110
0000
0000
0101
0000
,
0001
0010
0001
0010
0001
0010
0001
0010
0001
0000
0100
0010
1000
0010
0100
0001
,
0010
0100
1000
0000
0100
0000
0010
0001
0010
0001
0100
0000
0000
0000
0010
0000
,
1000
0100
1000
0000
0010
0100
0001
0010
0100
0000
1000
0000
0010
0000
0100
0000
,
0001
0010
0001
0000
0010
0100
1000
0100
0010
0000
0001
0000
0100
0000
0001
0000
,
1000
0010
1000
0000
0001
0100
0001
0000
0010
0001
0010
0000
0100
1000
0100
0000
,
1000
0010
1000
0000
0010
0100
0010
0000
0100
0001
0100
0000
0001
0000
1000
0000
,
0001
0010
0001
0000
0010
0100
0010
0000
0100
1000
0100
0000
1000
0000
0001
0000
,
1000
0010
1000
0010
0100
0000
0000
0000
0001
0010
0001
0010
0100
1000
0010
0100
,
0001
1000
0001
0000
0100
0000
0010
0000
1000
0000
1010
0000
0101
0000
0000
0000
,
0011
0000
0010
0000
0100
0000
0000
0000
1000
0000
0010
0000
0100
0001
0000
0101
,
0000
0000
1000
1010
0000
0001
0010
1000
,
0010
0000
0000
0000
0001
0010
0100
1000
0100
0010
0001
0010
0100
1000
0001
0000
,
0101
0000
0000
1001
0000
0000
1010
0000
,
0110
0000
0000
0000
0000
0000
0000
0000
0000
0000
0000
0000
0001
0100
0000
0101
,
0000
0000
0100
0110
0000
0010
1000
0010
,
1010
0000
0000
0000
1000
0000
0000
0000
0001
0000
0000
0000
1000
0010
0000
1010
,
0000
1000
0001
1001
0000
0001
0010
0001
,
1000
0100
0010
0001
0010
0100
1000
0100
0010
0001
0010
0100
1000
0100
0010
0001
,
0010
0000
0000
0000
0000
0000
0000
0000
0001
0010
0001
0000
0010
0100
0000
0000
,
1000
0000
0010
0000
0100
0001
0000
1000
0000
0010
0100
0010
1000
0010
0100
0001
,
0000
0000
0000
0010
0001
0000
0010
0000
0100
1000
0100
0010
0001
0100
0010
0000
,
1000
0000
0001
0100
0000
0010
0000
1000
0001
0000
0010
0100
0010
0001
0010
0000
,
0001
0000
0000
0001
0100
0000
0000
0100
0010
0000
1000
0000
0010
1000
0000
0000
,
1001
0000
1000
0100
0010
0001
0100
0010
1000
0000
0001
0000
0100
0000
0001
0000
,
0010
0100
0000
0000
0100
1000
0000
0000
1000
0000
0010
0100
0000
0100
0001
0010
,
0100
0000
0000
0100
1000
0000
0000
1000
0010
0000
0100
0000
0010
0000
0100
0000
,
0001
0100
0001
0000
1000
0010
1000
0000
0001
0000
0100
0000
0010
0000
1000
0000
,
0001
0000
0100
0001
0100
0001
0100
0001
0100
0000
0010
1000
0010
0000
0100
0000
,
0001
0010
0100
0000
1000
0000
0010
0000
0100
0001
0010
0100
1000
0000
0010
0000
,
1000
0100
0010
0001
0010
0000
0001
0010
0000
0100
1000
0000
0010
0100
0000
0000
,
0010
1000
0001
0100
0001
1000
0010
0100
0000
0001
1000
0000
0010
0100
0000
0001
,
1000
0000
0100
0000
0010
0000
0001
1000
0000
1000
0010
0000
0100
0000
0001
0000
,
0010
0100
1000
0000
0100
0000
0010
0000
0001
0010
0100
1000
0100
0010
0001
0000
,
1000
0000
0010
0100
0000
0001
0000
1000
0000
0010
0100
0000
0010
0000
1000
0000
,
0001
0000
0100
0001
0000
0001
0000
0001
0000
0010
0100
0000
1000
0000
0000
0000
,
1010
0000
1000
0010
0000
1000
0010
0000
0010
1000
0000
0010
1000
0000
0010
0000
,
1010
0000
1000
0010
0000
1000
0010
0000
1000
0000
0100
0000
0010
0000
0001
0000
,
0011
0000
0001
0010
0000
0001
0010
0000
0010
0001
0000
0010
0001
0000
0011
0000
,
0001
0010
0000
0001
0010
0000
0001
0000
0000
0000
2002
0000
0000
0000
3003
0000
,
0110
0000
0000
0000
0000
0000
0010
1000
0010
0000
0100
0000
0001
0000
1000
0000
,
1001
0000
0000
0000
0010
0000
0010
1000
0000
0100
0000
0010
0000
0001
0000
0100
,
0000
0000
0010
1000
0010
0000
0100
0001
0100
0000
0010
1000
0010
0100
0001
0000
,
0010
0100
1000
0100
0010
0001
0010
0100
1000
0000
0010
0100
0001
0000
0000
0000
,
1000
0000
0001
0010
0000
0100
1000
0000
0001
0010
0000
0100
1000
0000
0001
0010
,
0000
0100
1000
0000
0001
0010
0000
0100
1000
0010
0100
0001
0010
0100
1000
0000
,
0001
0000
1000
0010
0000
0100
0001
0000
1000
0010
0000
0100
0001
0000
1000
0010
,
0100
0001
0010
0001
1000
0000
0000
0000
0000
0000
0001
0100
0010
1000
0001
0000
,
0101
0000
0000
1001
0000
0000
0000
0000
1010
0000
0000
1001
0000
0000
0000
0220
,
0000
0000
0000
0000
0330
0000
0000
0000
0010
0000
1000
0001
1000
0000
0010
0000
,
0100
0001
0100
0010
1000
0010
0100
0001
0000
0000
1001
0000
0000
0000
0000
0000
,
0011
0000
0000
0000
0100
0000
1100
0000
0000
0000
0010
0000
1010
0000
0000
0101
,
0000
0000
0001
0010
0100
1000
0100
0010
0001
0010
0100
1000
0100
0010
0000
0000
,
0000
0000
0022
0000
0000
0033
0000
0000
;

//---------------dance-single - ----------------
#NOTES:
     dance-single:
     :
     Medium:
     12:
     0.550392,0.568047,0.186697,0.084862,0.212156,454.000000,432.000000,22.000000,10.000000,0.000000,0.000000,0.550392,0.568047,0.186697,0.084862,0.212156,454.000000,432.000000,22.000000,10.000000,0.000000,0.000000:
0000
0000
0000
0000
,
0000
0000
0000
0000
,
0000
0000
0000
0000
,
0000
0000
0000
0000
,
0000
0000
0011
1001
,
0200
0000
0000
0010
0000
0000
1000
0000
,
0000
0001
0000
0000
0010
0000
0310
0000
,
0020
0000
0000
1000
0000
0000
0001
0000
,
0000
0100
0000
0000
0030
0000
0100
0010
,
0100
0000
0001
0010
0000
0001
1000
0000
,
0001
0010
0000
0001
1000
0100
0010
0001
,
1001
0000
1000
0010
0000
1000
0001
0000
,
1000
0010
0000
1000
0001
0000
1001
0000
,
0110
0000
0010
1000
0000
0010
0100
0000
,
0010
1000
0000
0010
0100
0001
1000
0010
,
0110
0000
0100
0001
0000
0100
0010
0000
,
0100
0000
0001
0000
0000
0000
0100
0000
0010
0100
0000
0000
0010
0000
0000
0000
,
0000
0000
1000
0000
0000
0100
0000
0000
1000
0000
0010
0000
0100
0000
0001
0000
,
1000
0000
0010
0100
0001
0000
1000
0010
,
0100
0000
0010
0000
0000
1000
0000
0000
0001
0000
0100
0000
0010
0000
1000
0000
,
0001
0000
0000
0001
0000
0000
0001
0000
0000
0000
0000
0000
0000
0000
0000
0000
,
1000
0001
0000
1000
0000
0001
0000
0000
1000
0000
0010
0000
0000
0100
0000
0000
,
0010
1000
0001
0100
0010
0000
0100
0010
,
1000
0000
0000
0000
0010
0000
0100
0000
0001
0000
0010
0000
0000
0100
0000
0000
,
0010
0000
0001
0000
1000
0000
0010
0000
0100
0000
0000
0100
0000
0000
0100
0000
,
0000
0000
0001
0000
1000
0000
0000
0000
0010
0000
0000
0010
0000
0000
0010
0000
,
1000
0001
1000
0001
1000
0000
0010
0100
,
0001
0010
0001
1000
0010
0000
0100
0010
,
0100
0001
0100
0010
1000
0010
0100
0010
,
1000
0100
0000
0010
0001
0000
0001
0100
,
0010
1000
0010
0100
0001
1000
0010
0100
,
0110
0101
1001
0010
,
1000
0100
0010
0100
1000
0100
0010
0001
,
1000
0001
0010
0000
0010
0001
1000
0001
,
0100
0010
0100
0010
1000
0001
0001
0000
,
0101
0000
0000
0000
0001
0000
1000
0000
0001
0000
0000
0000
0010
0000
0000
0100
,
0000
0000
0000
1100
0000
1000
0010
0100
,
0001
0000
0000
0010
0001
1000
0010
0100
,
0020
0000
0000
2030
0000
0000
3001
0000
,
1001
0000
0000
0000
1000
0000
0010
0000
1000
0000
0000
0000
0010
1000
0000
0001
,
0000
0000
0000
0011
0000
0010
0001
1000
,
0010
0000
0000
0000
0100
0000
0001
0000
0100
0000
0000
0000
0100
0010
0000
0100
,
0000
0000
0000
0110
0000
0010
1000
0100
,
0010
0000
0001
0010
0100
1000
0100
0010
,
0001
0000
0000
0000
0000
0000
0000
0000
1000
0001
1000
0000
0001
1000
0000
0000
,
0001
0010
0001
1000
0010
0100
0010
0100
,
0010
0000
0000
0000
0100
0001
0100
0001
,
0010
0000
0100
0000
1100
0000
1000
0010
,
0100
0000
0000
0100
0001
0000
0000
0100
0001
0000
1000
0000
0010
0000
1000
0000
,
0001
0000
0010
0000
0100
0000
1000
0100
0000
0000
1000
0000
0010
0000
0100
0000
,
0001
0000
0000
0001
0010
0000
0000
0010
0001
0000
0100
0000
0010
0000
1000
0000
,
0010
0000
0000
0010
1000
0000
0000
0010
1000
0000
0001
0000
0100
0000
0001
0000
,
1000
0100
0001
0010
,
1000
0001
1000
0001
1000
0000
0001
0100
,
0010
1000
0010
0000
0100
0001
0100
0000
,
0001
0000
0010
0000
0001
0000
0010
0001
0000
0000
0001
0000
0100
0000
0010
0000
,
1000
0100
0010
0001
,
0100
0000
0010
0000
1000
0000
0010
0100
0000
0000
0010
0000
0100
0000
0001
0000
,
0100
0010
1000
0001
,
1000
0000
0100
0010
0000
0001
0000
0010
0000
0000
0001
0000
0100
0000
0010
0000
,
1000
0000
0001
0010
0000
0001
0000
0010
0000
0000
0002
0000
0000
0000
0003
0000
,
1000
0000
0000
0001
0000
0000
1000
0000
1000
0000
0000
0001
0000
0000
1000
0000
,
1000
0000
0000
0001
0000
0000
1000
0000
0001
0000
0010
0000
0100
0000
1000
0000
,
0001
0000
0000
1000
0000
0000
0001
0000
0010
0000
0000
0100
0000
0000
1000
0000
,
0010
0000
0000
0100
0000
0000
0001
0000
0000
0000
2002
0000
0000
0000
3003
0000
,
0011
0000
0000
0000
0000
0000
0010
0001
0010
0000
0001
0000
1000
0000
0010
0000
,
0100
0000
0010
0000
0100
0001
1000
0000
,
1000
0001
1000
0001
1000
0001
1000
0001
,
0010
0100
1000
0100
0010
0001
0001
0000
,
1000
0000
0000
0100
0000
0000
1000
0000
0000
0100
0000
0000
1000
0000
0000
0100
,
0000
0000
1000
0000
0000
0100
0000
0000
0010
0000
0001
0000
0010
0000
0000
0000
,
0001
0000
0000
0100
0000
0000
0001
0000
0000
0100
0000
0000
0001
0000
0000
0000
,
0100
0010
1000
0000
0000
0001
0010
0100
,
1000
0000
0000
0001
0000
0000
0000
0000
0100
0000
0000
0010
0000
0000
0000
0220
,
0000
0000
0000
0330
0001
0010
0100
1000
,
0010
0100
0001
1000
0010
0100
0000
0000
,
1010
0000
0000
0000
0000
0000
1001
0000
0000
0000
0000
0000
0011
0000
0000
1001
,
0000
0001
0010
0100
1000
0100
0010
0000
,
0000
0002
0000
0003
;

//---------------dance-single - ----------------
#NOTES:
     dance-single:
     :
     Easy:
     8:
     0.377031,0.467803,0.237614,0.246101,0.000000,311.000000,283.000000,28.000000,29.000000,0.000000,0.000000,0.377031,0.467803,0.237614,0.246101,0.000000,311.000000,283.000000,28.000000,29.000000,0.000000,0.000000:
// measure 0
0000
0000
0000
0000
,  // measure 1
0000
0000
0000
0000
,  // measure 2
0000
0000
0000
0000
,  // measure 3
0000
0000
0000
0000
,  // measure 4
0000
0000
0011
1001
,  // measure 5
2000
0000
0000
3200
0000
0000
0320
0000
,  // measure 6
0000
0032
0000
0000
1003
0000
1000
0000
,  // measure 7
0002
0000
0000
0023
0000
0000
0230
0000
,  // measure 8
0000
2300
0000
0000
3000
0000
0001
1000
,  // measure 9
0001
0000
0000
0101
0000
0000
1000
0000
,  // measure 10
0000
1100
0000
0000
0010
0100
0010
0000
,  // measure 11
0100
0000
0000
0101
0000
0000
0010
0000
,  // measure 12
0000
1010
0000
0000
2000
0000
3002
0000
,  // measure 13
0013
0000
0000
0011
0000
0000
0100
0000
,  // measure 14
0000
1100
0000
0000
1000
0001
1000
0000
,  // measure 15
0010
0000
0000
0110
0000
0000
1000
0000
,  // measure 16
0000
1001
0000
0000
0000
0010
0100
0000
,  // measure 17
0002
0000
0003
0000
0010
0001
0010
0000
,  // measure 18
0100
1000
0100
0000
0010
0000
0011
0000
,  // measure 19
0200
0000
0300
0000
1000
0001
1000
0000
,  // measure 20
2020
0000
0000
0000
3030
0101
0000
0000
,  // measure 21
0020
0000
0030
0000
0000
0001
1000
0000
,  // measure 22
0010
0000
1000
0100
1000
0000
0001
0100
,  // measure 23
0001
0000
1000
0100
1000
0000
0001
0100
,  // measure 24
0010
0000
0100
0001
0200
0000
0000
0000
,  // measure 25
0300
0000
0020
0000
,  // measure 26
1030
0001
1000
0001
0200
0000
0000
0000
,  // measure 27
0301
0010
0000
0010
0001
0000
0000
1000
,  // measure 28
0100
0000
0010
0000
0100
0000
1000
0001
,  // measure 29
0010
0100
0000
0100
0010
0000
0000
0001
,  // measure 30
1000
0000
0001
0000
0010
0000
0001
0100
,  // measure 31
0010
0000
1000
0000
0001
0000
0100
0010
,  // measure 32
1000
0100
0010
0100
,  // measure 33
1000
0001
1000
0000
0001
1000
0001
1000
,  // measure 34
0001
0000
0100
0000
0010
1000
1000
0000
,  // measure 35
1100
0000
0000
0000
0000
0000
0001
0010
,  // measure 36
0000
0000
0000
0011
0000
0010
0001
0010
,  // measure 37
0100
0000
0000
0010
0001
0000
1000
0000
,  // measure 38
0010
0000
0000
1000
0000
0000
0001
0000
,  // measure 39
1001
0000
0000
0000
0000
0000
0100
0010
,  // measure 40
0000
0000
0000
1010
0000
0010
1000
0010
,  // measure 41
0100
0000
0000
0000
0000
0000
0001
1000
,  // measure 42
0000
0000
0000
1001
0000
1000
0100
0010
,  // measure 43
0001
0000
0000
0000
,  // measure 44
0000
0000
0000
0000
0000
0220
0000
0330
,  // measure 45
1000
0001
1000
0001
0100
0000
0010
0000
,  // measure 46
1000
0000
0000
0000
0000
0010
0100
0001
,  // measure 47
1000
0000
0000
0010
1000
0001
0100
0000
,  // measure 48
0010
0000
0010
0000
1000
1000
1000
0000
,  // measure 49
0100
0000
0010
0001
1000
0000
0010
1000
,  // measure 50
0001
0100
0010
1000
,  // measure 51
0001
0000
0001
0000
0100
0100
0100
0000
,  // measure 52
0010
0010
0010
0010
,  // measure 53
0000
1000
0100
0010
0001
0000
0100
0000
,  // measure 54
0010
0000
1000
0000
0001
1000
0001
0000
,  // measure 55
0100
0001
0100
0010
0000
0010
0100
0000
,  // measure 56
0010
1000
0010
1000
,  // measure 57
0001
0100
0000
0010
1000
0000
0100
0010
,  // measure 58
0001
0100
0001
0100
,  // measure 59
0001
0020
0000
0000
0000
0130
1000
0100
,  // measure 60
0010
0001
0010
0000
0000
2002
0000
3003
,  // measure 61
0001
0000
0100
0000
,  // measure 62
1000
0000
0020
0000
,  // measure 63
0031
0000
0010
0000
,  // measure 64
1000
0000
0000
0000
0000
0200
0000
0000
,  // measure 65
0301
0000
0000
0010
0100
0000
0000
0000
,  // measure 66
1000
0001
1000
0001
,  // measure 67
0000
0001
0010
0001
0010
0001
0010
0000
,  // measure 68
0200
0000
0000
0000
0300
1000
0001
0000
,  // measure 69
0101
0010
1000
0010
,  // measure 70
1000
0010
1000
0100
,  // measure 71
1010
0100
0001
0100
,  // measure 72
0001
0000
1000
0000
0000
0001
1000
0000
,  // measure 73
1001
0000
0110
0000
,  // measure 74
0101
0000
0000
0000
0001
1000
0010
0100
,  // measure 75
0010
0000
0100
0000
0000
0110
0000
0000
,  // measure 76
1002
0000
0000
0100
0000
0000
0013
0000
,  // measure 77
0000
0000
0000
0000
,  // measure 78
0000
2002
0000
3003
;

//---------------dance-single - ----------------
#NOTES:
     dance-single:
     :
     Beginner:
     3:
     0.191546,0.233902,0.093348,0.093348,0.000000,158.000000,147.000000,11.000000,11.000000,0.000000,0.000000,0.191546,0.233902,0.093348,0.093348,0.000000,158.000000,147.000000,11.000000,11.000000,0.000000,0.000000:
0000
0000
0000
0000
,
0000
0000
0000
0000
,
0000
0000
0000
0000
,
0000
0000
0000
0000
,
0000
0000
0100
0100
,
0200
0300
0000
0020
,
0030
0000
1000
1000
,
2000
3000
0000
0002
,
0003
0000
0000
0010
,
0010
0000
0000
0001
,
0000
0000
0100
0100
,
0100
0000
0000
0001
,
0000
0000
0010
0010
,
0010
0000
0000
0100
,
0000
0000
1000
1000
,
1000
0000
0000
0001
,
0000
0000
0100
0100
,
0100
0000
0010
0000
,
1000
0000
0001
0000
,
0010
0010
0010
0000
,
0001
0000
0000
1000
,
1000
0000
0000
0001
,
0001
0000
0100
0000
,
0010
0000
1000
1000
,
1000
0000
1001
0000
,
0000
0000
0110
0000
,
2002
0000
3003
0000
,
0001
0000
0010
0000
,
0001
0001
0000
1000
,
1000
0000
0010
0000
,
1000
1000
0000
0001
,
0001
0000
0100
0000
,
0010
0000
0100
0000
,
0001
0000
1000
0000
,
0100
0000
0010
0010
,
0010
0000
0000
0001
,
0001
0000
0000
0000
,
1000
0000
0010
0000
,
1000
0000
0100
0000
,
0010
0000
0000
0001
,
0001
0000
0100
0000
,
0010
0000
0000
1000
,
1000
0000
0000
0000
,
2002
0000
0000
0000
,
3003
0000
0000
0000
,
0110
0000
0100
0000
,
0001
0000
0000
0010
,
0010
0000
0100
0000
,
1000
1000
1000
0000
,
0010
0000
0100
0000
,
0010
0000
1000
0000
,
0001
0001
0001
0000
,
0100
0000
0100
0000
,
0020
0000
0030
0000
,
1000
0000
0001
0000
,
0100
0000
0010
0010
,
0010
0000
0100
0000
,
0001
0001
0001
0000
,
1000
1000
1000
0000
,
0010
0000
0100
0000
,
0010
0000
0000
1000
,
1000
0000
1000
0000
,
1000
0000
0010
0000
,
0001
0000
0001
0000
,
0001
0000
0000
0000
,
1001
0000
0100
0000
,
0010
0000
0001
0000
,
1000
1000
1000
1000
,
1000
0000
0000
0010
,
0010
0000
0010
0000
,
0010
0000
0010
0000
,
0100
0000
0100
0000
,
0100
0000
0000
0000
,
1001
0000
0110
0000
,
0000
0000
0010
0010
,
0010
0000
0000
0000
,
1001
0000
0000
0110
,
0000
0000
0000
0000
,
0000
2002
0000
3003
;

//---------------dance-double - ----------------
#NOTES:
     dance-double:
     :
     Challenge:
     18:
     1.060778,1.067567,0.449770,0.033945,1.502062,875.000000,822.000000,53.000000,4.000000,0.000000,0.000000,1.060778,1.067567,0.449770,0.033945,1.502062,875.000000,822.000000,53.000000,4.000000,0.000000,0.000000:
00000000
00000000
00000000
00000000
,
00000000
00000000
00000000
00000000
,
00000000
00000000
00000000
00000000
,
00000000
00000000
00000000
00000000
,
00000000
00000000
00000000
00000000
00000000
00000000
00000000
00000000
00000110
00000000
00000000
00000100
00000010
00000100
00000010
00000000
,
00000100
00000000
00001000
00010000
01000000
00000000
10010000
00000000
01000000
00010000
00001000
00000000
00010100
00000000
00001000
00000010
,
00000100
00000000
00001001
00000000
00000001
00000100
00001000
00000000
00010000
01000000
10000000
01000000
00010000
01000000
10000000
00000000
,
10010000
00000000
01000000
00100000
00010000
00000000
00011000
00000000
00001000
00000100
00000001
00000000
00001001
00000000
00000010
00000100
,
00001000
00000000
00011000
00000000
00010000
01000000
10000000
00000000
00010000
10000000
00100000
01000000
00100000
01000000
00100000
01000000
,
00100000
00000000
10000000
01000000
10000000
00000000
01000000
00010000
01000000
00000000
00010000
00001000
00000100
00000000
00000001
00000100
,
00000001
00000000
00000100
00001000
00000100
00000000
00001000
00010000
01000000
00000000
10000000
00100000
01000000
00001000
00010000
00000010
,
00000100
00000000
00000001
00000010
00000001
00000000
00000010
00001000
00000010
00000000
00001000
00010000
00100000
00000000
10000000
00100000
,
10000000
00000000
00100000
00010000
00100000
00000000
00010000
00001000
00000010
00000000
00000000
00000000
00000011
00000000
00000000
00000000
,
00001001
00000000
00000001
00000010
00000001
00000000
00000010
00001000
00000010
00000000
00001000
00010000
00100000
00000000
10000000
00100000
,
10000000
00000000
00100000
00010000
00100000
00000000
00010000
00001000
00000010
00000000
00000001
00000100
00000010
00010000
00001000
01000000
,
00100000
00000000
10000000
01000000
10000000
00000000
01000000
00010000
01000000
00000000
00010000
00001000
00000100
00000000
00000001
00000100
,
00000001
00000000
00000100
00001000
00000100
00000000
00001000
00010000
01000000
10000000
00000000
00000000
11000000
00000000
00000000
00000000
,
10010000
00000000
00100000
00000000
00000000
00010000
00000000
01000000
00100000
10000000
01000000
10000000
00100000
01000000
00010000
01000000
,
00100000
10000000
01000000
10000000
00100000
01000000
00001000
00010000
00001000
00000000
00000000
00010000
00001000
00000000
00000010
00000000
,
00000011
00000000
00000100
00000000
00000000
00000010
00000000
00001000
00000001
00000100
00000010
00000100
00000001
00001000
00000010
00001000
,
00000001
00000000
00000000
00000100
00000000
00000000
00001000
00000000
00000000
00010000
01000000
10000000
01000000
00000000
00000000
00000000
,
10000000
00010000
00000000
00010000
10000000
00100000
00000000
00000000
00010000
00000000
00001000
00000000
00000000
00000100
00000000
00000001
,
00001000
00000010
00000100
00000010
00001000
00000100
00000010
00000001
00001000
00000010
00000100
00000010
00001000
00000100
00000010
00000001
,
00000100
00000000
00000000
00001000
00010000
00000000
01000000
10000000
01000000
00000000
10000000
00100000
00000000
01000000
00000000
00010000
,
00100000
00000000
00000000
01000000
10000000
00100000
01000000
00010000
00100000
00000000
00000000
00110000
00000000
00000000
00101000
00000000
,
00000000
00000000
00001000
00010000
00001000
00000000
00000000
00000000
00010000
00000000
00000000
00010100
00000000
00000000
00001100
00000000
,
00000000
00000100
00000010
00000100
00000010
00000100
00000010
00000100
00000010
00000000
00000000
00000001
00000100
00001000
00010000
01000000
,
10000000
00010000
10000000
00000000
00010000
00100000
00001000
00010000
00001000
00010000
00000100
00001000
00000100
00001000
00000010
00000100
,
00000001
00000010
00000001
00000010
00000100
00001000
00000100
00001000
00000100
00010000
00000100
00010000
00001000
00010000
00001000
00010000
,
00001000
00100000
00001000
00000000
00100000
01000000
10000000
01000000
10000000
01000000
00100000
00010000
00100000
00010000
01000000
00001000
,
00100000
00001000
00100000
00001000
00010000
00001000
00010000
00001000
00010000
00000100
00010000
00000100
00001000
00000010
00001000
00000010
,
00000100
00000001
00000100
00000000
00000010
00000100
00000010
00000000
00001000
00000100
00001000
00000100
00001000
00000000
00000100
00000000
,
00010000
00001000
00010000
00000000
00001000
01000000
00001000
01000000
00100000
01000000
00100000
01000000
00100000
10000000
00100000
00000000
,
10000000
01000000
00100000
01000000
10000000
00000000
00000000
00000000
00010000
00100000
01000000
00100000
00010000
10000000
01000000
00100000
,
00001000
00010000
00000100
00000010
00000001
00000100
00000010
00001000
00000001
00000000
00001001
00000000
00000110
00000000
00000000
00000000
,
00000101
00000000
00000000
00000001
00000100
00000000
00000000
00000100
00001000
00000000
00000000
00001000
00010000
01000000
00000000
11000000
,
00000000
00000000
00000000
10000000
00100000
00000000
01100000
00000000
00000000
00000000
00100000
00000000
00010000
00000000
00001000
00000000
,
00000010
00000000
00000001
00000100
00000010
00001000
00000010
00000100
00000001
00000010
00000100
00010000
00001000
00100000
01000000
10000000
,
00010000
00000000
10000000
01100000
00000000
00010000
00011000
00000000
,
00000110
00000000
00000000
00000010
00000100
00000000
00000000
00000100
00001000
00000000
00000000
00001000
00010000
00000100
00000000
00000011
,
00000000
00000000
00000000
00000001
00001000
00000000
00001010
00000000
00000000
00000000
00000100
00000000
00001000
00000000
00010000
00000000
,
01000000
00000000
00000000
01000000
10000000
00000000
00000000
10000000
00100000
00000000
00000000
00100000
00010000
00001000
00000000
00011000
,
00000000
00000000
00000000
00010000
00000010
00000000
00000110
00000000
00000000
00000000
00000010
00000000
00000100
00000000
00000001
00000000
,
00000010
00000100
00010000
00001000
00100000
01000000
10000000
01000000
00100000
00001000
00010000
00000100
00000010
00000001
00000100
00000010
,
00010000
00000000
00000000
00000000
00000000
00000000
00000000
00000000
00001000
00010000
00001000
00000000
00100000
01000000
00000000
00000000
,
11000000
00000000
00100000
00000000
00010000
01000000
00000000
00100000
00000000
00000000
00010000
00000000
00001000
00010000
00000000
00010000
,
00000100
00000000
00000000
00000000
00000000
00000000
00000010
00000000
00001100
00000000
00000010
00000001
00000010
00000001
00000010
00000001
,
00000100
00000000
00001000
00000000
00010000
00000000
01000000
10000000
01000000
00000000
10000000
00100000
01000000
00010000
00100000
01000000
,
10000000
00000000
00000000
00100000
00010000
00000000
00000000
00001000
00000010
00000000
00000001
00000000
00000001
00001000
00000000
00001000
,
00000001
00000010
00000100
00001000
00000100
00000010
00000001
00000100
00000000
00000000
00001000
00000000
00010000
00000000
01000000
00000000
,
10000000
00100000
00000000
00100000
01000000
00100000
00000000
00100000
00010000
00001000
00000010
00000001
00000100
00000010
00001000
00000010
,
00000100
00000000
00000000
00001000
00010000
00000000
00000000
01000000
10000000
00000000
00010000
00000000
00010000
00000000
00010000
00000000
,
10000000
01000000
00100000
00010000
00100000
01000000
10000000
01000000
00100000
00010000
01000000
00100000
10000000
00100000
01000000
00010000
,
10000000
00000000
00010000
00100000
00010000
00100000
00010000
00100000
00010000
00000000
10000000
01000000
00100000
00001000
00010000
00000100
,
00000010
00000001
00000100
00000010
00010000
00001000
01000000
00100000
10000000
01000000
00100000
01000000
10000000
01000000
00100000
00010000
,
01000000
00001000
01000000
00001000
00010000
00000000
00010000
00001000
00000000
00000010
00000001
00000100
00000010
00001000
00000010
00000100
,
00000001
00000010
00010000
00001000
01000000
00100000
10000000
01000000
00100000
00001000
00010000
00000100
00000010
00000001
00000100
00000010
,
00001000
00000001
00000000
00000010
00001000
00000000
00010000
00100000
00000000
10000000
00010000
01000000
00100000
10000000
00100000
01000000
,
00010000
10000000
01000000
00100000
00010000
00000000
00000000
10000000
01000000
00010000
00001000
00000100
00000001
00001000
00000001
00000010
,
00000001
00000000
00000010
00001000
00000000
00011000
00000000
00110000
00000000
00100000
10000000
01000000
00100000
00010000
00100000
01000000
,
10000000
00000000
00010000
00100000
00000000
11000000
00000000
00110000
00000000
00010000
00100000
01000000
10000000
00000000
00000000
00000000
,
10010000
00000000
10000000
00100000
00000000
10000000
00100000
00000000
00010000
00001000
00000000
00010000
00001000
00000000
00000010
00000000
,
00000001
00001000
00000000
00000001
00001000
00000000
00000110
00000000
00000001
00000000
00000100
00000000
00001000
00000000
00000100
00000000
,
00000101
00000000
00000001
00000010
00000000
00000001
00000010
00000000
00001000
00010000
00000000
00001000
00010000
00000000
00100000
00000000
,
10000000
00010000
00000000
10000000
00010000
00000000
01000000
00000000
00000000
00000000
20020000
00000000
00000000
00000000
30030000
00000000
,
02200000
00000000
00000000
00000000
03300000
00000000
01000000
00100000
01000000
00000000
00100000
10000000
00010000
01000000
00010000
10000000
,
00100000
00000000
00000000
00000000
10000000
01000000
00000000
11000000
00000000
01010000
00000000
00011000
00000000
00001100
00000000
00000101
,
00000000
00000000
00000001
00001000
00000001
00000000
00001000
00000001
00001000
00000000
00000001
00001000
00000001
00000100
00000000
00001000
,
00010000
01000000
10000000
01000000
10000000
00100000
10000000
00100000
10000000
00000000
01000000
00000000
00010000
00000000
00000000
00000000
,
00001000
00000000
00000100
00000001
00000000
00000100
00001000
00000000
00000100
00000001
00000000
00000100
00001000
00000000
00000100
00000001
,
00000000
00000100
00001000
00000000
00000100
00000001
00000000
00000100
00001000
00000010
00000001
00000010
00001000
00000000
00010000
00000000
,
00100000
00000000
10000000
01000000
00000000
00010000
01000000
00000000
10000000
01000000
00000000
00010000
01000000
00000000
10000000
00000000
,
01000000
00100000
00010000
00100000
01000000
00000000
00000000
10000000
00010000
00000000
01000000
00001000
01000000
00001000
00010000
00001000
,
00010000
00000000
00000000
00000110
00000000
00000000
00000000
00000000
00001000
00000000
00000000
01100000
00000000
00000000
00000000
10010000
,
00000000
10000000
01000000
00100000
00010000
00100000
00000000
00100000
00001000
00100000
00001000
00010000
00001000
00010000
00000010
00010000
,
00000010
00000100
00000001
00001000
00000010
00000100
00000001
00001000
00000010
00000000
00000110
00000000
00000001
00001000
00000001
00001000
,
00000001
00000000
00000000
00000000
00000100
00000000
00001100
00000000
00000000
00000000
00010000
00000000
01010000
00000000
00000000
11000000
,
00000000
00000000
10000000
01000000
00100000
00010000
00100000
01000000
10000000
01000000
00100000
00010000
00100000
00000000
00000000
00000000
,
00000000
00000000
00000000
00000000
00000000
00000000
00001001
00000000
00000000
00000001
00000100
00000010
00001000
00000010
00000100
00000001
00000000
00000000
00000000
00000000
00000000
00000000
00000000
00000000
;

//---------------dance-double - ----------------
#NOTES:
     dance-double:
     :
     Medium:
     13:
     0.584337,0.633868,0.229128,0.076376,0.275802,482.000000,455.000000,27.000000,9.000000,0.000000,0.000000,0.584337,0.633868,0.229128,0.076376,0.275802,482.000000,455.000000,27.000000,9.000000,0.000000,0.000000:
00000000
00000000
00000000
00000000
,
00000000
00000000
00000000
00000000
,
00000000
00000000
00000000
00000000
,
00000000
00000000
00000000
00000000
,
00000000
00000000
00000000
00000000
00000000
00000000
00000000
00000000
01100000
00000000
00000000
10000000
00010000
00000000
00000000
00000000
,
10000000
01000000
00010000
01000000
00010000
00001000
00010000
00001000
,
00000100
00001000
00000100
00000001
00001001
00000000
00001001
00000000
,
00000001
00000100
00001000
00000100
00001000
00010000
00001000
00010000
,
01000000
00000000
00010000
00000000
01000000
00000000
10000000
00000000
00000000
00000000
00000000
00100000
01000000
00000000
00100000
00000000
,
10100000
00000000
10000000
01000000
00000000
00010000
00001000
00000000
,
00000010
00000000
00000001
00000000
00000000
00000000
00000000
00000000
00001000
00000000
00000001
00000010
00000001
00000000
00001000
00000000
,
00000001
00000000
00000100
00001000
00000000
00010000
01000000
00000000
,
10000000
00100000
00000000
00010000
00001000
00000000
00011000
00000000
,
00101000
00000000
00100000
01000000
00000000
00010000
00001000
00000000
,
00000010
00000000
00000001
00000000
00000000
00000000
00001000
00000000
00000010
00000000
00000100
00000010
00000100
00000000
00000010
00000000
,
00001000
00000000
00000010
00000100
00000000
00001000
00010000
00000000
,
00100000
00000000
10000000
00000000
00000000
00000000
00010000
00000000
10000000
00010000
00000000
00000000
10010000
00000000
00000000
00000000
,
00000000
00000000
01000000
00000000
00000000
00100000
00000000
00000000
10000000
00000000
01000000
00000000
00100000
00000000
00010000
00000000
,
10000000
00000000
00010000
00100000
01000000
10000000
00010000
00010000
,
00000000
00000000
01000000
00000000
00000000
00100000
00000000
00000000
00010000
00000000
00001000
00000000
00000010
00000000
00000001
00000000
,
00001000
00000000
00000000
00000001
00000000
00000000
00001001
00000000
00000000
00000000
00000001
00000000
00001000
00000000
00000000
00000000
,
00000010
00000100
00000000
00000100
00000000
00000010
00000000
00000000
00001000
00000000
00000001
00000000
00000000
00000100
00000000
00000000
,
00000001
00000010
00000100
00001000
00000001
00000000
00001000
00000100
,
00000010
00000000
00000001
00000000
00001000
00000000
00001000
00000000
00000000
00000000
00000010
00000000
00000000
00000100
00000000
00000000
,
00001000
00000000
00010000
00000000
01000000
00000000
10000000
00000000
00010000
00000000
00000000
00100000
00000000
00000000
00100000
00000000
,
00000000
00000000
00010000
00000000
01000000
00000000
00000000
00000000
00100000
00000000
00000000
00100000
00000000
00000000
10000000
00000000
,
00000000
00000000
00000000
00000000
10010000
00000000
01000000
00100000
,
10000000
00010000
00000000
00010000
01000000
00000000
00000000
00100000
,
00010000
00001000
00000100
00000001
00001000
00000000
00001001
00000000
,
00000001
00000010
00000000
00000010
00000001
00000000
00000000
00000100
,
00001000
00010000
01000000
10000000
00010000
00000000
10010000
00000000
,
10000000
01000000
00100000
01000000
10000000
00000000
00010000
00100000
,
00010000
01000000
00100000
00010000
00001000
00000100
00000001
00000000
,
00001000
00000010
00001000
00000000
00000001
00000010
00000001
00000000
,
00000100
00000010
00000100
00000010
00000100
00000001
00001000
00000000
,
00001001
00000000
00000000
00000000
00000000
00000000
00000000
00000000
00000000
00000000
00000000
00000000
00000100
00010000
00000000
00001000
,
00000000
00000000
00000000
01010000
00000000
00100000
10000000
01000000
,
00010000
00001000
00000010
00000001
00000100
00001000
00000100
00000001
,
00000010
00000000
00000000
00000011
00000000
00000000
00010100
00000000
,
00011000
00000000
00000000
00000000
00000000
00000000
00000000
00000000
00000000
00000000
00000000
00000000
00100000
00010000
00000000
01000000
,
00000000
00000000
00000000
01100000
00000000
01000000
00100000
00010000
,
00001000
00000000
00000000
00000000
00000000
00000000
00000000
00000000
00000000
00000000
00000000
00000000
00000010
00000001
00000000
00001000
,
00000000
00000000
00000000
00000110
00000000
00000010
00000100
00001000
,
00010000
00001000
01000000
00100000
10000000
01000000
00100000
00010000
,
00110000
00000000
00000000
00000000
00000000
00000000
00000000
00000000
01000000
00010000
01000000
00000000
00010000
00100000
00000000
00000000
,
00010000
00000000
01000000
00000000
00001000
00010000
00000000
00000100
00000000
00000000
00000010
00000000
00000001
00000000
00000010
00000000
,
00000001
00000000
00000000
00000000
00000000
00000100
00001000
00010000
,
00100000
00000000
00000000
10000000
00010000
10000000
00100000
00000000
,
01000000
00000000
00000000
00100000
10000000
00000000
00000000
00100000
01000000
00000000
00100000
00000000
00100000
00000000
00100000
00000000
,
01000000
00100000
00010000
00001000
00000010
00000001
00000100
00000001
,
00000010
00000100
00000000
00000000
00000100
00010000
00000000
00000000
00010000
00000000
00000100
00000000
00000010
00000000
00000001
00000000
,
00001000
00000000
00000000
00000010
00000100
00000000
00000000
00000010
00001000
00000000
00000001
00000000
00000001
00000000
00000001
00000000
,
00000100
00001000
00010000
01000000
10000000
01000000
00010000
01000000
,
10000000
00000000
00100000
01000000
00100000
01000000
00100000
00000000
01000000
00000000
00010000
00000000
00100000
00000000
10000000
00000000
,
00100000
00010000
01000000
00100000
00010000
00001000
00000010
00000001
,
00001000
00000000
00000010
00000000
00001000
00000000
00000001
00001000
00000000
00000000
00000001
00000000
00000100
00000000
00000010
00000000
,
00001000
00000100
00001000
00000010
00001000
00000100
00010000
00001000
,
01000000
00100000
00000000
00100000
01000000
00000000
00010000
01000000
00000000
00000000
00010000
00000000
01000000
00000000
00100000
00000000
,
10000000
00000000
01000000
00000000
00010000
00001000
00000100
00000000
,
00000001
00000000
00000010
00000001
00000000
00001000
00000000
00000001
00000000
00000010
00000100
00000000
00001000
00000000
00000100
00000000
,
00000010
00000000
00000100
00010000
00000000
00001000
00000000
00010000
00000000
00000000
00002000
00000000
02000000
00000000
03003000
00000000
,
00100000
00000000
00000000
00100000
00000000
00000000
10000000
00000000
01000000
00000000
00000000
01000000
00000000
00000000
00010000
00000000
,
00001000
00000000
00000000
00001000
00000000
00000000
00000010
00000000
00000001
00000000
00001000
00000000
00000001
00000000
00001000
00000000
,
00000001
00000000
00000000
00000001
00000000
00000000
00000100
00000000
00001000
00000000
00000000
00001000
00000000
00000000
00010000
00000000
,
00100000
00000000
00000000
00100000
00000000
00000000
10000000
00000000
00000000
00000000
20020000
00000000
00000000
00000000
30030000
00000000
,
01100000
00000000
00000000
10000000
00010000
01000000
00100000
00000000
,
10000000
00000000
00000000
00000000
00010000
00000000
01000000
00100000
00000000
01000000
00000000
00001000
00000000
00010000
00000000
00001000
,
00000000
00010000
00000010
00010000
00000010
00000100
00000010
00000000
,
00000100
00000001
00001000
00000010
00001000
00000001
00000100
00000000
,
00000001
00000000
00000000
00000010
00000000
00000000
00000001
00000000
00000000
00000010
00000000
00000000
00000001
00000000
00000000
00000010
,
00000000
00000000
00000001
00000000
00000000
00000010
00000000
00000000
00001000
00000000
00010000
00000000
00100000
00000000
00000000
00000000
,
10000000
00000000
00000000
00100000
00000000
00000000
10000000
00000000
00000000
00100000
00000000
00000000
10000000
00000000
00000000
00000000
,
00100000
01000000
00010000
00000000
01000000
00100000
00010000
00001000
,
00000010
00000000
00000000
00000001
00000000
00000000
00000000
00000000
00000001
00000000
00000000
00000100
00000000
00000000
00000000
00002000
,
00000000
00000000
00013000
00100000
10000000
01000000
10000000
00100000
,
10000000
01000000
00100000
00010000
00000000
00220000
00000000
00330000
,
01001000
00000000
00000000
00000000
00000000
00000000
00011000
00000000
00000000
00000000
00000000
00000000
00010100
00000000
00000000
00000110
,
00000000
00000001
00000100
00001000
00000100
00000001
00000100
00000000
,
00000000
00000000
00000220
00000000
00000000
00000330
00000000
00000000
;

//---------------dance-double - ----------------
#NOTES:
     dance-double:
     :
     Easy:
     9:
     0.391579,0.501218,0.118807,0.152752,0.025459,323.000000,309.000000,14.000000,18.000000,0.000000,0.000000,0.391579,0.501218,0.118807,0.152752,0.025459,323.000000,309.000000,14.000000,18.000000,0.000000,0.000000:
00000000
00000000
00000000
00000000
,
00000000
00000000
00000000
00000000
,
00000000
00000000
00000000
00000000
,
00000000
00000000
00000000
00000000
,
00000000
00000000
00000001
00001000
,
00000001
00000000
00000000
00000010
00000000
00000000
00001000
00000000
,
00000000
00010000
00000000
00000000
00100000
00000000
00100000
00000000
,
10000000
00000000
00000000
01000000
00000000
00000000
00010000
00000000
,
00000000
00001000
00000000
00000000
00000100
00000000
00000001
00000000
,
00001000
00000000
00000000
00000010
00000000
00000000
00001000
00000000
,
00000000
00000100
00000000
00000000
00010000
00000000
00001000
00000000
,
01000000
00000000
00000000
00010000
00000000
00000000
01000000
00000000
,
00000000
00100000
00000000
00000000
10000000
00000000
00010000
00000000
,
00100000
00000000
00000000
00010000
00000000
00000000
00100000
00000000
,
00000000
01000000
00000000
00000000
00100000
00000000
00001000
00000000
,
00010000
00000000
00000000
00000100
00000000
00000000
00010000
00000000
,
00000000
00000010
00000000
00000000
00000100
00000000
00000001
00000000
,
00000000
00001000
00000000
00000000
00000001
00000000
00000010
00000000
,
00000100
00000000
00001000
00000010
00000100
00000000
00001000
00000000
,
00000000
00010000
00000000
00000000
00001000
00100000
01000000
00000000
,
20000000
00000000
00000000
30010000
00000000
00000000
01100000
00000000
,
00020000
00000000
00000000
00000000
00030000
00100000
00000000
00000000
,
00010000
01000000
00100000
00000000
01000000
00100000
10000000
00000000
,
01000000
00010000
00002000
00003100
,
00000001
00001000
00000001
00000000
00002000
00000000
00000000
00003010
,
00000000
00000000
00000110
00000000
00000200
00000000
00000000
00000301
,
00000000
00000001
00001000
00000001
00001000
00000000
00001001
00000000
,
00000001
00000010
00000000
00000010
00000001
00000000
00000001
00000100
,
00001000
00010000
01000000
10000000
,
10000000
00100000
00000000
00100000
10000000
00000000
10000000
01000000
,
00010000
00001000
00000100
00000001
,
00001000
00000010
00001000
00000000
00000010
00000000
00000100
00000000
,
00000010
00010000
00000010
00000000
00010000
00001000
00010000
00000000
,
00001000
00100000
00001000
00000000
00100000
01000000
00100000
00000000
,
10000000
00010000
01000000
00010000
00100000
00000000
01010000
00000000
,
10010000
00000000
00000000
00000000
00000000
00000000
00000000
00000000
00000000
00000000
00000000
00000000
10000000
00000000
00000000
00100000
,
00000000
00000000
00000000
01000000
00000000
00001000
00010000
00000100
,
00000010
00000000
00000001
00000010
00000001
00000000
00001000
00000000
,
00000001
00000000
00000000
00001000
00000000
00000000
00000010
00000000
,
00000100
00000000
00000000
00000000
00000000
00000000
00000000
00000000
00000000
00000000
00000000
00000000
00000010
00000000
00000000
00001000
,
00000000
00000000
00000000
00000001
00000000
00000100
00000010
00010000
,
00001000
00000000
00000000
00000000
00000000
00000000
00000000
00000000
00000000
00000000
00000000
00000000
00001000
00000000
00000000
00100000
,
00000000
00000000
00000000
01000000
00000000
01000000
10000000
00000000
,
00010000
00000000
01000000
00000000
00100000
10000000
00100000
00000000
,
10100000
00000000
00000000
00000000
00000000
00000000
00000000
00000000
10000000
00000000
00010000
00000000
00000000
01000000
00000000
00000000
,
00010000
00100000
00010000
00000000
01000000
00001000
01000000
00000000
,
00001000
00000000
00000000
00000000
00010000
00001000
00000010
00000000
,
00000110
00000000
00000000
00000000
00000100
00001000
00000100
00000000
,
00001000
00000000
00001000
00000000
00000010
00000010
00000010
00000000
,
00010000
00000000
00001000
01000000
00000000
00100000
10000000
00100000
,
10000000
00010000
01000000
00100000
,
01000000
00000000
01000000
00000000
00100000
00100000
00100000
00000000
,
00010000
00000000
00001000
00000000
00000010
00000001
00000010
00000000
,
00000001
00000200
00000000
00000000
00000300
00000010
00001000
00000010
,
00001000
00000000
00000100
00000000
00010000
00001000
00010000
00000000
,
00001000
00000000
01000000
00100000
00000000
00100000
10000000
00000000
,
00010000
00000000
00100000
00010000
01000000
00010000
00100000
00000000
,
00001000
00010000
00001000
00000000
00010000
00000000
00000010
00000100
,
00000001
00001000
00000010
00000000
00000100
00000000
00000010
00010000
,
00001000
00000000
00100000
00010000
01000000
00000000
00100000
00000000
,
10000000
00000000
00010000
00100000
00000000
00100000
00010000
00000000
,
02000000
00000000
03200000
00000000
,
00320000
00000000
00000000
00000000
00031000
00000010
00000001
00000000
,
00000200
00000000
00000320
00000000
,
00020030
00000000
00000000
00000000
00030000
00011000
00000000
00000000
,
00101000
00000000
00100000
01000000
10000000
00000000
00100000
00000000
,
01000000
00100000
00010000
00001000
,
00000010
00000001
00000010
00000000
00000001
00000010
00000001
00000000
,
00000100
00000000
00001000
00000000
00010000
01000000
10000000
00000000
,
00100000
00010000
00100000
10000000
,
00100000
00000000
00010000
00000000
00001000
00000010
00000001
00000000
,
00000001
00000100
00001000
00000100
,
00000001
00000100
00001000
00000000
00010000
01000000
10000000
00000000
,
10100000
00000000
00000000
00000000
00000000
00000000
00000000
00000000
01010000
00000000
00000000
00000000
00000000
00000000
00000000
20020000
,
00000000
00000000
30030000
00000000
10000000
00010000
00100000
00000000
,
00001000
00010000
00000100
00000010
00000000
00000011
00000000
00000000
,
00000002
00000000
00000000
00000000
00000000
00000000
00002003
00000000
00000000
00000000
00000000
00000000
00003100
00000000
00000000
00010000
,
00000000
00000000
00000000
00001000
00100000
01000000
10000000
00000000
,
00000000
20020000
00000000
30030000
;

//---------------dance-double - ----------------
#NOTES:
     dance-double:
     :
     Hard:
     16:
     0.876506,0.969021,0.526146,0.067890,1.005618,723.000000,661.000000,62.000000,8.000000,0.000000,0.000000,0.876506,0.969021,0.526146,0.067890,1.005618,723.000000,661.000000,62.000000,8.000000,0.000000,0.000000:
00000000
00000000
00000000
00000000
,
00000000
00000000
00000000
00000000
,
00000000
00000000
00000000
00000000
,
00000000
00000000
00000000
00000000
,
00000000
00000000
00000000
00000000
00000000
00000000
00000000
00000000
11000000
00000000
00000000
10000000
01000000
10000000
01000000
00000000
,
11000000
00000000
00100000
00010000
01000000
00000000
01010000
00000000
01000000
00001000
00010000
00000000
00011000
00000000
00010000
00000100
,
00001000
00000000
00001100
00000000
00001000
00000010
00000100
00000000
00000101
00000000
00000000
00000000
00001001
00000000
00000000
00000000
,
00000011
00000000
00000010
00000100
00001000
00000000
00001100
00000000
00001000
00000100
00010000
00000000
00011000
00000000
00001000
00100000
,
01000000
00000000
01100000
00000000
01000000
10000000
00010000
00000000
10010000
00000000
01000000
00100000
01000000
00100000
01000000
00100000
,
01000000
00000000
00000000
00010000
10000000
00000000
00000000
10000000
00010000
00000000
00000000
01000000
00100000
00000000
00000000
00100000
,
00010000
00000000
00000000
00010000
00001000
00000000
00000000
00000000
00000100
00000000
00000001
00001000
00000001
00001000
00000001
00000000
,
00001000
00000000
00000000
00001000
00000001
00000000
00000000
00000001
00000100
00000000
00000000
00000100
00001000
00000000
00000000
00001000
,
00010000
00000000
00000000
00010000
00100000
00000000
00000000
00100000
10000000
00000000
00000000
00000000
01010000
00000000
00000000
00000000
,
10010000
00000000
00000000
01000000
00100000
00000000
00000000
00100000
01000000
00000000
00000000
01000000
00100000
00000000
00000000
00100000
,
00010000
00000000
00000000
00010000
00001000
00000000
00000000
00001000
00000010
00000000
00000100
00001000
00000100
00001000
00000100
00000000
,
00001000
00000000
00000000
00001000
00000001
00000000
00000000
00000001
00000100
00000000
00000000
00000100
00001000
00000000
00000000
00001000
,
00010000
00000000
00000000
00010000
00100000
00000000
00000000
10000000
00010000
10000000
00000000
00000000
10010000
00000000
00000000
00000000
,
01100000
00000000
00010000
00000000
00000000
10000000
00000000
00000000
01000000
00000000
00010000
00000000
00001000
00000000
00000100
00000000
,
00000001
00000000
00000000
00001000
00000001
00001000
00000001
00000000
00000100
00000000
00001000
00000000
00010000
00000000
00100000
00000000
,
10000000
00000000
00010000
00000000
00000000
10000000
00000000
00100000
01000000
00100000
01000000
00000000
00010000
00000000
00100000
00000000
,
00110000
00000000
00000000
01001000
00000000
00000000
00011000
00000000
00000000
00000000
00010000
00000010
00010000
00000000
00000000
00000000
,
00000100
00001000
00000000
00001000
00000010
00000100
00000000
00000000
00001001
00000000
00000100
00000000
00000000
00000010
00000000
00000000
,
00000100
00000000
00001000
00000000
00010000
00000000
00100000
00000000
10000000
00000000
00000000
00010000
01000000
00100000
10000000
00000000
,
10010000
00000000
00000000
10000000
01000000
00000000
00100000
00010000
00100000
00000000
00010000
01000000
00000000
00100000
00000000
00010000
,
00001000
00000000
00000000
00000100
00000001
00000000
00000010
00000000
00000011
00000000
00000000
00001100
00000000
00000000
00000011
00000000
,
00000000
00000000
00001000
00000010
00001000
00000000
00000000
00000000
00010100
00000000
00000000
00011000
00000000
00000000
00010100
00000000
,
00000000
00001000
00010000
00001000
00010000
00001000
00010000
00001000
00100000
00000000
00000000
01000000
10000000
01000000
00100000
00010000
,
10000000
01000000
10000000
01000000
10000000
00000000
00010000
00000000
00100000
00000000
00010000
00000000
01000000
00000000
00010000
00000000
,
00100000
00001000
00100000
00000000
00001000
00010000
00001000
00000000
00000010
00000001
00000010
00000000
00000001
00000100
00000001
00000000
,
00001000
00000010
00001000
00000010
00001000
00000000
00000100
00000000
00000010
00000000
00000100
00000000
00001000
00000000
00000100
00000000
,
00010000
00001000
00010000
00000000
00100000
10000000
00100000
00000000
10000000
00010000
10000000
00000000
00100000
01000000
00100000
00000000
,
10000000
00000000
01000000
00000000
00100000
00000000
00010000
00000000
01000000
00000000
00000000
01000000
00010000
00000000
00000000
00010000
,
00100000
01000000
10000000
01000000
00100000
00000000
00000000
00000000
00010000
00100000
01000000
00100000
00010000
00000000
00000000
00000000
,
01000000
00001000
01000000
00001000
01000000
00000000
00000000
00000000
00001000
00010000
00001000
00010000
00001000
00000000
00000000
00000000
,
00010000
00000100
00010000
00000100
00010000
00000000
00000100
00000000
00000010
00000000
00000011
00000000
00000101
00000000
00000100
00000010
,
00001000
00000000
00000010
00000100
00000010
00000000
00000100
00000001
00000100
00000000
00000010
00000100
00000010
00001000
00000000
00000100
,
00000000
00000000
00001000
00000100
00001000
00000000
00001100
00000000
00000000
00000000
00000100
00000000
00010000
00000000
00001000
00000000
,
01000000
00100000
10000000
00010000
10000000
00100000
01000000
00100000
10000000
00010000
10000000
00100000
01000000
00000000
00100000
00000000
,
01100000
00000000
10000000
01000000
00000000
00010000
00001000
00000000
,
00011000
00000000
00010000
00000010
00010000
00000000
00000010
00000100
00000010
00000000
00010000
00001000
00010000
00000100
00000000
00000110
,
00000000
00000000
00000001
00000100
00000001
00000000
00000101
00000000
00000000
00000000
00000001
00000000
00000100
00000000
00001000
00000000
,
00010000
00000000
00001000
01000000
00001000
00000000
01000000
00100000
01000000
00000000
00001000
01000000
00001000
00100000
00000000
01100000
,
00000000
00000000
00000000
10010000
00000000
10000000
01000000
00100000
,
00010000
00000000
00000000
00000000
,
00000000
00000000
00000000
00000000
00000000
00000000
00000000
00000000
00000010
00000100
00000010
00000000
00000100
00000010
00000000
00000000
,
00001000
00000000
00000001
00000000
00000100
00000001
00000000
00001000
00000000
00000010
00000100
00000010
00000100
00000000
00001000
00000000
,
00010000
00000000
00000000
00000000
00000000
00100000
10000000
00010000
,
10010000
00000000
00000000
00000000
00000000
00000000
01000000
00100000
01000000
00000000
00010000
00100000
00010000
01000000
00000000
00000000
,
01010000
00000000
00000000
00100000
10000000
00000000
00000000
00100000
10000000
00000000
00010000
00000000
00010000
00000000
00010000
00000000
,
01000000
00000000
00001000
00010000
00001000
00010000
00000000
00000010
00000000
00000000
00000100
00000000
00000010
00000000
00001000
00000000
,
00000001
00000100
00000000
00000000
00000100
00001000
00000000
00000000
00001000
00000000
00000100
00000000
00000001
00000000
00000100
00000000
,
00000010
00000000
00000000
00000010
00001000
00000000
00000000
00000010
00001000
00000000
00000001
00000000
00000001
00000000
00000001
00000000
,
00000010
00001000
00010000
00001000
00100000
01000000
10000000
00010000
,
10010000
00000000
01000000
00100000
01000000
00100000
01000000
00100000
01000000
00000000
10000000
01000000
00100000
00010000
00100000
01000000
,
10000000
00010000
00100000
00001000
00010000
00000000
00000000
00000000
00001000
00010000
00000100
00001000
00000010
00000100
00000001
00000010
,
00000001
00000100
00000001
00000100
00000001
00000000
00000010
00001000
00000000
00001000
00000010
00000000
00000001
00000000
00000100
00000000
,
00001000
00010000
00100000
10000000
01000000
00100000
00010000
10000000
,
00100000
01000000
00000000
00010000
01000000
00000000
00100000
10000000
00000000
01000000
00100000
00010000
00100000
01000000
10000000
00000000
,
00010000
01000000
00100000
00000000
01000000
00100000
00010000
00001000
,
00000010
00000000
00000001
00001000
00000000
00001010
00000000
00000101
00000000
00000001
00001000
00000010
00000100
00000010
00001000
00000001
,
00000010
00000000
00001000
00010000
00000000
00100000
00000000
10000000
00000000
00100000
01000000
00100000
01000000
00000000
00000000
00000000
,
01010000
00000000
00000000
10100000
00000000
00000000
01000000
00000000
01010000
00000000
00000000
10100000
00000000
00000000
01000000
00000000
,
01010000
00000000
00000000
10100000
00000000
00000000
01000000
00000000
00100000
00000000
00010000
00000000
00001000
00000000
00000100
00000000
,
00000101
00000000
00000000
00001010
00000000
00000000
00000100
00000000
00000101
00000000
00000000
00001010
00000000
00000000
00000100
00000000
,
00000101
00000000
00000000
00001010
00000000
00000000
00000100
00000000
00000000
00000000
00002002
00000000
00000000
00000000
00003003
00000000
,
00000202
00000000
00000000
00000000
00000303
00000000
00000001
00000010
00000001
00000000
00000100
00000010
00000000
00001000
00000000
00000000
,
00001100
00000000
00000000
00000000
00000010
00000000
00000100
00001000
00000000
00010000
00000000
00100000
00000000
10000000
00000000
00010000
,
00000000
10000000
01000000
00100000
00010000
00100000
01000000
10000000
01000000
00100000
00010000
00100000
01000000
10000000
00000000
00100000
,
01000000
00100000
01000000
00100000
01000000
00010000
01000000
00010000
01000000
00000000
00100000
00000000
00100000
00000000
00000000
00000000
,
10000000
00000000
01000000
00010000
00000000
01000000
10000000
00000000
01000000
00010000
00000000
01000000
10000000
00000000
01000000
00010000
,
00000000
01000000
10000000
00000000
01000000
00010000
00000000
00001000
00000100
00000000
00000001
00000010
00000100
00001000
00000100
00000010
,
00000001
00000000
00000100
00001000
00000000
00000100
00000001
00000000
00000100
00001000
00000000
00000100
00000001
00000000
00000100
00000000
,
00000010
00001000
00000010
00001000
00000010
00000000
00000000
00001000
00000100
00000000
00010000
00001000
00010000
00001000
00010000
00000000
,
00001000
00000000
00000000
00101000
00000000
00000000
00000000
00000000
01000000
00000000
00000000
11000000
00000000
00000000
00000000
20020000
,
00000000
00000000
30030000
00000000
10000000
00010000
10000000
00010000
10000000
00010000
01000000
00100000
01000000
00010000
10000000
00000000
,
01000000
00100000
00001000
00010000
00000100
00000010
00000001
00001000
00000001
00000000
00000110
00000000
00000001
00001000
00000001
00001000
,
00000001
00000000
00000000
00000000
00000100
00000000
00001000
00000000
00000000
00000000
00010000
00000000
00100000
00000000
00000000
10010000
,
00000000
00000000
10000000
01000000
00100000
00001000
00010000
00000100
00000010
00000001
00000100
00000010
00001000
00000000
00000000
00000000
,
00000000
00002002
00000000
00003003
;
