#TITLE:Desire;
#SUBTITLE:;
#ARTIST:M-Project fw. GUHROOVY;
#TITLETRANSLIT:;
#SUBTITLETRANSLIT:;
#ARTISTTRANSLIT:;
#GENRE:Hardcore;
#CREDIT:;
#BANNER:desire-bn.png;
#BACKGROUND:desire-bg.png;
#LYRICSPATH:;
#CDTITLE:;
#MUSIC:Desire.mp3;
#OFFSET:-0.040000;
#SAMPLESTART:89.160004;
#SAMPLELENGTH:12.000000;
#SELECTABLE:YES;
#BPMS:0.000000=175.000000
;
#STOPS:
;
#BGCHANGES:;
#KEYSOUNDS:;
#ATTACKS:;

//---------------dance-single - ----------------
#NOTES:
     dance-single:
     :
     Challenge:
     15:
     0.808329,0.854017,0.325089,0.070290,0.768791,644.000000,607.000000,37.000000,8.000000,0.000000,0.000000,0.808329,0.854017,0.325089,0.070290,0.768791,644.000000,607.000000,37.000000,8.000000,0.000000,0.000000:
0000
0000
0000
0000
,
0000
0000
0000
0000
,
0000
0000
0000
0000
,
0000
0000
0000
0000
,
1000
0100
0001
0000
0001
0100
1000
0000
,
0001
0100
1000
0000
1000
0100
0001
0000
,
1010
0011
0101
1100
,
2002
0000
0000
0000
0000
0000
0000
0000
0000
0000
0000
0000
3003
0000
0010
0100
,
0001
0000
0100
0010
1000
0000
0010
0100
0001
0000
0100
0001
1000
0000
0010
0000
,
1000
0000
0100
1000
0010
0000
0100
0001
0010
0000
0000
0000
0011
0000
0000
0000
,
0001
0000
1000
0100
0010
0000
0001
0010
0100
0000
1000
0001
0010
0000
0100
0010
,
0001
0000
0100
0000
0010
0000
1000
0100
0010
0000
0100
0000
0010
0001
0010
0000
,
0001
0000
0010
0001
1000
0000
0010
1000
0001
0000
0010
0001
0100
0000
0010
1000
,
0001
0000
0100
0000
0010
0000
1000
0100
0010
0000
0000
0000
0011
0000
0000
0000
,
0001
0000
0100
0010
1000
0000
0010
0100
0001
0000
0100
0010
1000
0000
0001
0000
,
1000
1000
0100
0010
0001
0000
0101
0000
,
0001
0010
0001
0000
0001
0000
0010
0100
0010
0000
0010
0001
1000
0000
1000
0010
,
0100
0000
0001
0000
0010
0001
0100
0000
0110
0000
0000
0000
1010
0000
0000
0000
,
1000
0010
1000
0000
1000
0000
0010
0100
0010
0000
0010
1000
0100
0000
0010
0000
,
0001
0000
0001
0100
0010
0000
1000
0100
0010
0000
0001
0000
1000
0001
1000
0000
,
1000
0100
0010
0000
0100
0000
0010
0001
0100
0000
0100
0010
1000
0000
0001
0000
,
1000
0010
0100
0000
0010
0000
0100
0001
0010
0000
0100
0000
1000
0000
0000
0000
,
1100
0000
0000
0000
0010
0100
0001
0000
0010
0000
0100
0010
0001
0000
1000
0001
,
1000
0000
0000
0001
0000
0000
1000
0000
0001
0000
0000
1000
0000
0000
0001
0000
,
1000
0000
0100
0000
0010
0100
0000
0010
0001
0000
0010
0100
0000
0010
0001
0000
,
0100
0000
0010
0000
1000
0100
0000
0010
0100
0000
1000
0100
0000
0010
0100
0000
,
1000
0000
0010
0000
0100
0001
0000
1000
0001
0000
0100
0001
0000
1000
0001
0000
,
0010
0000
0100
0000
0010
0001
0000
0010
0100
0000
1000
0001
0000
1000
0010
0000
,
0100
0000
0010
0000
0100
0001
0000
0100
0010
0000
0100
0001
0000
0100
0010
0000
,
1000
0000
0001
0000
0010
0100
0000
1000
0100
0000
0010
0100
0000
1000
0100
0000
,
0010
0000
0001
0000
0001
0100
0000
0010
0100
0000
0001
0100
0000
0010
0100
0000
,
0010
0000
1000
0000
0001
0100
0000
0001
1000
0000
0010
1000
0000
0100
1000
0000
,
1010
0000
0010
0001
0000
0001
0010
0000
,
1000
0000
0001
0000
0100
0001
0000
1000
0010
0000
0100
0001
0000
1000
0010
0000
,
0110
0000
1000
0100
0000
0001
0100
0000
,
1000
0000
0001
0000
0010
0100
0000
1000
0001
0000
0010
0100
0000
1000
0001
0000
,
0011
0000
0010
1000
0000
1000
0010
0000
,
0001
0000
1000
0000
0100
0010
0000
0001
1000
0000
0100
0010
0000
0001
1000
0000
,
1001
0000
1000
0100
0000
0001
0100
1000
,
2002
0000
0000
3003
,
0000
0000
0010
0000
0000
0100
0000
0000
0010
0000
0000
0010
0000
0000
1001
0000
,
0000
0000
0100
0000
0000
0010
0000
0000
0100
0000
0000
0100
0000
0000
1001
0000
,
0000
0000
0001
0000
0000
0010
0000
0000
1000
0000
0000
0010
0000
0000
0001
0000
,
0000
0000
1000
0000
0000
0010
0000
0000
0001
0000
0000
0010
0000
0000
1000
0000
,
0000
0000
0001
0000
0000
0010
0000
0000
0001
0000
0000
0001
0000
0000
1100
0000
,
0000
0000
1000
0000
0000
0010
0000
0000
1000
0000
0000
1000
0000
0000
0101
0000
,
0000
0000
0001
0000
0000
0100
0000
0000
1000
0000
0000
0100
0000
0000
0001
0000
,
0000
0000
1000
0000
0000
0100
0000
0000
0001
0000
0000
0100
0000
0000
1000
0000
,
0010
0000
0000
0000
1000
0001
1000
0000
0001
0000
0000
0100
0001
0000
0100
0000
,
0001
0000
0000
0000
0010
0001
0010
0001
0100
0000
0000
0000
0010
0000
1000
0000
,
0010
0000
0000
1000
0010
0100
0010
0000
0100
0000
0000
0000
0001
0000
0010
0000
,
0001
0000
0000
0000
0010
0100
0010
0000
0100
1000
0100
0000
1000
0010
1000
0000
,
1001
0000
0000
0000
0001
0100
0001
0000
1000
0000
0000
0000
1000
0000
0010
0000
,
0100
0000
0000
0000
0100
0001
0100
0001
0100
0000
0000
0000
0001
0000
0010
0000
,
0001
0000
0000
0000
1000
0010
1000
0000
0001
0000
0000
0100
0010
0000
0100
0000
,
0001
0000
0010
0000
0000
0100
0000
0000
1000
0000
0000
0000
1001
0000
0000
0000
,
0110
0000
0000
1000
0001
0000
1000
0000
0010
0000
0000
0100
0010
0000
0000
0000
,
1001
0000
0000
0010
0100
0000
0010
0000
0100
0000
0000
0001
1000
0000
0000
0000
,
0110
0000
0000
1000
0010
0000
1000
0000
0001
0000
0000
0100
0001
0000
0000
0000
,
1001
0000
0000
0001
0010
0000
0001
0000
0010
0000
0000
0100
1000
0000
0000
0000
,
1001
0000
0000
0000
1000
0010
1000
0000
1001
0000
0000
0000
0001
0010
0001
0000
,
1001
0000
0000
0000
1000
0010
1000
0000
1001
0000
0000
0000
0001
0010
0001
0000
,
1000
0010
1000
0000
0001
0010
0001
0000
1000
0010
0100
0000
0001
0010
0100
0000
,
2200
0000
0000
0000
,
3300
0000
0000
0000
0000
0000
0000
0000
0010
0100
0001
0000
0001
0010
0001
0000
,
1001
0000
0000
0000
1000
0010
1000
0000
0001
0000
0000
0001
1000
0000
0000
0001
,
0100
0000
0000
0000
0100
0010
0100
0001
0100
0000
0000
0010
1000
0000
0010
0000
,
1000
0000
0000
0000
1000
0100
0010
0000
0001
0000
0000
0100
0001
0000
0100
0000
,
0010
0000
0000
0000
0010
0100
0001
0000
0001
0010
0100
0000
0100
1000
0010
0000
,
0010
0000
0000
0000
0100
0001
0100
0000
0001
0000
0000
0010
0100
0000
0000
0010
,
0001
0000
0000
0000
0001
1000
0001
0010
0001
0000
0000
1000
0010
0000
1000
0000
,
0100
0000
0000
0000
0100
0010
0100
0000
1000
0000
0000
0010
0100
0000
0001
0000
,
1001
1000
0010
0100
0002
0000
0023
0000
,
0130
0000
0000
0000
0100
1000
0010
0000
0100
0000
0000
0010
0100
0000
0000
0001
,
0100
0000
0000
0000
0100
0001
1000
0000
0100
0000
0000
1000
0100
0000
0010
0000
,
0001
0000
0000
0000
0001
0100
0010
0000
1000
0000
0000
0001
1000
0000
0001
0000
,
1001
0000
0000
0000
0100
0001
0010
0000
0010
0100
1000
0000
1000
0010
0100
0000
,
0010
0000
0000
0000
0010
1000
0100
0000
0010
0000
0000
0001
0010
0000
0000
0100
,
0010
0000
0000
0000
0010
0001
0100
0000
0010
0000
0000
1000
0010
0000
1000
0000
,
0001
0000
0000
0000
0001
0100
0010
0000
1001
0000
0000
0000
1000
0010
0100
0000
,
1001
0000
0000
0000
0010
0100
0001
1000
0001
0100
0010
1000
0001
1000
0010
0000
,
1001
0000
0000
0000
;

//---------------dance-single - ----------------
#NOTES:
     dance-single:
     :
     Hard:
     13:
     0.643902,0.747265,0.272372,0.114220,0.360234,513.000000,482.000000,31.000000,13.000000,0.000000,0.000000,0.643902,0.747265,0.272372,0.114220,0.360234,513.000000,482.000000,31.000000,13.000000,0.000000,0.000000:
0000
0000
0000
0000
,
0000
0000
0000
0000
,
0000
0000
0000
0000
,
0000
0000
0000
0000
,
1000
0100
0010
0000
0001
0010
0100
0000
,
1000
0100
0001
0000
0001
0100
1000
0000
,
1010
0101
0011
1100
,
1001
0000
0000
0000
0000
0000
0000
0010
,
0100
0010
1000
0010
0001
0010
0100
0000
,
0100
0001
0100
0010
0110
0000
1000
0001
,
0010
0100
1000
0100
0001
0100
0010
0000
,
0010
0001
1000
0010
1010
0000
0100
0001
,
1000
0001
0100
0001
0010
0001
1000
0100
,
0010
0100
1000
0010
0100
0000
0101
0000
,
0001
1000
0010
1000
0100
1000
0010
1000
,
0001
0001
0100
1000
0100
0000
0101
0000
,
0001
0000
0010
0001
0010
0000
0001
1000
0001
0000
1000
0000
0100
0000
0000
0010
,
0100
1000
0010
0100
0110
0000
0101
0000
,
0001
0000
1000
0010
1000
0000
0001
0000
0100
0000
0001
0010
0001
0000
0100
0000
,
0010
0000
1000
0001
1001
0000
0000
0000
,
0100
0000
0010
1000
0010
0000
1000
0100
1000
0000
0100
0000
0010
0000
0001
0000
,
0100
0000
0001
1000
0001
0000
0100
0000
0010
0000
0000
0000
0000
0000
0000
0000
,
1001
0000
0000
0000
1000
0100
1000
0000
0001
0000
0100
0001
0100
0000
0010
0000
,
1000
0000
0000
1000
0000
0000
1000
0000
0001
0000
0000
0001
0000
0000
0001
0000
,
1000
0000
0100
0000
0010
0100
0000
0010
0100
0000
0010
0001
0000
0010
0001
0000
,
0100
0000
0010
0000
1000
0010
0000
1000
0010
0000
1000
0001
0000
1000
0001
0000
,
0100
0000
0001
0000
0010
0100
0000
0010
0100
0000
1000
0100
0000
1000
0100
0000
,
1000
0000
0010
0000
0000
0100
0000
0000
0001
0000
0000
0010
0000
0000
0100
0000
,
1000
0000
0010
0000
0100
0001
0000
0100
0001
0000
1000
0001
0000
1000
0001
0000
,
1000
0000
0100
0000
0010
0100
0000
0010
0100
0000
0010
0001
0000
0010
0001
0000
,
0100
0000
0010
0000
0100
0001
0000
0100
0001
0000
0010
0100
0000
0010
0100
0000
,
1000
0000
0001
0000
0000
0100
0000
0000
0010
0000
0000
1000
0000
0000
0010
0000
,
0100
0000
0001
0010
0000
1000
0010
0000
,
0001
0000
1000
0000
0000
0010
0000
0000
0100
0000
0000
0001
0000
0000
0100
0000
,
0010
0000
1000
0100
0000
0001
0100
0000
,
1000
0000
0001
0000
0000
0010
0000
0000
0100
0000
0000
1000
0000
0000
0010
0000
,
0100
0000
0010
1000
0000
0010
0001
0000
,
0010
0000
1000
0000
0000
0001
0000
0000
0100
0000
0000
0010
0000
0000
1000
0000
,
0001
0000
0100
1000
0000
0100
0001
0000
,
2002
0000
0000
0000
0000
0000
3003
1000
,
0001
0000
0100
0000
0000
0100
0000
0000
0001
0000
0000
0001
0000
0000
0010
0000
,
0000
0000
0100
0000
0000
0100
0000
0000
1000
0000
0000
1000
0000
0000
0010
0000
,
0000
0000
1000
0000
0000
0100
0000
0000
0001
0000
0000
0100
0000
0000
1000
0000
,
0000
0000
0001
0000
0000
0010
0000
0000
1000
0000
0000
0010
0000
0000
0001
0000
,
0000
0000
0100
0000
0000
0100
0000
0000
0001
0000
0000
0001
0000
0000
1000
0000
,
0000
0000
0010
0000
0000
0010
0000
0000
1000
0000
0000
1000
0000
0000
0001
0000
,
0000
0000
0001
0000
0000
0100
0000
0000
1000
0000
0000
0100
0000
0000
0001
0000
,
0000
0000
1000
0000
0000
0010
0000
0000
0001
0000
0000
0010
0000
0000
1000
0000
,
1002
0000
0023
0000
,
0130
0001
0100
0000
2200
0000
0000
0000
,
3300
0000
0000
1000
0010
0100
0001
0000
1000
0000
0000
0000
0001
0000
1000
0000
,
1001
0000
0001
0010
1000
0010
0001
1000
,
2001
0000
3020
0000
,
0130
1000
0100
0000
0202
0000
0000
0000
,
0303
0000
0000
0001
0010
0100
1000
0000
0001
0000
0000
0000
1000
0000
0001
0000
,
0000
0000
0100
0000
0000
0100
0000
0000
0010
0000
0000
0010
0000
0000
1000
0000
,
0001
1000
0001
1000
,
1001
0010
0100
0010
,
1001
0001
1000
0001
,
1001
0100
0010
0100
,
1001
0000
0000
0000
1000
0010
1000
0000
0010
0000
0000
0000
0010
0100
0010
0000
,
0100
0000
0000
0000
0100
0001
0100
0000
0001
0000
0000
0000
0001
0010
0001
0000
,
0100
1000
0100
0010
0100
0001
0100
0010
,
0200
0000
0000
0000
,
0300
0000
0000
0000
0000
0000
0000
0000
1000
0001
1000
0000
0001
1000
0001
0000
,
1000
0000
0000
0000
0010
0000
0100
0000
0001
0000
0000
0010
0100
0000
0000
0100
,
1000
0000
0001
0010
1000
0000
0010
0001
,
0100
0000
0000
0000
0010
0000
1000
0000
0010
0000
0000
1000
0001
0000
1000
0000
,
0001
0000
1000
0100
0001
0100
1000
0010
,
0100
0000
0000
0000
0001
0000
0010
0000
0100
0000
0000
1000
0010
0000
0000
0010
,
0100
0000
0001
1000
0010
0000
0100
0001
,
0010
0000
0100
1000
0001
0000
0100
1000
,
0100
0001
0100
0010
0100
1000
0100
0001
,
1001
0000
0010
0100
1001
0000
0010
0100
,
0001
0010
0011
0000
1200
0000
0310
0001
,
0010
0000
0000
0000
0001
0000
0100
0000
0010
0000
0000
1000
0010
0000
0100
0000
,
0001
0000
1000
0010
0001
0010
1000
0001
,
0110
0000
1000
0001
0110
0000
1000
0001
,
0100
0010
1010
0000
0201
0000
0310
1000
,
0010
0000
0000
0000
1000
0100
1000
0000
0001
0000
0000
0000
0001
0100
0001
0000
,
1000
0010
0100
0001
0010
0100
1000
0010
,
0100
0000
0000
0000
;

//---------------dance-single - ----------------
#NOTES:
     dance-single:
     :
     Medium:
     8:
     0.411696,0.462593,0.140579,0.351448,0.052717,328.000000,312.000000,16.000000,40.000000,0.000000,0.000000,0.411696,0.462593,0.140579,0.351448,0.052717,328.000000,312.000000,16.000000,40.000000,0.000000,0.000000:
0000
0000
0000
0000
,
0000
0000
0000
0000
,
0000
0000
0000
0000
,
0000
0000
0000
0000
,
0001
0010
0001
0000
1000
0100
1000
0000
,
0010
1000
0010
0000
0100
0001
0100
0000
,
0001
1000
0010
0100
,
0110
0000
0000
0000
0000
0000
0000
0010
,
1000
0100
0000
0010
0000
0100
1000
0000
,
0010
0100
0000
0001
0010
0000
0010
0000
,
0000
0001
0000
1000
0000
0010
0100
0000
,
0010
0000
1000
0001
1000
0000
0000
0000
,
1000
0001
0000
0100
0000
0001
0010
0000
,
0100
1000
0000
0010
0100
0000
0001
0000
,
0000
1000
0000
0010
0000
1000
0100
0000
,
0010
0010
0001
1000
0001
0000
0100
0000
,
0010
0000
1000
0010
0000
0100
0001
0000
,
0100
0000
0010
1000
0010
0000
0100
0000
,
0001
0000
0000
0010
0000
0100
1000
0000
,
0001
0000
1000
0100
0010
0000
0002
0000
,
0103
0000
0000
0100
0000
0100
0010
1000
,
0100
1000
0000
0001
1000
0000
0000
0000
,
1001
0000
0000
0010
0000
0100
0010
0000
,
2000
0000
3002
0000
,
0013
0100
1000
0000
1000
0000
1000
0000
,
0010
0100
0001
0000
0001
0000
0001
0000
,
1000
0010
0100
0000
0100
0000
0100
0000
,
0001
0100
0010
0000
0010
0000
0010
0000
,
1000
0001
0100
0000
0001
0000
1000
0000
,
0001
1000
0100
0000
1000
0000
0001
0000
,
1000
0010
0100
0000
0010
0000
1000
0000
,
0001
0010
0100
0000
0010
0000
0001
0000
,
2000
0000
3001
0020
0000
0031
2000
0000
,
3000
0000
0000
0000
,
0020
0000
0130
0002
0000
0103
0020
0000
,
0030
0000
0000
0000
,
0200
0000
0301
2000
0000
3001
0200
0000
,
0300
0000
0000
0000
,
0002
0000
0103
2000
0000
3100
0002
0000
,
2003
0000
0000
0000
,
3000
0000
0001
0000
0000
0010
0000
0000
0001
0000
0000
0010
0000
0000
0001
0000
,
0000
0000
1000
0000
0000
0001
0000
0000
1000
0000
0000
0001
0000
0000
1000
0000
,
0000
0000
0010
0000
0000
1000
0000
0000
0010
0000
0000
1000
0000
0000
0010
0000
,
0000
0220
0000
0000
0000
0000
0000
0330
,
0000
0000
1000
0000
0000
0010
0000
0000
1000
0000
0000
0010
0000
0000
1000
0000
,
0000
0000
0010
0000
0000
0100
0000
0000
0010
0000
0000
0100
0000
0000
0010
0000
,
0000
0000
0100
0000
0000
0001
0000
0000
0100
0000
0000
0001
0000
0000
0100
0000
,
0000
0022
0000
0000
0000
0000
0000
0033
,
0002
0003
0002
0003
,
0001
0100
0010
0000
2020
0000
0000
0000
,
0030
0001
3001
1000
,
0010
0100
0010
0010
,
2000
3000
2000
3000
,
1000
0100
0010
0000
0022
0000
0000
0000
,
0030
0000
1000
0000
1003
0000
0010
0100
,
0001
1000
0000
1000
0001
0000
0100
0000
,
0001
1000
0001
0100
,
1001
0001
1000
0100
,
1001
1000
0001
0100
,
1001
0001
1000
0100
,
1001
0010
1001
0010
,
1001
0010
1001
0010
,
0100
0100
0100
0100
,
0200
0000
0000
0300
,
0000
0000
0000
0000
0001
0010
0001
1000
,
0001
0000
0100
0010
0100
0000
0001
0000
,
1000
0000
0010
1000
0010
0000
1000
0000
,
0001
0000
0100
0010
1000
0000
0001
0000
,
0100
0010
0010
0010
,
0010
0000
1000
0100
1000
0000
0010
0000
,
0100
0000
0001
0010
0001
0000
1000
0000
,
0001
0000
0100
0010
1000
0000
0001
0000
,
2000
3002
2003
0001
,
3002
0003
0020
0030
,
0100
1000
0010
0000
0220
0000
0000
0000
,
0330
0000
0001
1000
0001
0000
1000
0000
,
0100
0010
0010
0100
,
0200
0300
2000
3000
,
0010
0100
0001
0000
0202
0000
0000
0000
,
0303
0000
0001
1000
0001
0000
1000
0001
,
1000
0010
0100
0001
,
0011
0000
0000
0000
;

//---------------dance-single - ----------------
#NOTES:
     dance-single:
     :
     Easy:
     6:
     0.296220,0.391425,0.105434,0.307517,0.035145,236.000000,224.000000,12.000000,35.000000,0.000000,0.000000,0.296220,0.391425,0.105434,0.307517,0.035145,236.000000,224.000000,12.000000,35.000000,0.000000,0.000000:
0000
0000
0000
0000
,
0000
0000
0000
0000
,
0000
0000
0000
0000
,
0000
0000
0000
0000
,
1000
0100
0000
0010
,
0001
0100
0000
0010
,
1000
0001
1000
0001
,
1001
0000
0000
0000
0000
0000
0000
0010
,
0000
0100
0000
0010
0000
0100
0001
0000
,
0000
0010
0000
0100
1000
0000
1000
0000
,
0000
0010
0000
1000
0000
0010
0100
0000
,
0001
0000
0000
0001
0100
0000
0000
0000
,
0000
0100
0000
0010
0000
0100
0001
0000
,
0000
1000
0000
0010
1000
0000
0100
0000
,
0000
1000
0000
0010
0000
1000
0001
0000
,
0100
0100
0010
0000
,
1000
0000
0000
0010
0000
0010
0100
0000
,
0001
0000
0000
0010
0001
0000
1000
0000
,
0010
0000
0000
0100
0000
0010
0100
0000
,
0001
0000
0000
0010
0100
0000
0000
0000
,
0010
0000
0000
0001
0000
1000
0100
0000
,
1000
0000
0000
0001
0010
0000
0000
0000
,
0100
0000
0000
1000
0000
0100
1000
0000
,
0020
0030
0020
0030
,
0100
0001
0000
0000
0000
0000
0000
0000
,
0001
0010
0000
0000
0000
0000
0000
0000
,
0010
1000
0000
0000
0000
0000
0000
0000
,
1000
0100
0000
0000
0000
0000
0000
0000
,
0001
1000
0000
0000
0000
0000
0000
0000
,
1000
0010
0000
0000
0000
0000
0000
0000
,
0010
0001
0000
0000
0000
0000
0000
0000
,
0001
0100
0000
0000
0000
0000
0000
0000
,
1000
0000
0010
0100
0000
0100
0001
0000
,
0000
0000
0000
0000
,
0001
0000
0010
0100
0000
0100
1000
0000
,
0000
0000
0000
0000
,
1000
0000
0001
0010
0000
0010
0001
0000
,
0000
0000
0000
0000
,
0001
0000
1000
0100
0000
0100
1000
0000
,
2002
0000
0000
3003
,
0000
0000
0002
0000
0000
0200
0000
0000
0000
0000
0000
0000
0303
0000
0000
0000
,
0000
0000
2000
0000
0000
0020
0000
0000
0000
0000
0000
0000
3030
0000
0000
0000
,
0000
0000
0020
0000
0000
0200
0000
0000
0000
0000
0000
0000
0330
0000
0000
0000
,
0000
0000
0002
0000
0000
0020
0000
0000
0000
0000
0000
0000
0033
0000
0000
0000
,
0000
0000
0100
0000
0000
1000
0000
0000
0100
0000
0000
0000
0000
0000
0000
0000
,
0000
0000
1000
0000
0000
0010
0000
0000
1000
0000
0000
0000
0000
0000
0000
0000
,
0000
0000
0001
0000
0000
0100
0000
0000
0001
0000
0000
0000
0000
0000
0000
0000
,
0000
0000
0010
0000
0000
0100
0000
0000
1000
0000
0000
0000
0000
0000
0000
0000
,
2000
3000
2000
3000
,
1000
0010
0200
0000
,
0000
0001
0301
1000
,
0010
0100
0010
0100
,
0002
0003
0002
0003
,
0001
0010
0200
0000
,
0000
1000
1300
0001
,
0100
0000
0000
0000
,
1001
0000
0000
0000
,
0110
0000
0000
0000
,
0101
0000
0000
0000
,
1010
0000
0000
0000
,
1100
0000
0011
0000
,
1001
0000
0110
0000
,
0001
1000
0010
0100
,
1001
0000
0000
0000
,
0000
0000
0000
0000
0001
0010
0001
1000
,
0002
0103
0010
1000
,
0200
0310
0010
0001
,
2000
3010
0100
0001
,
1000
0010
0001
0010
,
2000
3100
0010
0001
,
0200
0310
0010
1000
,
0020
0130
0001
1000
,
0002
2003
3002
1000
,
0203
0300
0200
0300
,
0100
0010
2000
0002
,
3003
0001
0100
0010
,
1000
0010
1000
0010
,
0200
0300
0200
0300
,
0100
0001
0020
0200
,
0330
1000
0001
1000
,
0010
0010
0100
0100
,
1001
0000
0000
0000
;

//---------------dance-single - ----------------
#NOTES:
     dance-single:
     :
     Beginner:
     1:
     0.094138,0.177920,0.000000,0.140579,0.000000,75.000000,75.000000,0.000000,16.000000,0.000000,0.000000,0.094138,0.177920,0.000000,0.140579,0.000000,75.000000,75.000000,0.000000,16.000000,0.000000,0.000000:
0000
0000
0000
0000
,
0000
0000
0000
0000
,
0000
0000
0000
0000
,
0000
0000
0000
0000
,
0100
0000
0000
0000
,
0100
0000
0000
0000
,
0010
0000
0000
0000
,
0010
0000
0000
0000
,
1000
0000
0000
0000
,
0001
0000
0000
0000
,
1000
0000
0000
0000
,
0001
0000
0000
0000
,
0100
0000
0000
0000
,
0010
0000
0000
0000
,
0100
0000
0000
0000
,
0010
0000
0000
1000
,
1000
0000
0000
0000
,
0100
0000
0000
0000
,
1000
0000
0000
0000
,
0100
0000
0000
0010
,
0010
0000
0000
0000
,
0001
0000
0000
0000
,
0010
0000
0000
0000
,
0000
0000
0000
0000
,
0002
0003
0000
0000
,
0200
0300
0000
0000
,
0020
0030
0000
0000
,
2000
3000
0000
0000
,
2000
3000
0000
0000
,
0020
0030
0000
0000
,
0200
0300
0000
0000
,
0002
0003
0000
0000
,
2000
0000
0000
3000
,
0000
0000
0000
0000
,
0002
0000
0000
0003
,
0000
0000
0000
0000
,
0200
0000
0000
0300
,
0000
0000
0000
0000
,
0020
0000
0000
0030
,
0000
0000
0000
0000
,
1000
0000
0000
0000
,
0001
0000
0000
0000
,
0100
0000
0000
0000
,
0100
0000
0000
0000
,
0001
0000
0000
0000
,
1000
0000
0000
0000
,
0010
0000
0000
0000
,
0010
0000
0000
0000
,
0100
0000
0100
0000
,
0200
0000
0000
0000
,
0000
0000
0300
0000
,
0000
0000
0000
0000
,
0001
0000
0001
0000
,
0002
0000
0000
0000
,
0000
0000
0003
0000
,
0000
0000
0000
0000
,
0010
0000
0000
0000
,
0010
0000
0000
0000
,
0010
0000
0000
0000
,
0010
0000
0000
0000
,
0010
0000
0010
0000
,
0010
0000
0010
0000
,
0010
0000
0000
0000
,
0200
0000
0000
0300
,
0000
0000
0000
0000
,
1000
0000
0000
0000
,
0010
0000
0000
0000
,
0100
0000
0000
0000
,
0001
0000
0000
0000
,
0001
0000
0000
0000
,
0100
0000
0000
0000
,
0010
0000
0000
0000
,
1000
0000
0000
0000
,
1000
0000
1000
0000
,
2000
0000
0000
0000
,
0000
0000
3000
0000
,
0000
0000
0000
0000
,
0100
0000
0100
0000
,
0100
0000
0000
0000
,
1000
0000
1000
0000
,
1000
0000
0000
0000
,
0001
0000
0000
0000
;

//---------------dance-double - ----------------
#NOTES:
     dance-double:
     :
     Easy:
     7:
     0.312537,0.355841,0.070290,0.219655,0.035145,249.000000,241.000000,8.000000,25.000000,0.000000,0.000000,0.312537,0.355841,0.070290,0.219655,0.035145,249.000000,241.000000,8.000000,25.000000,0.000000,0.000000:
00000000
00000000
00000000
00000000
,
00000000
00000000
00000000
00000000
,
00000000
00000000
00000000
00000000
,
00000000
00000000
00000000
00000000
,
10000000
01000000
00010000
00001000
,
00000100
00000001
00001000
00000001
,
00000200
00002300
00023000
00032000
,
00003020
00000000
00000000
00000000
00000000
00000000
00000030
00000001
,
00000000
00001000
00000000
00000001
00000000
00000100
00001000
00000000
,
00000000
00010000
00000000
01000000
10000000
00000000
10000000
00000000
,
00000000
01000000
00000000
00100000
00000000
01000000
00010000
00000000
,
00001000
00000000
00000000
00000100
00000001
00000000
00000000
00000000
,
00000000
00001000
00000000
00000001
00000000
00001000
00000010
00000000
,
00000000
00000100
00000000
00001000
00010000
00000000
01000000
00000000
,
00000000
10000000
00000000
00010000
00000000
10000000
00100000
00000000
,
00010000
00001000
00000010
00000001
,
00001000
00000000
00000000
00000010
00000000
00000100
00000010
00000000
,
00000100
00000000
00000000
00001000
00010000
00000000
01000000
00000000
,
10000000
00000000
00000000
00010000
00100000
00000000
00010000
00000000
,
01000000
00000000
00000000
00100000
00010000
00000000
00000000
00000000
,
00001000
00000000
00000000
00000010
00000001
00000000
00000100
00000000
,
00000010
00000000
00000000
00010000
00001000
00000000
00200000
00000000
,
01300000
00000000
00000000
10000000
00000000
00010000
10000000
00000000
,
00010000
00010000
00001000
00001000
,
00000001
00000100
00000000
00000000
00000000
00000000
00000000
00000000
,
00001000
00010000
00000000
00000000
00000000
00000000
00000000
00000000
,
01000000
10000000
00000000
00000000
00000000
00000000
00000000
00000000
,
00010000
10000000
00000000
00000000
00000000
00000000
00000000
00000000
,
10000000
00100000
00000000
00000000
00000000
00000000
00000000
00000000
,
00010000
00001000
00000000
00000000
00000000
00000000
00000000
00000000
,
00000010
00000001
00000000
00000000
00000000
00000000
00000000
00000000
,
00001000
00000001
00000000
00000000
00000000
00000000
00000000
00000000
,
00000100
00000000
00001000
00010000
00000000
00010000
01000000
00000000
,
10000000
00010000
00000000
00000000
00000000
00000000
00000000
00000000
,
01000000
00000000
00100000
00010000
00000000
00010000
00001000
00000000
,
00000010
00000001
00000000
00000000
00000000
00000000
00000000
00000000
,
00000100
00000000
00001000
00010000
00000000
00010000
01000000
00000000
,
10000000
01000000
00000000
00000000
00000000
00000000
00000000
00000000
,
00010000
00000000
00001000
00000010
00000000
00000010
00000001
00000000
,
00002002
00000000
00000000
00003003
,
00000000
00000000
00000001
00000000
00000000
00000200
00000000
00000000
00000000
00000000
00000000
00000000
00000000
00000000
00000000
00000000
,
00000000
00000000
00001300
00000000
00000000
00020000
00000000
00000000
00000000
00000000
00000000
00000000
00000000
00000000
00000000
00000000
,
00000000
00000000
01030000
00000000
00000000
20000000
00000000
00000000
00000000
00000000
00000000
00000000
00000000
00000000
00000000
00000000
,
00000000
00000000
30010000
00000000
00000000
00200000
00000000
00000000
00000000
00000000
00000000
00000000
00000000
00000000
00000000
00000000
,
00300000
00000000
01000000
00000000
00000000
00020000
00000000
00000000
00000000
00000000
00000000
00000000
00000000
00000000
00000000
00000000
,
00030000
00000000
00001000
00000000
00000000
00000020
00000000
00000000
00000000
00000000
00000000
00000000
00000000
00000000
00000000
00000000
,
00000030
00000000
00000001
00000000
00000000
00002000
00000000
00000000
00000000
00000000
00000000
00000000
00000000
00000000
00000000
00000000
,
00003000
00000000
00000010
00000000
00000000
00000200
00000000
00000000
00000000
00000000
00000000
00000000
00000000
00000000
00000000
00000000
,
00001300
00000000
00001000
00000000
,
00001000
00010000
01000000
00000000
12000000
00000000
00000000
00000000
,
00000000
03100000
00100000
00010000
,
00001000
00000010
00000001
00001000
,
00000001
00000000
00000001
00000000
,
00000100
00001000
00010000
00000000
02010000
00000000
00000000
00000000
,
00000000
03100000
00100000
00010000
,
00001000
00000000
00000000
00000010
,
00000001
00000100
00001000
00010000
,
00001000
00010000
01000000
10000000
,
00100000
00010000
00001000
00000010
,
00001000
00000010
00000001
00001000
,
00001001
00000000
00010100
00000000
,
00011000
00000000
00101000
00000000
,
00100000
01000000
00100000
01000000
,
20000000
00000000
00000000
30000000
,
00000000
00000000
00010000
01000000
,
00010000
01000000
00100000
00010000
,
00001000
00000010
00000001
00000010
,
00000001
00000100
00001000
00010000
,
00100000
00010000
00001000
00001000
,
01000000
00100000
10000000
00010000
,
01000000
00100000
00010000
00001000
,
00000010
00000001
00001000
00000010
,
00000200
00002300
00023000
02030000
,
13000000
00000000
00010000
00000000
,
00001000
00000000
00000001
00000100
,
00000001
00000000
00000010
00000100
,
00001000
00000010
00000100
00000100
,
00000001
00000000
00001000
00000000
,
00010000
00000000
10000000
00000000
,
00200000
00000000
02300000
00000000
,
03010000
10000000
00100000
01000000
,
10010000
00000000
00000000
00000000
;

//---------------dance-double - ----------------
#NOTES:
     dance-double:
     :
     Medium:
     10:
     0.425503,0.462593,0.070290,0.369020,0.070290,339.000000,331.000000,8.000000,42.000000,0.000000,0.000000,0.425503,0.462593,0.070290,0.369020,0.070290,339.000000,331.000000,8.000000,42.000000,0.000000,0.000000:
00000000
00000000
00000000
00000000
,
00000000
00000000
00000000
00000000
,
00000000
00000000
00000000
00000000
,
00000000
00000000
00000000
00000000
,
10000000
01000000
10000000
00000000
00010000
00000000
00010000
00000000
,
00100000
00001000
00100000
00000000
00001000
00000000
00001000
00000000
,
00010000
00001000
00000010
00000001
,
00002002
00000000
00000000
00000000
00000000
00000000
00003003
00000100
,
00000010
00000100
00000001
00000000
00000100
00000000
00001000
00000000
,
00000000
00010000
00000000
01000000
10000000
00000000
00100000
00000000
,
01000000
00100000
01000000
00010000
01000000
00000000
00100000
00000000
,
00010000
00000000
00000000
00001000
00000010
00000000
00000000
00000000
,
00000000
00000001
00000000
00000001
00000000
00001000
00000010
00000000
,
00000100
00000010
00000000
00000100
00000001
00000000
00001000
00000000
,
00000100
00010000
00000100
00001000
00000100
00000000
00010000
00000000
,
00001000
00010000
00100000
20000000
,
30010000
00000000
00000000
00010000
00000000
01000000
00100000
00000000
,
00010000
00000000
00000000
00001000
00000100
00000000
00000010
00000000
,
00001000
00000000
00000000
00001000
00000000
00000001
00000010
00000000
,
00001000
00000000
00000000
00010000
00100000
00000000
20000000
00000000
,
30010000
00000000
00000000
01000000
00000000
00100000
01000000
00010000
,
10000000
00000000
00000000
01000000
00010000
00000000
00002000
00000000
,
00003100
00000000
00000000
00000001
00000000
00001000
00000001
00000000
,
00000200
00000000
00000320
00000000
,
00001030
00000100
00001000
00000000
00000001
00000000
00000100
00000000
,
00001000
00010000
01000000
00000000
10000000
00000000
00010000
00000000
,
10000000
00100000
10000000
00000000
00100000
00000000
00010000
00000000
,
00001000
00000010
00000001
00000000
00001000
00000000
00001000
00000000
,
00000001
00000010
00000001
00000000
00001000
00000000
00000010
00000000
,
00000100
00001000
00010000
00000000
01000000
00000000
10000000
00000000
,
00100000
01000000
00100000
00000000
01000000
00000000
00010000
00000000
,
10000000
00100000
00010000
00000000
00001000
00000000
00000010
00000000
,
00000001
00000000
00000100
00001000
00000000
00010000
02000000
00000000
,
13000000
00010000
00000000
00000000
00010000
10000000
00000000
00000000
,
10000000
00000000
00100000
00010000
00000000
00001000
00000020
00000000
,
00000031
00001000
00000000
00000000
00001000
00000001
00000000
00000000
,
00000001
00000000
00000100
00001000
00000000
00010000
02000000
00000000
,
13000000
00100000
00000000
00000000
00100000
10000000
00000000
00000000
,
10000000
00000000
01000000
00010000
00000000
00001000
00000200
00000000
,
00000302
00000000
00000000
00000000
,
00000003
00000000
00001000
00000000
00000000
00000010
00000000
00000000
00001000
00000000
00000000
00000010
00000000
00000000
00001000
00000000
,
00000000
00000000
00000001
00000000
00000000
00000100
00000000
00000000
00000001
00000000
00000000
00000100
00000000
00000000
00000001
00000000
,
00000000
00000000
00001000
00000000
00000000
00000100
00000000
00000000
00010000
00000000
00000000
00001000
00000000
00000000
01000000
00000000
,
00000000
00000000
00100000
00000000
00000000
00100000
00000000
00000000
10000000
00000000
00000000
10000000
00000000
00000000
00010000
00000000
,
00000000
00000000
10000000
00000000
00000000
01000000
00000000
00000000
10000000
00000000
00000000
01000000
00000000
00000000
10000000
00000000
,
00000000
00000000
00010000
00000000
00000000
00100000
00000000
00000000
00010000
00000000
00000000
00100000
00000000
00000000
00010000
00000000
,
00000000
00000000
01000000
00000000
00000000
00001000
00000000
00000000
00010000
00000000
00000000
00000100
00000000
00000000
00001000
00000000
,
00000000
00000000
00000010
00000000
00000000
00000010
00000000
00000000
00001000
00000000
00000000
00001000
00000000
00000000
00000001
00000000
,
00000020
00000030
00000020
00000030
,
00001000
00010000
00100000
00000000
20100000
00000000
00000000
00000000
,
30000000
00000000
10000000
00010000
10000000
00000000
01000000
00000000
,
00100000
00000000
01000000
10000000
01000000
10000000
01000000
00000000
,
20000000
30000000
20000000
30000000
,
00100000
00010000
00001000
00000000
00001020
00000000
00000000
00000000
,
00000030
00000000
00000001
00001000
00000001
00000000
00000100
00000000
,
00000002
00000020
00000000
00000000
00000033
00000000
00001100
00000000
,
00001001
00000010
00000100
00000010
,
00020000
00031000
00100000
00001000
,
02000000
03100000
10000000
00100000
,
20000000
31000000
00100000
01000000
,
00200000
00301000
00020000
00031000
,
00000200
00000301
00000020
00001030
,
00020000
00230000
20300000
30020000
,
02030000
00000000
00000000
00000000
,
03100000
01000000
00000000
00000000
01000000
00000000
00100000
00000000
,
00010000
00000000
00001000
00000010
00000001
00000000
00001000
00000000
,
00000001
00000000
00000100
00000010
00000100
00000000
00000001
00000000
,
00001000
00000000
00000010
00000100
00001000
00000000
00010000
00000000
,
01000000
10000000
10000000
00010000
,
00010000
00000000
01000000
00100000
01000000
00000000
00100000
00000000
,
00010000
00000000
00001000
00000100
00000001
00000000
00001000
00000000
,
00000010
00000000
00000100
00000001
00000100
00000000
00000010
00000000
,
00002000
00003200
00020300
00032000
,
02003000
03000000
00200000
00300000
,
10000000
01000000
00010000
00000000
00012000
00000000
00000000
00000000
,
00003000
00000000
00000100
00000001
00000100
00000000
00000001
00000000
,
00001000
00000000
00000010
00000100
00000010
00001000
00000010
00000000
,
00000200
00000300
00000002
00000003
,
00001000
00000010
00000100
00000000
00001200
00000000
00000000
00000000
,
00000300
00000000
00001000
00010000
01000000
00000000
10000000
00010000
,
01000000
00000000
00100000
10000000
00010000
00000000
01000000
00100000
,
01100000
00000000
00000000
00000000
;

//---------------dance-double - ----------------
#NOTES:
     dance-double:
     :
     Challenge:
     17:
     0.938867,0.960770,0.386592,0.079076,0.992839,748.000000,704.000000,44.000000,9.000000,0.000000,0.000000,0.938867,0.960770,0.386592,0.079076,0.992839,748.000000,704.000000,44.000000,9.000000,0.000000,0.000000:
// measure 0
00000000
00000000
00000000
00000000
,  // measure 1
00000000
00000000
00000000
00000000
,  // measure 2
00000000
00000000
00000000
00000000
,  // measure 3
00000000
00000000
00000000
00000000
,  // measure 4
10000000
01000000
00010000
00000000
00001000
00000100
00000001
00000000
,  // measure 5
00000001
00000100
00001000
00000000
00010000
01000000
10000000
00000000
,  // measure 6
11000000
01010000
00011000
00001100
,  // measure 7
00000202
00000000
00000000
00000000
00000000
00000000
00000000
00000000
00000000
00000000
00000000
00000000
00000303
00000000
00000001
00001000
,  // measure 8
00000010
00000000
00000100
00000001
00001000
00000000
00000001
00001000
00000010
00000000
00000100
00000010
00010000
00000000
00001000
00000000
,  // measure 9
01000000
00000000
00100000
01000000
00100000
00000000
10000000
01000000
00100000
00000000
00010000
01000000
00100000
00000000
00000000
00000000
,  // measure 10
10000000
00000000
00010000
10000000
01000000
00000000
10000000
00010000
00100000
00000000
00010000
10000000
01000000
00000000
00010000
00001000
,  // measure 11
00000100
00000000
00000001
00001000
00000001
00000100
00000010
00001000
00000010
00000000
00000000
00000000
00000100
00000001
00000100
00000001
,  // measure 12
00000100
00000000
00000010
00001000
00000100
00000000
00001000
00000010
00000100
00000000
00000010
00000100
00000001
00000000
00000010
00000000
,  // measure 13
00000100
00001000
00000100
00010000
00001000
00000000
00100000
00010000
01000000
00000000
00100000
01000000
10000000
00000000
00000000
00000000
,  // measure 14
10000000
00000000
00010000
01000000
00100000
00000000
10000000
01000000
00100000
00000000
00010000
01000000
00100000
00000000
00010000
00000000
,  // measure 15
00001000
00001000
00000100
00000100
00000101
00000000
00001020
00000000
,  // measure 16
00001030
00000100
00000010
00000000
00000001
00000000
00001000
00000100
00000010
00000000
00000001
00001000
00000001
00000000
00000100
00000000
,  // measure 17
00001000
00010000
01000000
00000000
10000000
00000000
00100000
01000000
00010000
00000000
00100000
00010000
10000000
00000000
00000000
00000000
,  // measure 18
10000000
00100000
01000000
00000000
00010000
00000000
10000000
00100000
01000000
00000000
00010000
10000000
00010000
00000000
01000000
00100000
,  // measure 19
00010000
00000000
00001000
00000000
00000100
00000000
00000001
00000010
00000100
00000000
00000000
00000000
00001000
00000001
00001000
00000001
,  // measure 20
00001000
00000010
00000100
00000000
00000001
00000000
00000010
00000100
00001000
00000000
00000001
00000010
00000100
00000000
00001000
00000000
,  // measure 21
00000010
00000100
00001000
00000000
00010000
00000000
01000000
10000000
01000000
00000000
00000000
00000000
12000000
00000000
00000000
00000000
,  // measure 22
03100000
00010000
10000000
00000000
00100000
00000000
01000000
00010000
01000000
00000000
00100000
10000000
00100000
00000000
10000000
00000000
,  // measure 23
00100000
00000000
00000000
00010000
00000000
00000000
00001000
00000000
00000010
00000000
00000000
00001000
00000000
00000000
00010000
00000000
,  // measure 24
00100000
00000000
10000000
00000000
01000000
00010000
00000000
01000000
10000000
00000000
00100000
00010000
00000000
00001000
00000010
00000000
,  // measure 25
00001000
00000000
00010000
00000000
00100000
01000000
00000000
00100000
00010000
00000000
00001000
00000100
00000000
00000001
00000100
00000000
,  // measure 26
00000001
00000000
00000010
00000000
00001000
00010000
00000000
00100000
00010000
00000000
00001000
00000100
00000000
00000010
00000100
00000000
,  // measure 27
00001000
00000000
00010000
00000000
00100000
10000000
00000000
01000000
10000000
00000000
00100000
01000000
00010000
01000000
00100000
00000000
,  // measure 28
10000000
00000000
00010000
00000000
01000000
00100000
00000000
00010000
00001000
00000000
00000100
00000010
00000000
00001000
00000010
00000000
,  // measure 29
00000100
00000000
00001000
00000000
00010000
00100000
00000000
00010000
00001000
00000000
00000100
00000001
00000000
00000100
00001000
00000000
,  // measure 30
00010000
00000000
00100000
00000000
10000000
01000000
00000000
00100000
00010000
00000000
01000000
00100000
00000000
00010000
00001000
00000000
,  // measure 31
00000010
00000000
00000001
00000000
00001000
00000010
00000000
00000100
00000001
00000000
00000010
00001000
00000000
00010000
00100000
00000000
,  // measure 32
10100000
00000000
10000000
00010000
00000000
00001000
00000001
00000000
,  // measure 33
00001000
00000000
00000100
00000000
00000001
00000100
00000000
00001000
00000100
00000000
00000001
00000100
00000000
00001000
00000100
00000000
,  // measure 34
00000101
00000000
00000001
00001000
00000000
00010000
10000000
00000000
,  // measure 35
00010000
00000000
01000000
00000000
10000000
01000000
00000000
00010000
01000000
00000000
10000000
01000000
00000000
00010000
01000000
00000000
,  // measure 36
11000000
00000000
10000000
00010000
00000000
00001000
00000001
00000000
,  // measure 37
00001000
00000000
00000010
00000000
00000001
00000010
00000000
00001000
00000010
00000000
00000001
00000010
00000000
00001000
00000010
00000000
,  // measure 38
00000011
00000000
00000001
00001000
00000000
00010000
10000000
00000000
,  // measure 39
02200000
00000000
00000000
00000000
03300000
00100000
00000000
00100000
,  // measure 40
10010000
00000000
10000000
00000000
01000000
10000000
00000000
01000000
10000000
00000000
01000000
00100000
00000000
01000000
10000000
00000000
,  // measure 41
00010000
00000000
00010000
00000000
01000000
00010000
00000000
01000000
00010000
00000000
01000000
00100000
00000000
01000000
00010000
00000000
,  // measure 42
01000000
00000000
00100000
00000000
00010000
00001000
00000000
00000100
00000001
00000000
00001000
00000010
00001000
00000010
00001000
00000000
,  // measure 43
00000001
00000000
00001000
00000000
00000010
00000001
00000000
00000010
00001000
00000000
00000001
00000010
00000001
00000010
00000001
00000000
,  // measure 44
00001000
00000000
00001000
00000000
00000010
00001000
00000000
00000010
00001000
00000000
00000010
00000100
00000000
00000010
00001000
00000000
,  // measure 45
00000001
00000000
00000001
00000000
00000010
00000001
00000000
00000010
00000001
00000000
00000010
00000100
00000000
00000010
00000001
00000000
,  // measure 46
00000100
00000000
00001000
00000000
00010000
01000000
00000000
00100000
00010000
00000000
10000000
00100000
10000000
00100000
10000000
00000000
,  // measure 47
00010000
00000000
01000000
00000000
00100000
00010000
00000000
00100000
10000000
00000000
00010000
00100000
00010000
00100000
00010000
00000000
,  // measure 48
10010000
00000000
00000000
00000000
01000000
00100000
10000000
00000000
00010000
00000000
00000000
00100000
01000000
00000000
10000000
00010000
,  // measure 49
00100000
00000000
00000000
00000000
00100000
00010000
00100000
01000000
00100000
00000000
00000000
00010000
10000000
00000000
00100000
00000000
,  // measure 50
00010000
00000000
00000000
00000000
00001000
00000010
00000001
00000000
00001000
00000000
00000000
00000010
00000100
00000000
00000001
00000000
,  // measure 51
00001001
00000000
00000000
00000000
00000010
00000100
00000010
00000000
00000010
00001000
00000010
00000000
00000010
00000100
00000010
00000000
,  // measure 52
00001001
00000000
00000000
00000000
00000010
00000100
00000001
00000000
00001000
00000000
00000000
00000010
00000100
00000000
00000001
00001000
,  // measure 53
00000100
00000000
00000000
00000000
00000100
00001000
00000100
00000010
00000100
00000000
00000000
00001000
00000001
00000000
00000100
00000000
,  // measure 54
00001000
00000000
00000000
00000000
00010000
00100000
10000000
00000000
00010000
00000000
00000000
01000000
00100000
00000000
10000000
00000000
,  // measure 55
10010000
00000000
00010000
00000000
01000000
00100000
00000000
10000000
01000000
00000000
00100000
00010000
02000000
00000000
00000000
03000000
,  // measure 56
00011000
00000000
00000000
00000000
00001000
00010000
00100000
00000000
00010000
00000000
00000000
00001000
00000100
00000000
00001000
00000000
,  // measure 57
00011000
00000000
00000000
00000000
00010000
00001000
00000010
00000000
00001000
00000000
00000000
00010000
01000000
00000000
00010000
00000000
,  // measure 58
00011000
00000000
00000000
00000000
00001000
00010000
00100000
00000000
00010000
00000000
00000000
00001000
00000100
00000000
00001000
00000000
,  // measure 59
00011000
00000000
00000000
00000000
00010000
00001000
00000010
00000000
00001000
00000000
00000000
00010000
01000000
00000000
00010000
00000000
,  // measure 60
00011000
00000000
00000000
00000000
00001000
00000010
00000001
00000000
00001001
00000000
00000000
00000000
00000001
00000100
00001000
00000000
,  // measure 61
00011000
00000000
00000000
00000000
00010000
00100000
10000000
00000000
10010000
00000000
00000000
00000000
10000000
01000000
10000000
00000000
,  // measure 62
01000000
00010000
01000000
00000000
00010000
00001000
00010000
00000000
00001000
00000010
00001000
00000000
00000010
00000001
00000010
00000000
,  // measure 63
00000022
00000000
00000000
00000000
00000000
00000000
00000000
00000033
,  // measure 64
00001001
00000000
00000010
00000000
00000000
00000010
00000100
00000000
00000010
00001000
00000001
00000000
00000001
00001000
00000010
00000000
,  // measure 65
00000110
00000000
00000000
00000000
00000100
00000001
00001000
00000000
00001010
00000000
00000000
00000010
00001000
00000000
00001000
00000001
,  // measure 66
00000100
00000000
00000000
00000000
00001000
00010000
01000000
00010000
00001000
00000000
00000000
01000000
00100000
00000000
10000000
00000000
,  // measure 67
10010000
00000000
00000000
00000000
10000000
01000000
00100000
00000000
00110000
00000000
00000000
00010000
01000000
00000000
00100000
00000000
,  // measure 68
10100000
00000000
00000000
00000000
10000000
00100000
00010000
00000000
00100000
00010000
00001000
00000000
00010000
00001000
00000010
00000000
,  // measure 69
00000011
00000000
00000000
00000000
00000001
00001000
00000010
00000000
00000110
00000000
00000000
00000010
00000100
00000000
00010000
00000000
,  // measure 70
00001000
00000000
00000000
00000000
00100000
00010000
00001000
00010000
00100000
00000000
00000000
10000000
00010000
00000000
01000000
00000000
,  // measure 71
01100000
00000000
00000000
00000000
00001000
00010000
00000100
00000000
00001100
00000000
00000000
00001000
00000010
00000000
00000100
00000000
,  // measure 72
00000101
00000000
00000010
00000000
00001100
00000000
00001000
00000000
00000001
00000100
00000001
00000100
00000010
00010000
00001000
00010000
,  // measure 73
00000010
00000000
00000000
00000100
00001000
00010000
01000000
10000000
00010000
00000000
00000000
10000000
01000000
10000000
00010000
01000000
,  // measure 74
00010000
00000000
00000000
10000000
00100000
00010000
00001000
00000010
00000001
00000000
00000000
00001000
00000010
00000000
00000100
00000000
,  // measure 75
00000101
00000000
00000000
00000001
00001000
00000100
00001000
00000001
00000100
00000000
00000000
00000010
00000100
00000001
00000100
00000010
,  // measure 76
00001000
00000000
00000000
00000000
00000001
00000100
00001000
00000000
00000100
00001000
00010000
00000000
00001000
00010000
01000000
00000000
,  // measure 77
11000000
00000000
00000000
10000000
00100000
00010000
00001000
00000100
00000001
00000000
00000000
00001000
00000010
00001000
00000001
00000100
,  // measure 78
00000001
00000000
00000000
00001000
00000100
00000010
00001000
00010000
00100000
00000000
00000000
10000000
00100000
10000000
00010000
01000000
,  // measure 79
00010000
00000000
00000000
00000000
10000000
00010000
01000000
00000000
00110000
00000000
00000000
00000000
00001000
00010000
00000100
00000000
,  // measure 80
00001010
00000000
00000000
00000000
00000100
00000001
00000010
00001000
00010000
00100000
00010000
00001000
00000100
00000001
00000010
00000000
,  // measure 81
00000011
00000000
00000000
00000000
;

//---------------dance-double - ----------------
#NOTES:
     dance-double:
     :
     Hard:
     13:
     0.589930,0.747265,0.219655,0.166938,0.259193,470.000000,445.000000,25.000000,19.000000,0.000000,0.000000,0.589930,0.747265,0.219655,0.166938,0.259193,470.000000,445.000000,25.000000,19.000000,0.000000,0.000000:
00000000
00000000
00000000
00000000
,
00000000
00000000
00000000
00000000
,
00000000
00000000
00000000
00000000
,
00000000
00000000
00000000
00000000
,
10000000
01000000
10000000
00000000
00010000
00100000
00001000
00000000
,
00010000
00000100
00010000
00000000
00000100
00000010
00000001
00000000
,
00001001
00010010
00011000
00101000
,
20020000
00000000
00000000
00000000
00000000
00000000
30030000
10000000
,
00010000
00100000
00010000
01000000
00010000
10000000
01000000
00000000
,
00010000
00001000
00000000
00000100
00000001
00000000
00000011
00000000
,
00000010
00000100
00000010
00000001
00000010
00001000
00000010
00000001
,
00000100
00000000
00001000
00010000
01000000
00000000
10000000
10000000
,
00100000
01000000
00100000
00010000
00100000
10000000
01000000
00010000
,
00001000
00000010
00000000
00000001
00000100
00000000
00001010
00000000
,
00001000
00000010
00001000
00000100
00001000
00000010
00001000
00000001
,
00000010
00000010
00001000
00010000
00100000
00000000
10100000
00000000
,
10000000
01000000
00000000
00100000
00010000
01000000
00100000
10000000
,
00100000
00000000
00010000
00001000
00000010
00000000
00000011
00000000
,
00000001
00000100
00000010
00001000
00000100
00000001
00000100
00010000
,
00001000
00000000
00000000
00000000
01000000
00000000
00100000
00000000
01000000
00000000
00000000
00000000
01000000
00100000
01000000
00000000
,
00010000
00000000
10000000
01000000
00000000
00010000
00001000
00000010
,
00000001
00000000
00000000
00000100
00000010
00000000
00001001
00000000
,
00000101
00000000
00000100
00001000
00000000
00010000
01000000
00000000
,
10000000
00000000
00000000
00100000
00000000
00000000
01000000
00000000
00100000
00000000
00000000
00010000
00000000
00000000
00001000
00000000
,
00000010
00000000
00000001
00000000
00000000
00001000
00000000
00000000
00000001
00000000
00000000
00000100
00000000
00000000
00000001
00000000
,
00001000
00000000
00001000
00000000
00000000
00000010
00000000
00000000
00001000
00000000
00000000
00000001
00000000
00000000
00001000
00000000
,
00000010
00000000
00000100
00000000
00000000
00001000
00000000
00000000
00010000
00000000
00000000
01000000
00000000
00000000
10000000
00000000
,
00000000
00000000
00100000
00000000
00000000
01000000
00000000
00000000
00010000
00000000
00000000
10000000
00000000
00000000
00100000
00000000
,
10000000
00000000
00010000
00000000
00000000
01000000
00000000
00000000
00010000
00000000
00000000
10000000
00000000
00000000
00010000
00000000
,
10000000
00000000
10000000
00000000
00000000
00100000
00000000
00000000
10000000
00000000
00000000
00010000
00000000
00000000
10000000
00000000
,
01000000
00000000
00010000
00000000
00000000
00001000
00000000
00000000
00000010
00000000
00000000
00000001
00000000
00000000
00001000
00000000
,
00000010
00000000
00000100
00000000
00000000
00000001
00000000
00000000
00001000
00000000
00000000
00000010
00000000
00000000
00000100
00000000
,
00000001
00000000
00000010
00001000
00000000
00010000
00100000
00000000
,
10000000
00000000
00100000
00000000
00000000
01000000
00000000
00000000
00010000
00000000
00000000
01000000
00000000
00000000
00100000
00000000
,
10000000
00000000
01000000
00010000
00000000
00001000
00000100
00000000
,
00000001
00000000
00001000
00000000
00000000
00000100
00000000
00000000
00000010
00000000
00000000
00000100
00000000
00000000
00001000
00000000
,
00000001
00000000
00000010
00001000
00000000
00010000
00100000
00000000
,
10000000
00000000
01000000
00000000
00000000
00100000
00000000
00000000
00010000
00000000
00000000
00100000
00000000
00000000
01000000
00000000
,
10000000
00000000
01000000
00010000
00000000
00001000
00000100
00000000
,
00000002
00000000
00000000
00000000
00000000
00000000
00000000
00001003
,
00000001
00000000
00001000
00000000
00000010
00000100
00000000
00000010
00000100
00000000
00000001
00001000
00000000
00000001
00001000
00000000
,
00000010
00000000
00000100
00000000
00000001
00001000
00000000
00000001
00001000
00000000
00000010
00000100
00000000
00000010
00000100
00000000
,
00000001
00000000
00000010
00000000
00000000
00001000
00000000
00000000
00010000
00000000
00000000
00100000
00000000
00000000
00010000
00000000
,
00001000
00000000
00000100
00000000
00000000
00001000
00000000
00000000
00010000
00000000
00000000
00100000
00000000
00000000
10000000
00000000
,
00010000
00000000
01000000
00000000
00100000
10000000
00000000
00100000
10000000
00000000
00010000
01000000
00000000
00010000
01000000
00000000
,
00010000
00000000
10000000
00000000
00010000
01000000
00000000
00010000
01000000
00000000
00100000
10000000
00000000
00100000
10000000
00000000
,
01000000
00000000
00010000
00000000
00000000
00001000
00000000
00000000
00000010
00000000
00000000
00001000
00000000
00000000
00010000
00000000
,
01000000
00000000
10000000
00000000
00000000
01000000
00000000
00000000
00010000
00000000
00000000
00001000
00000000
00000000
00000010
00000000
,
00000002
00000000
00000203
00000000
,
00000310
00000000
00001000
00000000
00000100
00000000
00000000
00000000
00000011
00000000
00000000
00000001
00001000
00000000
00000001
00000000
,
00000100
00000000
00001000
00010000
01000000
00000000
10000000
00010000
,
10010000
00000000
10000000
01000000
00010000
01000000
10000000
00010000
,
20000000
00000000
30200000
00000000
,
01300000
00000000
00010000
00000000
00100000
00000000
00000000
00000000
01100000
00000000
00000000
01000000
10000000
00000000
01000000
00000000
,
10000000
00000000
00100000
00010000
00001000
00000000
00000010
00000001
,
00002000
00000000
00000000
00003001
,
00000100
00000000
00001000
00010000
01000000
00000000
10000000
00000000
,
01000000
00000000
00010000
00001000
00000100
00000000
00000001
00000000
,
00000100
00000000
00001000
00010000
01000000
00000000
10000000
00000000
,
01000000
00000000
00010000
00001000
00000100
00000000
00000001
00000000
,
00000011
00000000
00000100
00010000
00010100
00000000
00010000
00001000
,
00011000
00000000
00010000
00001000
01001000
00000000
01000000
00100000
,
10000000
01000000
10000000
00100000
00010000
00001000
00000010
00000001
,
00000020
00000000
00000000
00000000
,
00000030
00000000
00000000
00000000
00000001
00001000
00000001
00000100
,
00000101
00000000
00000000
00000001
00000100
00000000
00000010
00000000
00001000
00000000
00000000
00001000
00000100
00000000
00000000
00000010
,
00000001
00000000
00000100
00001000
00010000
00000000
01000000
10000000
,
01000000
00000000
00000000
00000000
10000000
00100000
10000000
00000000
00010000
00000000
00000000
00000000
01000000
00000000
00100000
00000000
,
10000000
00000000
01000000
00010000
01000000
00100000
01000000
10000000
,
11000000
00000000
00000000
10000000
00100000
00000000
01000000
00000000
00010000
00000000
00000000
00010000
00100000
00000000
00000000
01000000
,
10000000
00000000
00100000
00010000
00001000
00000000
00000010
00000001
,
00000010
00000000
00000000
00000000
00000001
00001000
00000001
00000000
00000010
00000000
00000000
00000000
00000100
00000000
00001000
00000000
,
00000002
00000203
00002300
00023000
,
00230000
00000000
20300000
00000000
,
30010000
01000000
00100000
00000000
10200000
00000000
00000000
00000000
,
00300000
00000000
10000000
01000000
00010000
00000000
00001000
00000010
,
00000001
00000000
00001000
00000010
00000100
00000001
00000010
00000100
,
00002000
00000000
00003020
00000000
,
00000130
00000001
00000010
00000000
00000120
00000000
00000000
00000030
,
00011000
00000000
00010000
00001000
00101000
00000000
00001000
00010000
,
00010010
00000000
00000100
00000001
00000010
00001000
00010000
00100000
,
10000000
00000000
00000000
00000000
;
