#TITLE:Dawn of Asia;
#SUBTITLE:;
#ARTIST:ginkiha+kamome sano;
#TITLETRANSLIT:;
#SUBTITLETRANSLIT:;
#ARTISTTRANSLIT:;
#GENRE:Drum'n'bass;
#CREDIT:;
#BANNER:dawnofasia-bn.png;
#BACKGROUND:dawnofasia-bg.png;
#LYRICSPATH:;
#CDTITLE:;
#MUSIC:Dawn Of Asia.mp3;
#OFFSET:-0.837000;
#SAMPLESTART:71.480003;
#SAMPLELENGTH:11.999990;
#SELECTABLE:YES;
#BPMS:0.000000=188.000000
;
#STOPS:220.000000=0.957000
;
#BGCHANGES:;
#KEYSOUNDS:;
#ATTACKS:;

//---------------dance-single - ----------------
#NOTES:
     dance-single:
     :
     Challenge:
     16:
     0.884959,1.142389,0.322907,0.110468,0.582082,729.000000,691.000000,38.000000,13.000000,0.000000,0.000000,0.884959,1.142389,0.322907,0.110468,0.582082,729.000000,691.000000,38.000000,13.000000,0.000000,0.000000:
// measure 0
0000
0000
0000
0000
,  // measure 1
0000
0000
0000
0000
,  // measure 2
0000
0000
0000
0000
,  // measure 3
0000
0000
0000
0000
0000
1000
0100
0020
,  // measure 4
0000
0000
0000
0000
0000
1030
0010
0002
,  // measure 5
0000
0103
0010
0002
0000
0013
1000
0010
,  // measure 6
1000
0100
1000
0100
0001
0100
0001
0100
,  // measure 7
1000
0100
0001
0100
1000
0100
0001
0100
,  // measure 8
1100
0000
0000
0000
0010
0000
0100
0000
0001
0010
0001
0000
0100
0000
0010
0000
,  // measure 9
0000
0000
0100
0000
0010
0000
1000
0100
1000
0000
0010
0000
0100
0000
0000
0000
,  // measure 10
0001
0000
0000
0000
1000
0000
0100
0000
0010
0001
0010
0000
0100
0000
1000
0000
,  // measure 11
0000
0000
0001
0000
0010
0000
0100
0000
1000
0100
1000
0000
0100
0000
0010
0000
,  // measure 12
0001
0000
0000
0000
0001
0000
0010
0000
0100
0010
0100
0000
0010
0000
0001
0000
,  // measure 13
0000
0000
1000
0001
0100
0010
1000
0010
,  // measure 14
1010
0000
0000
0000
1000
0000
0010
0100
0001
0100
0001
0000
0000
0000
1001
0000
,  // measure 15
0000
0000
1000
0000
0001
0000
0010
0100
1000
0100
1000
0000
0001
0000
0000
0000
,  // measure 16
0101
0000
0000
0000
0100
0000
0010
0000
1000
0010
0000
1000
0010
0000
1000
0000
,  // measure 17
0000
0000
0100
0000
0010
0000
0001
0010
0000
0100
0010
0000
0001
1000
0001
1000
,  // measure 18
0001
0000
1000
0100
0010
0001
0100
1000
,  // measure 19
0100
0001
0010
1000
0010
0001
0100
0010
,  // measure 20
1000
0100
0010
0001
0100
0010
0100
0001
,  // measure 21
1000
0001
0010
0001
1000
0010
0100
0010
0100
0001
0010
0001
1000
0010
0100
0010
,  // measure 22
1000
0100
0001
0100
0000
1100
0000
1001
,  // measure 23
0001
0100
1000
1000
0100
0001
1000
0010
,  // measure 24
0110
0000
0000
0000
0100
0000
0001
0000
0100
0000
0000
0010
0000
0000
0100
0000
,  // measure 25
0000
0000
0001
0000
0010
0000
0100
0000
0001
0000
0100
0000
1000
0010
1000
0010
,  // measure 26
1000
0001
0100
1000
0100
0001
0010
1000
,  // measure 27
0010
0001
0100
0010
1000
0100
0010
0001
,  // measure 28
1000
0010
0100
0001
0010
0100
1000
0010
,  // measure 29
1000
0100
0010
0100
1000
0001
0010
0001
1000
0100
0010
0100
1000
0001
0010
0001
,  // measure 30
0200
0000
0000
0310
1000
0001
0010
0110
,  // measure 31
0000
0000
1100
0000
0100
0000
1000
0000
0100
0000
0010
0000
0001
0000
0010
0001
,  // measure 32
1000
0000
0010
0000
0100
0000
0002
0000
1000
0000
0000
1000
0000
0000
1003
0000
,  // measure 33
0000
0000
0000
0000
0000
0000
0010
0000
0100
0000
0010
0000
1000
0001
0100
0000
,  // measure 34
0110
0000
0000
0100
0010
0100
0001
1001
,  // measure 35
0000
0000
0000
1000
0100
0001
0100
1000
,  // measure 36
0001
0000
0001
0100
0010
0000
0100
0000
0010
0000
0010
0000
0100
0000
0100
0000
,  // measure 37
0000
0000
0010
0000
1000
0000
0100
0000
0010
0001
0100
0000
0010
0000
1000
0000
,  // measure 38
1010
0000
0000
0001
0010
0100
1000
1001
,  // measure 39
0000
0000
1100
0000
0100
0000
1000
0000
0000
0000
0100
0000
1000
0000
0010
0100
,  // measure 40
0001
0010
0001
0021
0000
0130
0010
0012
,  // measure 41
0000
0000
0000
0000
0003
0000
1001
0000
0001
0000
1000
0000
0010
0000
0100
0001
,  // measure 42
1000
0001
0100
0000
0010
0000
1000
0000
0100
0000
0010
0000
0001
0000
0201
0000
,  // measure 43
0000
0000
0000
0310
1000
0100
0001
0100
,  // measure 44
1000
0010
1000
0010
1000
0000
0000
0001
0000
0100
0000
0000
0000
0001
0000
0000
,  // measure 45
0000
1000
0010
0000
0100
0000
0001
0000
0010
0001
0010
0001
0010
0000
0100
0000
,  // measure 46
2200
0000
0000
3300
,  // measure 47
0010
0000
0000
0000
0000
0000
0100
0000
0000
0001
0000
0000
0100
0000
0000
0001
0000
0000
0100
0000
0000
0000
0000
0000
0010
0000
0000
0000
0000
0000
0000
0000
1000
0000
0000
0000
0000
0000
0000
0000
0001
0000
0000
0000
0000
0000
0000
0000
,  // measure 48
0020
0000
0000
0000
0000
0000
0000
0000
0000
0000
0000
0000
0000
0000
0000
0000
0000
0000
0000
0000
0000
0000
0000
0000
0000
0000
0000
0000
0000
0000
0000
0000
0000
0000
0000
0000
0000
0000
0000
0030
0100
0000
0000
0000
0000
0000
0000
0000
,  // measure 49
1000
0000
0001
0000
0100
0000
0010
0000
0100
0000
0001
0000
,  // measure 50
1000
0000
0000
0000
0100
0010
0001
0000
0000
0000
0010
0100
,  // measure 51
1000
0000
0000
0000
0000
0000
0000
0000
0100
0000
0010
0000
,  // measure 52
0001
0000
0000
0000
0000
0000
0000
0000
0000
0000
0000
0000
0100
0010
2000
0000
,  // measure 53
0000
0000
0000
0000
,  // measure 54
0000
0000
0000
0000
,  // measure 55
3000
0000
0000
0000
0101
0000
0001
0100
0001
0000
1000
0000
0010
0000
0001
0000
,  // measure 56
0010
0000
0001
0000
0010
0000
1000
0100
0001
0000
0100
0000
1000
0000
0010
0000
,  // measure 57
1000
0000
0010
0000
0100
0000
1000
0100
0001
0000
0010
0000
0100
0000
0001
0000
,  // measure 58
0100
0000
0001
0000
0100
0000
1000
0010
0001
0000
0010
0000
1000
0100
0010
0001
,  // measure 59
0010
0100
1000
0000
1010
0000
0010
1000
0010
0000
1000
0000
0100
0000
0001
0000
,  // measure 60
0100
0000
0001
0000
0100
0000
1000
0010
0001
0000
0010
0000
0100
0000
0001
0000
,  // measure 61
0100
0000
0001
0000
1000
0010
1000
0010
0100
0001
0100
0001
1000
0000
0010
0000
,  // measure 62
1000
0000
0010
0000
0100
0000
0100
0001
0010
0000
0010
0100
1000
0001
0100
0010
,  // measure 63
0100
0001
1000
0000
1001
0000
1000
0100
0010
0000
0110
0000
1000
0000
0100
0000
,  // measure 64
0010
0000
0011
0000
0010
0000
0001
0100
0010
0000
0110
0000
1000
0000
0100
0000
,  // measure 65
1000
0000
0100
0000
1100
0000
1000
0100
0010
0000
0011
0000
0001
0000
0100
0000
,  // measure 66
0010
0000
1010
0000
1000
0000
0001
0010
1000
0000
1001
0000
0100
0000
0010
1000
,  // measure 67
0100
1000
0010
0000
0100
0000
0100
0001
0100
0000
0000
0000
0000
0000
0110
0000
,  // measure 68
0000
0000
1001
0000
0000
0000
1000
0100
0010
0000
0001
0000
1000
0000
0001
0000
,  // measure 69
1000
0000
0001
0000
0100
1000
0100
0001
0100
1000
0100
0000
0010
0001
0010
1000
,  // measure 70
0010
0000
0001
0100
1000
0100
0001
0100
1000
0100
0001
0000
0001
0010
1000
0010
,  // measure 71
0001
0010
1000
0010
0001
0000
0100
0010
1000
0000
0001
0000
1000
0000
0100
0000
,  // measure 72
0010
0000
0101
0000
0000
0000
0010
1000
0010
0000
1000
0000
0100
0000
0001
0000
,  // measure 73
0100
0000
1000
0000
1010
0000
0010
0100
0001
0000
1000
0000
0010
0000
0001
0000
,  // measure 74
0010
0000
1010
0000
0000
0000
0001
0100
1000
0000
0100
0000
0001
0000
0010
0000
,  // measure 75
0001
1000
0001
1000
0001
0000
1000
0100
0010
0000
0001
0000
0100
0000
0010
0000
,  // measure 76
1000
0000
1010
0000
0000
0000
1000
0001
1000
0000
0010
0000
0100
0000
0010
0000
,  // measure 77
0001
0000
0010
0000
1000
0100
1000
0100
0010
0001
0010
0001
0100
0000
0010
0000
,  // measure 78
1000
0000
0010
1000
0010
1000
0001
0100
0001
0100
0001
0000
1000
0001
0100
0010
,  // measure 79
1000
0000
0001
1000
0001
0000
0010
0001
0010
0000
0001
0000
0100
0000
1000
0000
,  // measure 80
0100
0000
0101
0000
0000
0000
1000
0010
1000
0000
0001
0000
0100
0000
0001
0000
,  // measure 81
0100
0000
0001
0000
1000
0000
0010
0100
0001
0000
1000
0000
0010
0000
0100
0000
,  // measure 82
1000
0000
0100
0000
0010
0000
0100
0001
0010
0000
0100
0000
1000
0000
0010
0000
,  // measure 83
0100
0000
0001
0000
0010
0000
0010
0100
0010
0000
0000
0000
0000
0000
1100
0000
,  // measure 84
0000
0000
0110
0000
0010
0001
0010
0001
0010
0001
0010
0001
0010
0001
0010
0001
,  // measure 85
0010
0001
0010
0001
0010
0000
0001
0000
0100
0000
0001
0000
0010
0000
0001
0000
,  // measure 86
0100
0001
0010
0100
1000
0100
0010
0100
,  // measure 87
1000
0100
0010
0001
1000
0001
0100
0001
,  // measure 88
1000
0001
0100
0010
1000
0010
0100
0010
,  // measure 89
1000
0020
0000
0000
0000
0030
0000
0000
;

//---------------dance-single - ----------------
#NOTES:
     dance-single:
     :
     Hard:
     14:
     0.710152,0.987309,0.186946,0.220936,0.212439,585.000000,563.000000,22.000000,26.000000,0.000000,0.000000,0.710152,0.987309,0.186946,0.220936,0.212439,585.000000,563.000000,22.000000,26.000000,0.000000,0.000000:
0000
0000
0000
0000
,
0000
0000
0000
0000
,
0000
0000
0000
0000
,
0000
0000
0000
0000
0000
0010
1000
0200
,
0000
0000
0000
0000
0300
1000
0010
0200
,
0000
0301
0010
0200
0000
1300
0001
0010
,
0001
0100
0010
1000
0100
0010
0001
0100
,
0010
1000
0100
0010
0001
1000
0001
0010
,
2200
0000
0000
0000
3300
1000
0010
0200
,
0000
0000
0000
0000
0000
0301
1000
0020
,
0000
1030
0001
0020
0000
0031
0010
0200
,
0000
0000
0000
0000
0000
1300
0001
0020
,
0000
0000
0000
0000
0000
0031
1000
0200
,
0000
0000
0000
0310
0100
1000
0100
0010
,
0011
0000
0001
0100
0010
1000
0000
1010
,
0000
0100
0001
0010
0001
0100
0010
1000
,
1001
0000
0000
0000
0001
0000
0010
0000
0100
0000
0000
1000
0000
0000
0011
0000
,
0000
0000
0100
0000
0001
0000
1000
0010
0000
0010
1000
0000
0001
0010
0001
0000
,
0011
0000
0001
0100
0010
1000
0010
0100
,
0001
0010
0100
1000
0001
0100
0001
0100
,
0001
0010
0100
1000
0100
0010
0001
0010
,
0001
0100
0001
0100
0010
1000
0010
1000
,
1010
0000
1000
0010
0100
0001
0000
0101
,
0000
0001
0010
0001
0100
0010
1000
0100
,
1100
0000
0000
0000
0010
0000
0100
0000
1000
0000
0000
0010
0000
0000
1100
0000
,
0000
0000
0010
0000
0100
0000
0001
0010
0000
0010
0001
0000
0100
0010
0100
0000
,
0110
0000
0010
0100
1000
0001
0010
0001
,
1000
0010
0100
0001
0010
0001
0010
0001
,
1000
0010
0100
0001
0100
0010
1000
0001
,
1000
0100
1000
0100
0010
0001
0010
0001
,
0011
0000
0000
0001
0100
1000
0100
0002
,
0000
0000
0003
0000
0000
0000
0000
0000
0000
0000
0010
0000
0100
0000
1000
0001
,
1000
0000
0010
0000
0100
0000
0001
0000
0010
0000
0000
0010
0000
0000
0011
0000
,
0000
0000
0000
0000
0000
0000
0001
0000
0100
0000
0010
0000
1000
0010
1000
0010
,
1000
0000
0000
1000
0010
0100
0001
0010
,
0000
0000
0000
0001
0100
0010
1000
0100
,
0010
0000
0010
0100
1000
0000
0010
0000
0100
0000
0001
0000
0100
0000
0001
0000
,
0000
0000
0001
0000
0010
0000
0001
0000
0100
0010
0100
0000
0010
0000
1000
0000
,
1010
0000
0000
1000
0100
0001
0100
2000
,
0000
0000
3000
0000
0000
0000
0000
0000
0000
0000
0100
0000
0010
0000
0001
1000
,
0001
0100
0010
2000
0000
3010
0100
0002
,
0000
0000
0003
0000
0000
0000
1000
0000
0010
0000
0100
0000
0001
0000
0010
0001
,
0010
0001
0010
0000
0001
0000
0001
0000
0100
0000
0010
0000
1000
0000
0200
0000
,
0000
0300
0000
1000
0010
0100
0001
0010
,
0100
0000
0010
0000
0001
0000
0100
0000
0010
0000
1000
0000
0000
0010
0000
0000
,
0000
0010
1000
0000
0100
0000
1000
0000
0010
0100
0010
0000
0100
0000
0001
0000
,
0202
0000
0000
0303
,
0001
0000
0000
0010
0000
0000
0100
0000
0000
1000
0000
0000
0010
0000
0000
0000
0100
0000
0000
0000
0001
0000
0000
0000
,
2000
0000
0000
0000
0000
0000
0000
0000
0000
3000
0010
0000
,
0100
0000
0001
0000
1000
0000
0010
0000
0100
0000
0001
0000
,
2000
0000
0000
3000
0010
0100
0002
0000
0000
0003
0010
0100
,
2000
0000
0000
0000
0000
0000
3000
0000
0010
0000
0100
0000
,
0002
0000
0000
0000
0000
0000
0000
2000
,
0000
0000
0000
0000
,
0000
0000
0000
0000
,
3003
0000
1001
1000
0010
0100
0001
0010
,
0001
0010
0000
0010
0001
0100
0010
1000
,
0010
0000
1000
0000
0100
0000
0010
0000
0001
0000
0100
0000
0010
0000
0000
1000
,
0000
0010
0000
0100
0001
0100
0010
1000
,
0100
0010
0001
1000
0001
0100
0010
0100
,
0010
0100
0000
0100
0001
1000
0010
1000
,
0010
1000
0100
0100
0010
0001
0100
0001
,
0010
0001
0100
0010
1000
0001
0010
0100
,
1000
0010
0100
0001
0001
0010
0100
1000
,
0100
0010
0000
0010
0001
1000
0010
0100
,
0010
0000
0100
0000
0001
0000
1000
0000
0010
0000
1000
0000
0001
0000
0000
0010
,
0000
0001
0000
0100
0010
0100
0010
1000
,
0010
1000
0100
0100
0010
0000
0000
0011
,
0000
1001
0000
1000
0100
0010
0001
0100
,
0001
0100
0001
0010
0001
1000
0100
1000
,
0010
1000
0010
0100
0001
0100
0010
1000
,
0001
0010
0100
0010
0100
0010
0001
0100
,
0010
1000
0000
1000
0010
1000
0100
0010
,
0100
0000
0010
0000
0001
0000
1000
0000
0001
0000
0100
0000
0010
0000
0000
0100
,
0000
0010
0000
0100
0001
0100
0010
1000
,
0010
1000
0100
0010
0001
0100
0010
1000
,
0000
1010
0000
1000
0001
1000
0001
0010
,
0100
0000
1000
0000
0010
0000
0100
0000
0010
0000
0100
0000
0001
0000
0000
0010
,
0000
0100
1000
0100
0010
0001
0010
0100
,
1000
0000
0010
0000
0100
0000
0001
0100
0001
0000
1000
0000
0010
0000
1000
0000
,
0010
0000
0100
0000
0000
0000
0100
0010
0100
0000
0010
0000
1000
0000
0001
0000
,
1000
0000
0001
0000
0100
0000
0010
1000
0010
0000
1000
0000
0100
0000
0000
0010
,
0000
0000
0001
0000
0000
0000
1000
0001
1000
0000
0001
0000
0100
0000
0010
0000
,
1000
0010
0100
0001
0011
0000
0000
1100
,
0000
0000
1010
0000
0100
0001
0100
0001
0100
0001
0100
0001
0100
0001
0100
0001
,
0100
0001
0100
0001
1000
0000
0010
0000
0100
0000
0010
0000
1000
0000
0010
0000
,
0100
0010
0100
0001
0010
0001
0100
0001
,
0010
0001
0010
0100
1000
0100
0010
0100
,
1000
0100
0010
0001
1000
0010
0100
0001
,
0020
0200
0000
0330
0000
0000
0000
0000
;

//---------------dance-single - ----------------
#NOTES:
     dance-single:
     :
     Medium:
     12:
     0.537773,0.571195,0.212439,0.229434,0.080727,443.000000,418.000000,25.000000,27.000000,0.000000,0.000000,0.537773,0.571195,0.212439,0.229434,0.080727,443.000000,418.000000,25.000000,27.000000,0.000000,0.000000:
0000
0000
0000
0000
,
0000
0000
0000
0000
,
0000
0000
0000
0000
,
0000
0000
0000
0000
0000
0010
0100
0020
,
0000
0000
0000
0000
0000
1030
0010
2000
,
0000
3001
0010
0002
0000
0103
0001
0100
,
0010
0000
1000
0000
0001
1000
0010
0100
,
0010
0000
1000
0010
0100
0001
0010
0100
,
2200
0000
0000
3300
0000
1000
0100
0020
,
0000
0000
0000
0000
0000
0031
0010
0002
,
0000
1003
0010
2000
0000
3100
0010
0002
,
0000
0000
0000
0003
0000
0001
0100
0020
,
0000
0000
0000
0030
0000
0010
1000
0020
,
0000
0000
0000
1030
0100
0010
0001
0100
,
0101
0000
0001
1000
0001
0100
0000
0101
,
0000
0010
1000
0000
0000
0010
0100
0000
,
1010
0000
0000
0000
0100
0000
0010
0000
0100
0000
0000
0100
0000
0000
0100
0000
,
0000
0001
0010
0000
0000
0001
1000
0001
,
1000
0010
0010
0010
,
0100
0001
0100
0001
0010
0001
0010
0000
,
0001
0000
0010
0000
0001
0000
0010
0000
0001
0000
0000
0001
0000
0000
0002
0000
,
0200
0000
0000
0303
,
1010
0000
0000
1000
0000
0100
0000
0010
,
0000
0001
0100
0000
0000
0001
1000
0000
,
1001
0000
0000
0000
1000
0000
0010
0000
1000
0000
0000
1000
0000
0000
1000
0000
,
0000
0001
0010
0001
0000
1000
0100
1000
,
0001
0010
0010
0010
,
0010
1000
0010
1000
0100
1000
0100
0000
,
1000
0000
0100
0000
1000
0000
0100
0000
1000
0000
0000
1000
0000
0000
2000
0000
,
0020
0000
0000
3030
,
1001
0000
0000
1000
0010
1000
0001
0010
,
0000
0000
0000
0000
0000
0010
0001
1000
,
0001
0100
0001
0100
0000
0000
0000
0000
,
0000
0000
0000
0010
1000
0010
0100
0010
,
0000
0000
0000
0100
1000
0100
0010
0100
,
0000
0000
0000
0001
0010
0001
1000
0001
,
1000
0010
0000
0010
0100
0000
0100
0001
,
0000
0001
0010
0001
0010
0000
1100
0000
,
1001
0000
0000
0001
0010
0001
1000
0010
,
0000
0000
0000
0000
0000
0010
1000
0001
,
1000
0100
1000
0010
0000
0010
0100
0010
,
0000
0000
0000
0100
0001
0100
0010
0100
,
0000
0000
0000
0010
0001
0010
0100
0010
,
0000
0000
0000
1000
0100
1000
0002
2000
,
0000
0000
0000
3003
,
0000
0000
0000
0000
0010
0100
0001
1000
,
1001
0000
0000
0000
,
1000
0000
0000
0100
0000
0000
0010
0000
0000
0001
0000
0000
0100
0000
0000
0000
0010
0000
0000
0000
0100
0000
0000
0000
,
0020
0000
0000
0000
0000
0000
0030
0000
0000
0000
1000
0000
,
0100
0000
0010
0000
0001
0000
1000
0000
0100
0000
0010
0000
,
0002
0000
0000
0003
0100
0001
0200
0000
0000
0300
0010
1000
,
0020
0000
0000
0030
0000
0000
0000
0000
1000
0000
0001
0000
,
0200
0000
0000
0000
0000
0000
0000
0020
,
0000
0000
0000
0000
,
0000
0000
0000
0000
,
0330
0000
1000
0000
0100
1000
0100
0010
,
0000
0001
0000
0001
1000
0000
0010
0000
,
0010
0000
0100
0001
0100
0010
1000
0000
,
1000
0000
0001
0100
0010
0100
0001
0000
,
0011
0000
0001
0010
0001
1000
0000
0010
,
0000
0010
0000
1000
0100
0000
0010
0100
,
1000
0100
0020
0000
0000
0031
1000
0001
,
0000
0011
0000
0010
0100
1000
0100
0010
,
0001
0000
1000
0100
1000
0100
0000
0010
,
0000
0001
0000
0100
0001
0100
0010
0000
,
0010
0000
0100
0001
1000
0010
0100
0000
,
0100
0000
0010
1000
0010
0000
0010
0100
,
0001
0000
0001
0010
0100
1000
0000
1010
,
0000
1010
0000
0010
0100
0000
0001
0100
,
1000
0100
0001
0010
0000
1000
0010
0000
,
0001
0010
0000
1000
0010
0001
0100
0010
,
1000
0001
1000
0100
0010
0001
0000
0101
,
0000
0010
0000
1000
0001
0000
0010
0100
,
0010
0000
0100
0000
0000
0000
1000
0000
0001
0000
0000
0000
0100
0000
0000
0100
,
0000
0100
0000
0010
0001
0010
0000
1000
,
0000
0001
0010
0100
1000
0100
0000
0011
,
0000
1100
0000
1000
0010
0100
0001
0000
,
0001
0000
0100
0010
0010
1000
0001
0000
,
0001
0000
0100
0001
0100
0000
0001
0010
,
0001
0000
1000
0010
1000
0010
0000
1100
,
0000
1010
0000
0010
0100
0001
0010
0000
,
0010
0000
0000
0000
0001
0000
0100
0000
0001
0000
1000
0000
0010
0000
0000
0010
,
0000
0010
0000
1000
0001
1000
0010
0000
,
0110
0000
0001
0010
0100
0000
0000
1100
,
0000
2200
0000
0000
0000
0000
0000
0000
,
3300
0000
1000
0100
0010
0000
0010
0000
,
0011
0000
0001
0100
0010
0000
0010
0000
,
1010
0000
1000
0100
0010
0000
0010
0000
,
0011
0000
0001
1000
0001
0010
0001
0100
,
0010
2000
0000
0000
0000
3000
0000
0000
;

//---------------dance-single - ----------------
#NOTES:
     dance-single:
     :
     Easy:
     9:
     0.410310,0.533858,0.118966,0.280419,0.025493,338.000000,324.000000,14.000000,33.000000,0.000000,0.000000,0.410310,0.533858,0.118966,0.280419,0.025493,338.000000,324.000000,14.000000,33.000000,0.000000,0.000000:
0000
0000
0000
0000
,
0000
0000
0000
0000
,
0000
0000
0000
0000
,
0000
0000
0000
0000
0000
0001
0010
0002
,
0000
0000
0000
0003
0000
0100
0010
0200
,
0000
0310
1000
0020
0000
1030
0100
1000
,
0100
0010
0001
0010
,
0100
0000
1000
0000
0001
0000
1000
0001
,
0200
0000
0000
0000
0300
0010
1000
0002
,
0000
0000
0000
0000
0000
0013
0100
2000
,
0000
3010
0100
0020
0000
0130
0001
0020
,
0000
0000
0000
0000
0000
0031
1000
0200
,
0000
0000
0000
0000
0000
1300
0001
2000
,
0000
0000
0000
3001
0010
0100
0010
0001
,
0011
0000
0010
0100
1000
0100
0000
0100
,
0000
0010
0001
0000
0000
0010
0001
0000
,
2000
0000
0000
0000
0000
0000
0000
0000
3001
0000
0000
0001
0000
0000
0001
0000
,
0000
0001
0100
0000
0000
0001
0100
0000
,
0010
0010
0010
0010
,
1000
0010
0001
0010
,
1000
0000
0000
0000
0001
0000
0000
2000
,
0200
0000
0000
3300
,
0110
0000
0100
0010
0001
0010
0000
0010
,
0000
0100
1000
0000
0000
0100
1000
0000
,
0002
0000
0000
0000
0000
0000
0000
0000
1003
0000
0000
1000
0000
0000
1000
0000
,
0000
1000
0010
0000
0000
1000
0010
0000
,
0100
0100
0100
0100
,
0001
0100
1000
0100
,
0001
0000
0000
0000
1000
0000
0000
0020
,
0200
0000
0000
0330
,
0110
0000
0000
0001
0010
0001
0100
0001
,
0000
0000
0000
0000
0000
1000
0010
1000
,
0010
0010
0000
0000
,
0000
0000
0000
0100
0001
0100
0010
0100
,
0000
0000
0000
0010
0100
0010
1000
0010
,
0000
0000
0000
1000
0001
0000
0001
0000
,
1000
0000
0000
0100
0010
0000
0000
0001
,
0000
0100
0010
0100
,
0110
0000
0000
1000
0100
1000
0010
1000
,
0000
0000
0000
0000
0000
0001
0100
0001
,
0100
0000
0100
0000
0000
0110
0000
0000
,
0000
0000
0000
0010
1000
0010
0100
0010
,
0000
0000
0000
0010
1000
0001
1000
0010
,
0000
0000
0000
1000
0001
1000
0001
0000
,
2002
0000
0000
3003
,
0000
1000
0100
0010
,
0001
0000
0000
0000
,
0200
0000
0000
0300
,
0110
0000
0000
0000
,
0000
0000
0000
0000
,
1001
0000
0001
0000
,
0100
0000
0000
0000
,
0020
0000
0000
0000
0000
0000
0000
2000
,
0000
0000
0000
0000
,
0000
0000
0000
0000
,
3030
0000
0001
0000
0000
1000
0100
0010
,
0000
0110
0000
0100
1000
0000
0010
0000
,
0010
0000
0000
0000
0200
0000
0000
0000
0000
0000
0000
0000
0301
0000
0000
0001
,
0000
0001
0000
0010
0100
0000
1000
0000
,
1000
0000
0001
0010
0100
0000
0010
0001
,
0000
1001
0000
0001
0010
0000
0100
0000
,
0100
0020
0000
0031
,
1000
0020
0030
0020
,
0030
0000
1000
0100
0010
0000
0001
0000
,
0000
0000
0001
0010
0100
0000
1000
0001
,
1000
0000
0000
0000
0020
0000
0000
0000
0000
0000
0000
0000
1030
0000
0000
1000
,
0000
1000
0000
1000
0010
0000
0100
0000
,
0001
0000
0010
0001
0010
0000
0000
0110
,
0000
1100
0000
1000
0001
0000
0100
0000
,
0100
0000
0001
0010
0000
0001
0010
0000
,
0001
0010
0000
0001
0010
0000
0100
0000
,
1000
0000
0010
0000
0010
0000
0100
0001
,
0000
0101
0000
0010
1000
0000
0001
0000
,
0001
0000
0000
0000
0020
0000
0000
0000
0000
0000
0000
0000
0130
0000
0000
0100
,
0000
0100
0000
0000
1000
0000
0001
0000
,
1000
0000
0010
0100
0001
0000
0010
0000
,
0010
0000
0100
1000
0001
0000
1000
0000
,
1000
0000
0001
0010
0001
0000
1000
0000
,
0100
0020
0000
0130
,
1000
0000
0010
1000
0010
0000
0100
0000
,
0001
0000
0010
0001
0010
0000
0100
0000
,
1000
0000
0000
0000
0002
0000
0000
0000
0000
0000
0000
0000
1003
0000
0000
1000
,
0000
1000
0000
0010
0100
0000
0010
0000
,
0100
0000
0001
0000
1000
0000
0000
1000
,
0000
0001
2002
0000
0000
0000
0000
0000
,
3003
0000
1000
0000
0100
0000
1000
0100
,
0010
0001
0010
0000
0001
0000
0001
0010
,
0100
1000
0100
0000
1000
0000
1000
0010
,
0100
0001
0100
0000
0001
0000
0001
1000
,
0020
0200
0000
0000
0000
0000
0330
0000
;

//---------------dance-single - ----------------
#NOTES:
     dance-single:
     :
     Beginner:
     3:
     0.148100,0.228159,0.042488,0.042488,0.000000,122.000000,117.000000,5.000000,5.000000,0.000000,0.000000,0.148100,0.228159,0.042488,0.042488,0.000000,122.000000,117.000000,5.000000,5.000000,0.000000,0.000000:
0000
0000
0000
0000
,
0000
0000
0000
0000
,
0000
0000
0000
0000
,
0000
0000
0000
0000
,
0001
0000
0000
0100
,
0000
0100
0000
0000
,
0020
0000
0000
0000
,
0000
0000
0030
0000
,
1000
0000
0000
0100
,
0000
0000
0000
0010
,
0000
0001
0000
0001
,
0000
0000
0000
0100
,
0000
0000
0000
0010
,
0000
0000
0010
0000
,
0110
0000
0000
0000
,
0000
1000
0000
1000
,
1000
0000
0010
0000
,
0000
0100
0000
0100
,
0100
0000
0000
0000
,
0001
0001
0001
0000
,
1000
0000
0001
0000
,
1000
0000
0000
0000
,
1001
0000
0000
0000
,
0000
0001
0000
0001
,
0001
0000
0100
0000
,
0000
0010
0000
0010
,
0010
0000
0000
0000
,
1000
1000
1000
0000
,
0001
0000
1000
0000
,
0001
0000
0000
0000
,
0110
0000
0100
0000
,
0000
0000
0000
0010
,
0010
0000
0000
0000
,
0000
0000
1000
1000
,
0000
0000
0001
0001
,
0000
0000
0010
0010
,
0010
0000
0000
0000
,
0000
0100
0000
0000
,
0110
0000
0010
0000
,
0000
0000
0000
1000
,
1000
0000
0000
0010
,
0000
0000
0100
0100
,
0100
0000
0001
0001
,
0000
0000
0010
0000
,
0010
0000
0000
0000
,
0000
0000
0000
0000
,
1001
0000
0000
0000
,
0000
0000
0000
0000
,
0002
0000
0003
0000
,
0000
0000
0000
0000
,
1000
0000
0001
0000
,
1000
0000
0000
0000
,
0020
0000
0000
0000
,
0000
0000
0000
0000
,
0000
0000
0000
0030
,
0000
0010
0000
0000
,
0000
0000
1000
0000
,
0000
0100
0000
0000
,
0000
0010
0000
0000
,
0000
0001
0000
0000
,
0000
0000
0100
0000
,
0000
0010
0000
0000
,
0000
1000
0000
1000
,
0000
0001
0000
0001
,
0000
0010
0000
0010
,
0000
0100
0000
0100
,
0000
0010
0000
0010
,
0000
0001
0000
0000
,
0000
0000
1000
0000
,
0000
0100
0000
0100
,
0000
0100
0000
0000
,
0000
0010
0000
0000
,
0000
0000
0100
0000
,
0000
1000
0000
0000
,
0000
0000
0001
0000
,
0000
0010
0000
0000
,
0000
0000
0001
0000
,
0000
1000
0000
1000
,
0000
0100
0000
0100
,
0000
0010
0000
0010
,
0000
0001
0000
0001
,
0000
0100
0000
0100
,
0000
0010
0000
0010
,
0000
1000
0000
0000
,
0000
0002
0000
0000
,
0003
0001
0000
0000
,
0000
0100
0000
0000
,
0000
0010
0000
0000
,
0000
1000
0000
0000
,
0002
0000
0003
0000
;

//---------------dance-double - ----------------
#NOTES:
     dance-double:
     :
     Easy:
     10:
     0.500141,0.605875,0.135961,0.220936,0.029741,412.000000,396.000000,16.000000,26.000000,0.000000,0.000000,0.500141,0.605875,0.135961,0.220936,0.029741,412.000000,396.000000,16.000000,26.000000,0.000000,0.000000:
00000000
00000000
00000000
00000000
,
00000000
00000000
00000000
00000000
,
00000000
00000000
00000000
00000000
,
00000000
00000000
00000000
00000000
00000000
00010000
01000000
00200000
,
00000000
00000000
00000000
00000000
00000000
10300000
00010000
00200000
,
00000000
00301000
00010000
00000020
00000000
00000130
00000001
00001000
,
00000010
00000100
00001000
00010000
,
01000000
10000000
01000000
00000000
10000000
00010000
10000000
00100000
,
02000000
00000000
00000000
00000000
00000000
03010000
10000000
00200000
,
00000000
00000000
00000000
00000000
00000000
01300000
00001000
00020000
,
00000000
00031000
00010000
00000200
00000000
00000310
00000001
00002000
,
00000000
00000000
00000000
00000000
00000000
00003100
00000010
00000200
,
00000000
00000000
00000000
00000000
00000000
00010300
00001000
00020000
,
00000000
00000000
00000000
00031000
01000000
00100000
10000000
00100000
,
02000000
00000000
03000000
00000000
00000000
00010000
00000000
11000000
,
00000000
10000000
00010000
00000000
00000000
10000000
00010000
00000000
,
01000000
00000000
00001000
00010000
00000200
00000000
00000300
00001100
,
00000000
00001000
00000010
00000000
00000000
00001000
00000010
00000000
,
00000200
00000000
00000300
00000001
00001000
00000000
00000010
00000000
,
00000100
00001000
00010000
01000000
,
10000000
01000000
10000000
00000000
01000000
00100000
00010000
02000000
,
00200000
00000000
00000000
03300000
,
10010000
00000000
00000000
00000000
00000000
01000000
00000000
00110000
,
00000000
00010000
01000000
00000000
00000000
00010000
01000000
00000000
,
00001000
00000000
00010000
00000010
00000200
00000000
00000300
00000101
,
00000000
00000001
00000010
00000000
00000000
00000001
00000010
00000000
,
00001000
00010000
00100000
10000000
,
01000000
00010000
00001000
00000100
,
00000001
00000010
00000001
00000000
00001000
00000100
00000010
00000002
,
00002000
00000000
00000000
00003003
,
00001001
00000000
00000000
00000100
00000010
00000100
00000010
00000200
,
00000000
00000000
00000000
00000000
00000000
00000310
00010000
00000000
,
00001000
00010000
00001000
00010000
00002000
00000000
00000000
00003000
,
00000000
00000000
00000000
01000000
00100000
01000000
00100000
01000000
,
00000000
00000000
00000000
00010000
00100000
00010000
00100000
00010000
,
00000000
00000000
00000000
10000000
00100000
10000000
00100000
10000000
,
00020000
00000000
00030000
20000000
00000000
30000000
00000000
10010000
,
00000000
01000000
00100000
00000000
00001000
00000000
00010000
00000000
,
00011000
00000000
00000000
01000000
00100000
01000000
00100000
01000000
,
00000000
00000000
00000000
00000000
00000000
00010000
00100000
00000000
,
00001000
00010000
00000100
00000020
00000000
00000031
00001000
00000001
,
00000000
00000000
00000000
00000100
00000010
00000100
00000010
00000100
,
00000000
00000000
00000000
00000001
00000010
00000001
00000010
00000001
,
00000000
00000000
00000000
00001000
00000100
00001000
00000100
00001000
,
00000020
00000000
00000000
00000000
,
00000030
00000000
00000000
00000000
00001000
00000100
00010000
00001000
,
00011000
00000000
00000000
00000000
,
00001000
00100000
01000000
10000000
00200000
00000000
00000000
00000000
,
01300000
00000000
00000000
00000000
00000000
00000000
00000000
00000000
00000000
00000000
00001000
00000000
,
00010000
00000000
00001000
00000000
00010000
00000000
00000100
00000000
00001000
00000000
00000100
00000000
,
00001000
00000000
00001100
00000000
,
00000110
00000000
00000000
00000000
00000000
00000000
00000000
00000000
00000010
00000000
00000001
00000000
,
00000200
00000000
00000000
00000000
00000000
00000000
00000000
00000301
,
00000000
00000000
00000000
00000000
,
00000000
00000000
00000000
00000000
,
00000000
00000000
00100000
00010000
01000000
00100000
10000000
00010000
,
10000000
00010000
00000000
01000000
00010000
00100000
00001000
00010000
,
00001000
00010000
00000100
00001000
00000100
00000000
00001000
00000010
,
00000100
00000001
00000000
00000001
00001000
00000000
00000010
00000000
,
00000010
00000000
00001000
00000100
00000010
00000000
00000001
00000000
,
00000001
00000000
00000100
00001000
00010000
00000000
01000000
00000000
,
01000000
00000000
10000000
00100000
10000000
00100000
01000000
00010000
,
10000000
00010000
01000000
00000000
00100000
00000000
00010000
00001000
,
00000010
00000000
00000001
00001000
00000001
00000000
00001000
00000001
,
00001000
00000010
00000000
00000100
00000010
00000000
00000100
00000000
,
00000100
00000000
00001000
00010000
01000000
00000000
10000000
00100000
,
10000000
00010000
00000000
01000000
00100000
00000000
00100000
00000000
,
00100000
00000000
10000000
00010000
10000000
00010000
00000000
01010000
,
00000000
10010000
00000000
10000000
01000000
00000000
00010000
00001000
,
00000010
00000000
00000001
00000010
00000000
00000001
00000010
00000000
,
00000001
00000010
00000000
00000001
00000010
00000000
00000001
00000000
,
00000010
00001000
00010000
00000000
00100000
00000000
10000000
00010000
,
10000000
01000000
00000000
10000000
00100000
00000000
00010000
00000000
,
00001000
00000000
00000010
00000001
00000010
00000001
00001000
00000001
,
00000000
00000101
00000000
00000100
00000010
00000000
00010000
00001000
,
00010000
00000000
00001000
00000000
01000000
00000000
00100000
10000000
,
00010000
10000000
00000000
00100000
01000000
00000000
00100000
00010000
,
00001000
00000000
00000010
00000000
00000010
00000000
00000001
00001000
,
00000001
00000000
00000010
00000000
00000010
00000000
00001000
00010000
,
00100000
00000000
10000000
00100000
00000000
10000000
00010000
00000000
,
10000000
00100000
00000000
10000000
00010000
00000000
10000000
01000000
,
00010000
00000000
00001000
00000100
00000001
00000000
00001000
00000010
,
00000100
00000001
00000000
00000001
00001000
00000000
00000010
00000000
,
00000010
00000000
00000100
00000010
00001000
00000001
00000000
00000101
,
00000000
00001001
00000000
00000001
00000100
00000000
00001000
00000000
,
00010000
00000000
01000000
10000000
01000000
00000000
10000000
00100000
,
10000000
00000000
00100000
00010000
00100000
00000000
00010000
00001000
,
00000010
00000001
00001000
00000010
00001000
00000000
00000010
00000100
,
00000010
00000000
00000100
00001000
00000100
00000000
00001000
00010000
,
01000000
10000000
00000000
00000000
00000000
00000000
00000000
00000000
;

//---------------dance-double - ----------------
#NOTES:
     dance-double:
     :
     Medium:
     12:
     0.514709,0.683522,0.178449,0.152956,0.016995,424.000000,403.000000,21.000000,18.000000,0.000000,0.000000,0.514709,0.683522,0.178449,0.152956,0.016995,424.000000,403.000000,21.000000,18.000000,0.000000,0.000000:
00000000
00000000
00000000
00000000
,
00000000
00000000
00000000
00000000
,
00000000
00000000
00000000
00000000
,
00000000
00000000
00000000
00000000
00000000
10000000
00010000
20000000
,
00000000
00000000
00000000
00000000
00000000
31000000
00010000
00001000
,
00000000
00000010
00000001
00000010
00000000
00000001
00000100
00000010
,
00001000
00000100
00000010
00000001
00000100
00001000
00010000
01000000
,
10000000
00100000
01000000
00010000
00100000
01000000
10000000
00010000
,
10020000
00000000
00000000
00000000
00030000
01000000
00100000
02000000
,
00000000
00000000
00000000
03000000
00000000
00010000
01000000
00200000
,
00000000
00310000
00001000
00000200
00000000
00000301
00001000
00000020
,
00000000
00000000
00000000
00000000
00000000
00001030
00000001
00002000
,
00000000
00000000
00000000
00003000
00000000
00000001
00000010
00002000
,
00000000
00000000
00000000
00013000
00100000
10000000
01000000
00100000
,
00110000
00000000
00010000
01000000
00010000
10000000
00000000
10000000
,
00000000
00010000
00100000
00000000
00000000
00100000
00001000
00000000
,
00011000
00000000
00000000
00000000
00010000
00000000
00000100
00000000
00000010
00000000
00000000
00000010
00000000
00000000
00000010
00000000
,
00000000
00000001
00001000
00000000
00000000
00001000
00000100
00000000
,
00001100
00000000
00000100
00001000
00000100
00000010
00000001
00000100
,
00000010
00001000
00000100
00000010
00000001
00000100
00001000
00000000
,
00010000
01000000
10000000
00100000
01000000
00010000
00100000
02000000
,
00000000
00000000
00000000
03000000
,
11000000
00000000
10000000
00100000
10000000
00010000
00000000
01000000
,
00000000
01000000
00010000
00000000
00000000
00010000
00100000
00000000
,
00101000
00000000
00000000
00000000
00001000
00000000
00010000
00000000
00000010
00000000
00000000
00000010
00000000
00000000
00000010
00000000
,
00000000
00001000
00000100
00000000
00000000
00000100
00010000
00000000
,
00011000
00000000
00001000
01000000
00100000
10000000
01000000
00100000
,
00010000
01000000
00100000
10000000
01000000
00010000
00001000
00000000
,
00000100
00000001
00000010
00000100
00001000
00000010
00000100
00000002
,
00000000
00000000
00000000
00000003
,
00000101
00000000
00000000
00000001
00000010
00000001
00000010
00000001
,
00000000
00000000
00000000
00000000
00000000
00000010
00001000
00000000
,
00010000
00100000
00010000
00100000
00000000
00000000
00000000
00000000
,
00000000
00000000
00000000
10000000
01000000
10000000
01000000
10000000
,
00000000
00000000
00000000
01000000
00010000
01000000
00010000
01000000
,
00000000
00000000
00000000
00010000
00001000
00000100
00000001
00000000
,
00000010
00000000
00001000
00000000
00010000
00000000
00100000
10000000
,
00000000
10000000
00010000
00000000
01010000
00000000
10010000
00000000
,
10100000
00000000
00000000
10000000
00100000
10000000
00100000
10000000
,
00000000
00000000
00000000
00000000
00000000
00100000
00010000
00000000
,
00001000
00000010
00001000
00000010
00000000
00000001
00000100
00000001
,
00000000
00000000
00000000
00000001
00001000
00000001
00001000
00000001
,
00000000
00000000
00000000
00000010
00001000
00000010
00001000
00000010
,
00000000
00000000
00000000
00001000
00010000
00100000
10000000
00000000
,
01000000
00000000
00100000
01000000
00000000
00100000
00010000
00000000
,
00000000
01000000
00001000
00000000
00010000
00000000
00000100
00000000
,
00010100
00000000
00000000
00000000
,
00000020
00000002
00000000
00000000
00000000
00000000
00000000
00000033
,
00000101
00000000
00000000
00000000
,
00000001
00000000
00000100
00000000
,
00001000
00000000
00010000
00000000
,
00100000
00000000
00000000
00000000
00000000
00000000
00000000
00000000
10000000
00000000
10000000
00000000
,
10000000
00000000
00000000
00000000
00000000
00000000
00000000
20020000
,
00000000
00000000
00000000
00000000
,
00000000
00000000
00000000
00000000
,
30030000
00000000
10010000
00010000
10000000
00000000
01000000
00100000
,
01000000
10000000
00000000
01000000
00010000
00000000
00001000
00000000
,
00001000
00000000
00000100
00000001
00000100
00000000
00000001
00000010
,
00000001
00000010
00000000
00000100
00001000
00000000
00000010
00000000
,
00000010
00000000
00000100
00000001
00000100
00000000
00000010
00001000
,
00000100
00010000
00000000
00010000
00001000
00000000
01000000
00100000
,
10000000
00010000
02000000
00000000
00000000
00000000
00000000
00100000
,
00000000
03100000
10000000
00000000
01000000
00000000
00010000
00000000
,
00001000
00000000
00000010
00000001
00000010
00000000
00000001
00000100
,
00000001
00000100
00000000
00000010
00001000
00000000
00000100
00010000
,
00000100
00010000
00001000
00000000
01000000
00000000
00100000
00000000
,
00100000
00000000
00000000
10000000
00010000
00000000
00000000
00010000
,
10000000
00000000
00200000
00000000
02300000
00000000
00000000
00010000
,
00000000
03010000
00000000
00010000
00100000
00000000
01000000
00000000
,
01000000
00000000
00000000
10000000
00100000
00000000
00010000
00001000
,
00000000
00000010
00000001
00000000
00001000
00000000
00000001
00000000
,
00000010
00000000
00000001
00000100
00000001
00001000
00000000
00000010
,
00000000
00001010
00000000
00000010
00000100
00000000
00001000
00000000
,
00001000
00000000
00010000
01000000
10000000
00000000
00100000
00000000
,
00100000
00000000
00010000
00001000
00000100
00000000
00000001
00000000
,
00000001
00000000
00000100
00000010
00000100
00000001
00000000
00000101
,
00000000
00000001
00000010
00000000
00001000
00000000
00010000
00000000
,
00100000
00000000
10000000
00010000
01000000
00100000
10000000
00010000
,
10000000
00100000
00010000
00001000
00000010
00000001
00001000
00000000
,
00000001
00000000
00000010
00000100
00000010
00000100
00000000
00001100
,
00000000
00010100
00000000
00010000
00001000
00000000
01000000
00000000
,
01000000
00000000
00100000
10000000
00100000
00000000
01000000
00000000
,
01000000
00000000
00010000
00100000
00010000
00000000
10000000
00000000
,
10000000
00000000
01000000
00010000
00001000
00000000
00000000
00000101
,
00000000
00001001
00000001
00001000
00000010
00000100
00000001
00001000
,
00000010
00000100
00000001
00000000
00000010
00000000
00000001
00000010
,
00001000
00010000
00001000
00000000
00010000
00000000
00001000
00010000
,
00100000
10000000
00100000
00000000
10000000
00000000
00100000
10000000
,
01000000
00010000
01000000
00000000
00010000
00000000
00001000
00000100
,
00000001
00000020
00000000
00000030
00000000
00000000
00000000
00000000
;

//---------------dance-double - ----------------
#NOTES:
     dance-double:
     :
     Challenge:
     16:
     0.774491,1.031018,0.220936,0.322907,0.382390,638.000000,612.000000,26.000000,38.000000,0.000000,0.000000,0.774491,1.031018,0.220936,0.322907,0.382390,638.000000,612.000000,26.000000,38.000000,0.000000,0.000000:
00000000
00000000
00000000
00000000
,
00000000
00000000
00000000
00000000
,
00000000
00000000
00000000
00000000
,
00000000
00000000
00000000
00000000
00000000
00100000
01000000
00020000
,
00000000
00000000
00000000
00000000
00000000
01030000
00100000
00020000
,
00000000
00031000
00000100
00000002
00000000
00000013
00001000
00010000
,
00100000
10000000
00100000
10000000
01000000
10000000
01000000
00010000
,
01000000
00010000
00001000
00010000
00001000
00000100
00001000
00000020
,
00000002
00000030
00000000
00000000
00000000
00000103
00001000
00020000
,
00000000
00000000
00000000
00000000
00000000
00130000
10000000
00020000
,
00000000
10030000
01000000
00020000
00000000
00031000
00000010
00000002
,
00000000
00000000
00000000
00000000
00000000
00000103
00000010
00002000
,
00000000
00000000
00000000
00000000
00000000
00003010
00000100
00002000
,
00000000
00000000
00000000
00013000
01000000
10000000
00100000
01000000
,
01010000
00000000
00010000
10000000
00100000
01000000
00000000
01010000
,
00000000
01000000
00100000
00000000
00000000
00010000
00001000
00000010
,
00000001
00000000
00000000
00000000
00000010
00000000
00000100
00000000
00001100
00000000
00000000
00000110
00000000
00000000
00000102
00000000
,
00000000
00000013
00002000
00000000
00003000
00010000
00100000
00000000
,
10100000
00000000
10000000
00010000
01000000
00100000
10000000
01000000
,
00100000
00010000
01000000
00100000
00010000
00001000
00000100
00000001
,
00001000
00000010
00000100
00000001
00000010
00000100
00001000
00000010
,
00000100
00000001
00000100
00000001
00001000
00000010
00001000
00000010
00001000
00000100
00001000
00000100
00000010
00000001
00000010
00000001
,
00000200
00000000
00000000
00000000
00000000
00002300
00000000
00023000
,
00000000
01030000
10000000
00000000
00000000
01000000
10000000
00100000
,
00010000
00000000
00000000
00000000
00001000
00000000
00000010
00000000
00000011
00000000
00000000
00001001
00000000
00000000
00001100
00000000
,
00000000
00000010
00000001
00000000
00000000
00000100
00001000
00010000
,
01000000
00000000
10000000
00100000
10000000
00100000
00010000
00100000
,
00010000
00001000
00010000
00001000
00000100
00001000
00010000
00100000
,
00010000
00001000
00000100
00000001
00000010
00000100
00001000
00000010
,
00000100
00000010
00000100
00000010
00010000
00001000
00010000
00001000
00100000
00010000
00100000
00010000
01000000
00100000
01000000
00100000
,
20000000
00000000
00000000
30010000
01000000
00100000
00010000
00002000
,
00000000
00000000
00000000
00000000
00000000
00000000
00000000
00000000
00003000
00000000
00000100
00000000
00000001
00000000
00000100
00000001
,
00001000
00000010
00000100
00000020
00000000
00000000
00000000
00000000
,
00000000
00000000
00000000
00000130
00001000
00010000
01000000
20000000
,
00000000
00000000
00000000
30100000
01000000
00100000
00010000
00002000
,
00000000
00000000
00000000
00003010
00000001
00000010
00000001
00000100
,
00000010
00000000
00001000
00000100
00000010
00000000
00001000
00000000
00010000
00000000
00100000
00000000
10000000
00000000
10020000
00000000
,
00000000
00000000
01030000
00000000
00100000
00000000
00010000
00000000
00001000
00000000
00000100
00000001
00000100
00000000
00000001
00000000
,
00001002
00000000
00000000
00000103
00000010
00000100
00001000
00020000
,
00000000
00000000
00000000
00000000
00000000
00000000
00000000
00000000
00000000
00000000
01030000
00000000
10000000
00000000
00100000
01000000
,
00010000
10000000
00100000
02000000
00000000
03100000
00010000
00002000
,
00000000
00000000
00000000
00003010
00000001
00001000
00000010
00000110
,
00000010
00000100
00000001
00000000
00001001
00000000
00000010
00000000
00000100
00000000
00000010
00000000
00010000
00000000
00002000
00000000
,
00000000
00000000
00000000
00013000
00100000
10000000
01000000
00100000
,
00010000
00000000
01000000
00100000
00010000
00000000
00001000
00000000
00000000
00000100
00000000
00000000
00000001
00000000
00000000
00001000
,
00000000
00000010
00000000
00000100
00000000
00001000
00010000
01000000
,
20000000
00000000
00000000
00000000
,
30010000
00000000
00000000
00000000
00000000
00000000
01000000
00000000
00000000
00100000
00000000
00000000
10000000
00000000
00000000
00010000
00000000
00000000
01000000
00000000
00000000
00100000
00000000
00000000
00010000
00000000
00000000
00000000
00000000
00000000
00000000
00000000
00001000
00000000
00000000
00000000
00000000
00000000
00000000
00000000
00000100
00000000
00000000
00000000
00000000
00000000
00000000
00000000
,
00000002
00000000
00000000
00000000
00000000
00000000
00000000
00000000
00000000
00000003
00000010
00000000
,
00001000
00000000
00000010
00000000
00001000
00000000
00010000
00000000
00001000
00000000
00010000
00000000
,
00200000
00000000
00000000
00000000
10300000
00010000
20000000
00000000
00000000
00000000
30010000
00001000
,
00020000
00000000
00000000
00000000
00000000
00000000
00000000
00000000
00031000
00000000
00000001
00000000
,
00002002
00000000
00000000
00000000
00000000
00000000
00003003
00000220
,
00000000
00000000
00000000
00000000
,
00000000
00000000
00000000
00000000
00000000
00000000
00000000
00000330
,
00000000
00000000
00000000
00000000
00011000
00000000
00100000
00001000
00010000
00000000
00100000
00000000
10000000
00000000
01000000
00000000
,
00010000
00000000
00011000
00000000
00000000
00000000
00001000
00000100
00000001
00000000
00001000
00000000
00000010
00000000
00000100
00000000
,
00000010
00000000
00000100
00000000
00001000
00000000
00010000
01000000
10000000
00000000
00100000
00000000
01000000
00000000
00010000
00000000
,
01000000
00000000
00010000
00000000
00100000
00000000
00010000
00001000
00000100
00000000
00000001
00000000
00001000
00000000
00000010
00000000
,
00000100
00000000
00000010
00000000
00010000
00000000
00000010
00000100
00001000
00000000
00010000
00000000
01000000
00000000
10000000
00000000
,
01000000
00000000
00100000
00000000
00010000
00000000
01000000
00100000
00010000
00000000
00001000
00000000
00000100
00000000
00000001
00000000
,
00000100
00000000
00000010
00000000
00001001
00000000
00000010
00000100
00000001
00000000
00000010
00000000
00001000
00000000
00010000
00000000
,
00001000
00000000
00100000
00000000
01000000
00000000
10000000
00100000
01000000
00000000
00010000
00000000
01000000
00100000
10000000
00010000
,
01000000
00100000
00010000
00000000
00001000
00000000
00000010
00000001
00000010
00000000
00000001
00000000
00001001
00000000
00001000
00000010
,
00000100
00000000
00001000
00000000
00010000
00000000
01000000
10000000
01000000
00000000
10000000
00000000
10100000
00000000
01000000
00000000
,
00010000
00000000
01000000
00000000
00010000
00000000
01000000
00100000
00010000
00000000
00001000
00000000
00000100
00000000
00000001
00000000
,
00000100
00000000
00000001
00000000
00001000
00000000
00000010
00000100
00001000
00000000
00010000
00000000
01000000
00000000
10000000
00000000
,
00100000
00000000
01000000
00010000
00100000
00000000
00010000
00000000
01000000
00000000
00100000
00000000
00010000
00000000
00011000
00000000
,
00001000
00000000
00001010
00000000
00000010
00000000
00000001
00001000
00000001
00000000
00000100
00000000
00000010
00000000
00010000
00000000
,
00000010
00000000
00010000
00000000
00000010
00000100
00001000
00010000
01000000
00000000
10000000
00100000
00010000
00001000
00000010
00000000
,
00000001
00000100
00000010
00001000
00000001
00000000
00000100
00000000
00000001
00000010
00001000
00010000
00100000
10000000
00010000
00000000
,
01000000
00000000
00100000
00000000
10100000
00000000
10000000
01000000
10000000
00000000
00100000
00000000
00010000
00000000
00001000
00000000
,
00000010
00000000
00000011
00000000
00000001
00000000
00000100
00000000
00000100
00000010
00000001
00000000
00000100
00000000
00001000
00000000
,
00010000
00000000
01000000
00000000
10000000
00000000
00010000
01000000
00100000
00000000
00010000
00000000
00001000
00000000
00000100
00000000
,
00001000
00000000
00000100
00000000
00000001
00000000
00001000
00000010
00001000
00000000
00000010
00000000
00000100
00000000
00001000
00000000
,
00010000
00000000
00001000
00000000
00010000
00000000
01000000
10000000
01000000
00000000
10000000
00000000
00010000
00000000
01000000
00000000
,
00100000
00000000
00010000
00000000
00001000
00000000
00000100
00000001
00000100
00000000
00000001
00000000
00000010
00000000
00001000
00000000
,
00000010
00000000
00001000
00000000
00010000
00000000
00100000
10000000
00010000
00000000
01000000
00000000
00100000
00000000
00010000
00000000
,
00001000
00000000
00000010
00000000
00000001
00001000
00000001
00001000
00000001
00000000
00000100
00000000
00000010
00000000
00001000
00000001
,
00001000
00000000
00000010
00000000
00000100
00000000
00001000
00010000
01000000
00000000
10000000
00000000
00100000
00000000
00010000
00000000
,
00100000
00000000
00010000
00000000
00001000
00000000
00000010
00000001
00001000
00000000
00000010
00000000
00000100
00000000
00001000
00000000
,
00000100
00000000
00001000
00000000
00010000
00000000
01000000
10000000
00100000
00000000
01000000
00000000
00010000
00000000
10000000
00000000
,
00100000
00000000
01000000
00000000
00100000
00000000
00010000
00001000
00000010
00000000
00000001
00000000
00001000
00000000
00000010
00000000
,
00001000
00000000
00000010
00000000
00000101
00000000
00000001
00000010
00001000
00000000
00010000
00000000
00000000
00000000
00011000
00000000
,
00000000
00000000
00100000
00000000
10000000
00100000
10000000
00100000
10000000
00100000
10000000
00100000
10000000
00100000
10000000
00100000
,
00010000
00001000
00000010
00000001
00000010
00000001
00000010
00000001
,
00000100
00001000
00010000
01000000
00010000
01000000
00010000
01000000
,
10000000
00100000
00010000
00001000
00010000
00001000
00010000
00001000
,
00000010
00000001
00000100
00000010
00000100
00000010
00000100
00000010
,
00000200
00002000
00000000
00000000
00000000
00000000
00000000
00003300
;

//---------------dance-double - ----------------
#NOTES:
     dance-double:
     :
     Hard:
     14:
     0.687087,0.726540,0.135961,0.271922,0.195444,566.000000,550.000000,16.000000,32.000000,0.000000,0.000000,0.687087,0.726540,0.135961,0.271922,0.195444,566.000000,550.000000,16.000000,32.000000,0.000000,0.000000:
00000000
00000000
00000000
00000000
,
00000000
00000000
00000000
00000000
,
00000000
00000000
00000000
00000000
,
00000000
00000000
00000000
00000000
00000000
00100000
01000000
00020000
,
00000000
00000000
00000000
00000000
00000000
01030000
00100000
00020000
,
00000000
00031000
00000010
00000002
00000000
00000103
00001000
00010000
,
01000000
01000000
10000000
10000000
,
00100000
00100000
01000000
01000000
,
01020000
00000000
00000000
00000000
00000000
00130000
00010000
00002000
,
00000000
00000000
00000000
00000000
00000000
00003010
00000001
00002000
,
00000000
00003010
00000100
00002000
00000000
00013000
01000000
20000000
,
00000000
00000000
00000000
00000000
00000000
30100000
00010000
00002000
,
00000000
00000000
00000000
00000000
00000000
00003010
00000001
00000020
,
00000000
00000000
00000000
00000031
00001000
00000001
00000100
00000001
,
00002002
00000000
00000000
00000000
00003003
00000110
00000000
00000101
,
00000000
00000001
00000010
00001000
00000000
00010000
00100000
10000000
,
00010000
00000000
00000000
00000000
01000000
00000000
00100000
00000000
10000000
00000000
00000000
10000000
00000000
00000000
10000000
00000000
,
00000000
00100000
01000000
00100000
00000000
00010000
00001000
00000010
,
00000001
00000000
00000100
00000001
00000100
00000001
00000100
00000010
,
00000100
00000010
00000100
00001000
00010000
01000000
10000000
00010000
,
01000000
00000000
00100000
00000000
10000000
00000000
01000000
00000000
00100000
00000000
00010000
10000000
00010000
00000000
01000000
00000000
,
00100000
00010000
00001000
00000010
00000001
00000100
00000010
00001000
,
00002002
00000000
00000000
00000000
00003003
00001100
00000000
00010100
,
00000000
00010000
00001000
00100000
00000000
01000000
10000000
00100000
,
00110000
00000000
00000000
00000000
00010000
00000000
00001000
00000000
00000010
00000000
00000000
00000010
00000000
00000000
00000010
00000000
,
00000000
00000001
00001000
00000010
00000000
00000100
00001000
00010000
,
01000000
10000000
01000000
10000000
01000000
00100000
01000000
00100000
,
00010000
00001000
00000010
00000001
00000100
00000010
00001000
00000100
,
00000010
00000001
00000100
00001000
00010000
00100000
10000000
00010000
,
10000000
01000000
00010000
01000000
10000000
00100000
00010000
00001000
,
00000020
00000000
00000000
00000031
00000100
00000001
00001000
00001001
,
00000000
00000000
00000010
00000000
00000100
00000000
00000010
00000000
00000000
00000000
00001000
00000000
00000100
00000000
00000010
00000001
,
00000100
00000000
00001000
00000000
00010000
00000000
02000000
00000000
10000000
00000000
00000000
10000000
00000000
00000000
20000000
00000000
,
00000000
00000000
33000000
10000000
00100000
00010000
00001000
00000020
,
00000000
00000000
00000000
00000031
00000100
00000010
00001000
00000002
,
00000000
00000000
00000000
00000103
00001000
00010000
01000000
10000000
,
00100000
00000000
00100000
01000000
00010000
00000000
01000000
00000000
00100000
00000000
00010000
00000000
00001000
00000000
00000010
00000000
,
00000000
00000010
00001000
00010000
00100000
10000000
00010000
00100000
,
02000000
00000000
00000000
13000000
00100000
10000000
00010000
10010000
,
00000000
00000000
01000000
00000000
00100000
00000000
01000000
00000000
00000000
00000000
00010000
00000000
00100000
00000000
01000000
10000000
,
00100000
00010000
00001000
00000020
00000000
00000031
00001000
00000002
,
00000000
00000000
00000003
00000001
00000010
00001000
00010000
00100000
,
10000000
00010000
10000000
00000000
00010000
00000000
10000000
00000000
00100000
00000000
01000000
00000000
00010000
00000000
20000000
00000000
,
00000000
00000000
00000000
30100000
00010000
00001000
00000010
00000001
,
00000100
00000000
00000100
00000010
00001000
00000000
00000000
00000001
00000000
00000100
00000000
00000000
00000000
00001000
00000000
00000000
,
00000000
00010000
01000000
00000000
10000000
00000000
00100000
00000000
01000000
00000000
00010000
00000000
00100000
00000000
01000000
00000000
,
20000000
00000000
00000000
00000000
,
30010000
00000000
00000000
00000000
00000000
00000000
01000000
00000000
00000000
00010000
00000000
00000000
01000000
00000000
00000000
00010000
00000000
00000000
01000000
00000000
00000000
00000000
00000000
00000000
00100000
00000000
00000000
00000000
00000000
00000000
00000000
00000000
00010000
00000000
00000000
00000000
00000000
00000000
00000000
00000000
00001000
00000000
00000000
00000000
00000000
00000000
00000000
00000000
,
00000020
00000000
00000000
00000000
00000000
00000000
00000000
00000000
00000000
00000030
00000001
00000000
,
00000001
00000000
00000100
00000000
00001000
00000000
00010000
00000000
00010000
00000000
01000000
00000000
,
20000000
00000000
00000000
00000000
30100000
01000000
00020000
00000000
00000000
00000000
01030000
00100000
,
00020000
00000000
00000000
00000000
00000000
00000000
00000000
00000000
00031000
00000000
00000010
00000000
,
00000002
00000000
00000000
00000000
00000000
00000000
00000000
00002000
,
00000000
00000000
00000000
00000000
,
00000000
00000000
00000000
00000000
,
00003003
00000000
00001001
00000001
00001000
00000010
00000100
00000010
,
00001000
00000100
00000000
00000010
00001000
00010000
00100000
10000000
,
00100000
00000000
10000000
00000000
01000000
00000000
00100000
00010000
00100000
00000000
00010000
00000000
01000000
00000000
00100000
00000000
,
01000000
00000000
00100000
00000000
00010000
00000000
00001000
00000100
00001000
00000000
00000100
00000000
00000001
00000000
00000010
00000000
,
00000001
00000000
00000100
00000000
00000010
00000000
00001000
00000001
00001000
00000000
00000010
00000000
00000100
00000000
00000010
00000000
,
00000000
00000000
00001001
00000000
00000000
00000000
00000001
00001000
00000001
00000000
00000100
00000000
00001000
00000000
00010000
00000000
,
00001000
00010000
01000000
01000000
10000000
10000000
00100000
01000000
,
00010000
10000000
00100000
01000000
00100000
10000000
00010000
00100000
,
01000000
00000000
00010000
00000000
00001000
00000000
00000010
00000001
00000010
00000000
00000001
00000000
00001000
00000000
00000100
00000000
,
00000010
00000000
00000001
00000000
00000000
00000000
00000001
00001000
00000001
00000000
00000100
00000000
00001000
00000000
00010000
00000000
,
00001000
00000000
00010000
00000000
00100000
00000000
10000000
00010000
10000000
00000000
01000000
00000000
00100000
00000000
00010000
00000000
,
00100000
00010000
10000000
01000000
00010000
00001000
00000010
00000001
,
00000100
00000001
00000010
00000100
00001000
00000000
00000000
00000110
,
00000000
00011000
00000000
00100000
01000000
10000000
00100000
00010000
,
00100000
00010000
00001000
00000010
00000000
00000000
00000010
00000001
,
00000100
00000010
00001000
00000001
00000100
00000010
00001000
00000001
,
00001000
00000000
00000010
00000000
00000100
00000000
00000001
00000010
00000001
00000000
00001000
00000000
00000010
00000000
00000100
00000000
,
00001000
00000000
00010000
00000000
00000000
00000000
01000000
10000000
01000000
00000000
10000000
00000000
00100000
00000000
00010000
00000000
,
00100000
00000000
00010000
00000000
00001000
00000000
00000100
00000000
00000001
00000000
00001000
00000000
00000010
00000000
00000000
00000010
,
00000000
00000000
00000010
00000000
00000000
00000000
00000010
00000100
00000010
00000000
00000100
00000000
00000001
00000000
00000010
00000000
,
00000001
00000010
00001000
00010000
00100000
10000000
01000000
00100000
,
01000000
00000000
00100000
00000000
00000000
00000000
00010000
10000000
00010000
00000000
01000000
00000000
00100000
00000000
10000000
00000000
,
00100000
10000000
00010000
00010000
01000000
01000000
00100000
00010000
,
00001000
00000000
00000010
00000000
00000001
00000000
00001000
00000010
00001000
00000000
00000001
00000000
00001000
00000000
00000100
00000000
,
00000010
00000000
00000001
00000000
00000100
00000000
00000010
00001000
00000010
00000000
00000100
00000000
00001000
00000000
00010000
00000000
,
01000000
00000000
10000000
00000000
00000000
00000000
00100000
01000000
00100000
00000000
10000000
00000000
00010000
00000000
01000000
00000000
,
00010000
00000000
01000000
00000000
00000000
00000000
00100000
10000000
00100000
00000000
10000000
00000000
01000000
00000000
00000000
01000000
,
00000000
00000000
01000000
00000000
00000000
00000000
01000000
00100000
00010000
00000000
01000000
00000000
00100000
00000000
00010000
00000000
,
00001000
00000010
00000001
00001000
00000001
00000000
00000000
00001001
,
00000000
00011000
00000000
00010000
10000000
00010000
10000000
00010000
,
10000000
00100000
01000000
00001000
01000000
00100000
01000000
00001000
,
01000000
00100000
00010000
00001000
00010000
00100000
00010000
00001000
,
00010000
00000010
00000100
00000010
00000100
00010000
00000100
00000010
,
00000100
00010000
00001000
00000100
00001000
00010000
00001000
00000100
,
00000002
00002000
00000000
00000000
00000000
00000000
00000000
00000000
,
00003003
00000000
00000000
00000000
;
