#TITLE:Country Day;
#SUBTITLE:;
#ARTIST:Anna Vieste;
#TITLETRANSLIT:;
#SUBTITLETRANSLIT:;
#ARTISTTRANSLIT:;
#GENRE:Country;
#CREDIT:;
#BANNER:countryday-bn.png;
#BACKGROUND:countryday-bg.png;
#LYRICSPATH:;
#CDTITLE:;
#MUSIC:Country Day.mp3;
#OFFSET:-0.060000;
#SAMPLESTART:21.219999;
#SAMPLELENGTH:11.999990;
#SELECTABLE:YES;
#BPMS:0.000000=136.000000
;
#STOPS:
;
#BGCHANGES:;
#KEYSOUNDS:;
#ATTACKS:;

//---------------dance-single - ----------------
#NOTES:
     dance-single:
     :
     Challenge:
     15:
     0.851603,0.867163,0.104750,0.028568,1.104636,626.000000,615.000000,11.000000,3.000000,0.000000,0.000000,0.851603,0.867163,0.104750,0.028568,1.104636,626.000000,615.000000,11.000000,3.000000,0.000000,0.000000:
0000
0000
0000
0000
,
0000
0000
0000
0000
,
0000
0000
0000
0000
,
1000
0100
1000
0000
0001
0000
0001
0000
1000
0100
1000
0100
1000
0100
1000
0100
,
0010
0000
0001
1000
0000
1000
0010
0000
0100
0000
0001
0010
0000
0010
0100
0000
,
1000
0000
0010
0100
0000
0100
0001
0000
1000
0000
0100
0001
0000
0100
1000
0000
,
0001
0000
1000
0100
0000
0100
0010
0000
0001
0000
0010
0001
0000
0001
1000
0000
,
0010
0000
0100
0001
0000
0001
1000
0000
0010
0000
0100
0000
0010
1000
0010
1000
,
0010
0000
0100
0001
0000
1000
0010
0000
0100
0000
0010
1000
0000
0100
0010
0000
,
0001
0000
1000
0100
0000
0010
0001
0000
0100
0000
0010
0001
0000
0010
1000
0000
,
0001
0000
0100
0010
0000
1000
0100
0000
0010
0000
0001
1000
0000
0010
0100
0000
,
0010
0000
1000
0001
0000
0100
0010
0000
1000
0001
0000
0000
1001
0000
0001
0000
,
1000
0000
0100
0010
0001
0010
0100
0000
1000
0000
0010
0100
0001
0100
0010
0000
,
1000
0000
0100
0010
0001
0010
0100
0000
1000
0000
0010
1000
0100
0010
0001
0000
,
0001
0000
0010
0100
1000
0100
0010
0000
0001
0000
0100
0010
1000
0010
0100
0000
,
0001
0000
0010
0100
1000
0100
0010
0000
0001
0000
1000
0000
0010
0100
0010
0100
,
0010
0000
1000
0001
0100
0001
1000
0000
0100
0000
0010
0001
0100
0001
0010
0000
,
0100
0000
1000
0100
0001
0100
1000
0000
0010
0000
0100
0001
1000
0010
0100
0000
,
0100
0000
0001
1000
0010
1000
0001
0000
0100
0000
0010
1000
0100
1000
0010
0000
,
0100
0000
0001
0010
1000
0010
0001
0000
0100
0000
0010
0000
1000
0010
0000
0000
,
0100
0000
0001
0010
0001
1000
0010
0000
1000
0000
0010
0000
1000
0001
0000
0000
,
0100
0000
0001
0000
1000
0010
0000
0000
0101
0000
0000
0000
0000
0000
0000
0000
,
0000
0000
0000
0000
0000
0000
0000
0000
0001
0000
1000
0000
0001
0010
0100
1000
,
0100
0000
0100
0000
0100
0001
0100
0010
0100
1000
0100
0010
0100
0001
0100
1000
,
0010
0000
0010
0000
0010
1000
0010
0100
0010
0001
0010
0100
0020
0000
0000
0000
,
1030
0000
1000
0000
1000
0100
1000
0010
1000
0001
1000
0010
1000
0100
1000
0001
,
0100
0010
1000
0010
0100
0001
0010
0001
0100
0010
0100
0010
0100
0010
0100
0010
,
0100
0000
0001
0010
0000
0100
0010
0000
0100
0000
0010
0100
0000
1000
0100
0000
,
1000
0000
0010
0100
0000
0001
0100
0000
0001
0000
1000
0100
0000
0001
0100
0000
,
1000
0000
0010
0100
0000
0010
1000
0000
0100
0000
0010
0100
0000
0010
0001
0000
,
0100
0000
0001
0010
0000
0001
1000
0000
0100
0000
0001
0000
0100
1000
0100
1000
,
0100
0000
1000
0010
0000
0100
0001
0000
0010
0000
0100
1000
0000
0010
0100
0000
,
0001
0000
1000
0100
0000
0010
0001
0000
0100
0000
0001
0010
0000
1000
0010
0000
,
0001
0000
0100
0010
0000
1000
0001
0000
0100
0000
0010
1000
0000
0100
0010
0000
,
0001
0000
0010
0000
0100
1000
0100
1000
0100
0000
0010
0000
0011
0000
0000
0001
,
1000
0000
0100
0010
0001
0010
0100
0000
1000
0000
0010
0100
0001
0100
0010
0000
,
1000
0000
0001
0100
1000
0100
0001
0000
1000
0000
0010
0100
0001
1000
0001
0000
,
0100
0000
0010
1000
0100
1000
0010
0000
0100
0000
0001
0010
0100
0010
0001
0000
,
0100
0000
0010
1000
0100
1000
0010
0000
0100
0001
0100
0000
0110
0000
0000
0000
,
0001
0000
0010
0100
1000
0100
0010
0000
0001
0000
0100
0010
1000
0010
0100
0000
,
0001
0000
1000
0100
0001
0100
1000
0000
0001
0000
0100
0010
1000
0010
0100
0000
,
0001
0000
1000
0100
0010
0001
1000
0000
0010
0000
0100
0000
0010
0100
0000
0000
,
0001
0000
1001
0000
0000
0000
0100
0000
0010
0000
1001
0000
1000
0100
1000
0100
,
1000
0000
1010
0000
0000
0000
0100
0000
0001
0010
0001
0010
0001
0010
0001
0010
,
0001
1000
0000
0000
1000
0001
0000
1000
0100
0000
0000
0000
0011
0000
0000
0000
,
0100
0001
0100
0010
0100
1000
0100
0010
0100
0001
0100
0010
0100
1000
0100
0010
,
0100
0001
0000
0001
0010
0100
1000
0000
0001
1000
0000
0001
0010
0100
1000
0000
,
0001
0000
0010
0100
0010
0100
1000
0100
1000
0000
0010
0100
0010
0100
0001
0100
,
0001
0000
0010
0000
0000
0110
0000
0000
0100
0000
0000
1100
0000
0000
1000
0000
,
0010
0000
0100
0001
0100
0001
1000
0001
1000
0010
1000
0010
1000
0010
1000
0010
,
1000
0100
0010
0000
0001
0000
0001
0000
0100
0010
0100
0010
0100
0010
0100
0010
,
0100
0001
1000
0000
0010
0000
0010
0000
0100
0001
0100
0001
0100
0001
0100
0001
,
0010
0100
1000
0000
0001
0000
0001
0000
1000
0100
1000
0100
1000
0100
1000
0100
,
1000
0001
0010
0000
0001
0000
0001
0000
0010
0100
0010
0100
0010
0100
0010
0100
,
1000
0001
0010
0000
0100
0000
0100
0000
0010
0001
0010
0001
0010
0001
0010
0001
,
0100
0010
1000
0000
0001
0000
0001
0000
1000
0001
0100
0001
1000
0001
0100
0001
,
1000
0100
0010
0000
0001
0000
1000
0000
0001
1000
0010
1000
0001
1000
0010
1000
,
0001
0000
0000
0000
0100
0000
0000
0000
1000
0000
0000
0000
0001
0000
0000
0000
0010
0000
0000
0000
1000
0000
0000
0000
0001
0000
0000
1000
0000
0000
0100
0000
0000
0000
0000
0000
2200
0000
0000
0000
0000
0000
0000
0000
0000
0000
0000
0000
,
0000
0000
0000
3300
;

//---------------dance-single - ----------------
#NOTES:
     dance-single:
     :
     Hard:
     11:
     0.477496,0.503514,0.219023,0.076182,0.128557,351.000000,328.000000,23.000000,8.000000,0.000000,0.000000,0.477496,0.503514,0.219023,0.076182,0.128557,351.000000,328.000000,23.000000,8.000000,0.000000,0.000000:
0000
0000
0000
0000
,
0000
0000
0000
0000
,
0000
0000
0000
0000
,
0000
0000
0000
0000
0000
0000
0000
0100
,
0001
0010
0100
1000
1100
0000
0011
0000
,
1000
0000
0100
0010
0000
0000
0001
0000
0011
0000
0000
0000
1100
0000
0000
0000
,
0001
0000
0100
0000
0000
0000
1000
0000
0100
0000
0001
1000
0000
0000
1010
0000
,
0000
0000
0101
0000
0000
0000
0000
0000
0000
0000
0000
0000
0001
1000
0001
1000
,
0001
0000
0010
0001
0000
0000
1000
0000
0010
0000
1000
0010
0000
0000
0000
0000
,
0001
0000
0100
0001
0000
0000
1000
0000
0100
0000
1000
0100
0000
0000
0000
0000
,
1000
0010
0001
0010
1000
0001
0000
0001
,
1000
0000
0000
0000
0000
0000
0000
0000
0010
0100
0000
0000
0110
0000
0000
0000
,
1000
0100
0001
0000
1000
0100
0001
0100
,
1000
0000
1001
0000
0110
0000
0010
0100
,
0001
0010
1000
0010
0001
0000
1001
0000
,
0001
0000
0010
0000
1000
0000
0010
0000
0001
0000
0000
0000
0001
1000
0001
1000
,
0002
0000
0003
0000
0001
0100
1000
0100
,
0002
0000
0003
0100
0010
0000
1001
0000
,
0101
0000
0000
0000
1000
0010
0001
0010
,
1000
0100
0001
0100
1000
0001
0000
0001
,
1000
0000
0000
0001
0100
1000
0100
0001
,
1000
0010
0001
0020
0000
1030
0000
0000
,
0000
0000
0000
0000
0000
0000
0000
0000
0100
0000
0010
0000
0100
0010
0100
0010
,
0100
0010
0000
0000
0000
0000
0000
0000
,
0010
0000
0100
0000
0000
0000
0000
0000
1000
0000
0001
0000
1000
0001
0000
0000
,
1010
0000
0101
0000
,
0001
0010
0100
0000
1000
0100
0001
0100
,
1000
0000
0100
1000
0000
0000
0001
0000
0010
0000
0001
0010
0000
0000
0000
0000
,
0001
0000
0100
0001
0000
0000
1000
0000
0010
0000
1000
0010
0000
0000
0000
0000
,
1000
0000
0010
0000
0100
0000
0001
0000
1000
0000
0001
0100
0000
0000
0101
0000
,
0000
1010
0000
0000
0000
0001
1000
0001
,
1000
0000
0100
1000
0000
0000
0001
0000
0100
0000
0001
0100
0000
0000
0000
0000
,
1000
0000
0010
1000
0000
0000
0001
0000
0010
0000
0001
0000
0010
0000
0000
0000
,
0001
0100
1000
0100
0001
0100
1000
0100
,
0000
0001
1000
0001
1000
0000
1001
0000
,
0002
0000
0003
0000
0001
0010
1000
0010
,
0001
0000
1001
0000
0110
0000
0100
0010
,
1000
0100
0001
0100
1000
0000
1001
0000
,
1000
0100
0001
0100
1000
0000
0000
0000
,
2000
0000
3000
0000
1000
0010
0001
0010
,
1000
0010
0100
1001
,
1010
0000
0000
0000
0001
0100
1000
0100
,
0001
0010
1000
0010
0001
1000
0000
1000
,
0001
0000
0000
1000
0010
0001
0010
1000
,
0001
0100
1000
0200
0000
0301
0000
0000
,
1000
0100
0001
0100
1000
0100
0001
0100
,
1000
0000
0000
0010
0000
0000
1000
0000
0100
0000
0000
0001
0000
0000
0100
0000
,
1000
0100
0010
0001
1000
0001
1000
0001
,
0100
0000
0010
0000
0000
1000
0000
0000
0010
0000
0000
0100
0000
0000
0001
0000
,
0010
0100
0001
0100
1000
0010
0100
0001
,
1000
0010
1000
0000
0100
0001
0100
1000
,
0001
0010
0001
0000
0100
1000
0100
0001
,
1000
0010
1000
0000
0100
0001
0100
1000
,
0001
0010
0001
0000
0100
1000
0100
0001
,
1000
0100
1000
0000
0010
0001
0010
1000
,
0001
0100
0001
0000
0010
1000
0010
0001
,
1000
0100
1000
0000
0010
0001
0010
1000
,
0001
0000
0000
0000
0000
0000
0000
0000
1000
0001
1000
0000
2002
0000
0000
0000
,
0000
0000
0000
3003
;

//---------------dance-single - ----------------
#NOTES:
     dance-single:
     :
     Medium:
     8:
     0.363224,0.391622,0.114273,0.152364,0.000000,267.000000,255.000000,12.000000,16.000000,0.000000,0.000000,0.363224,0.391622,0.114273,0.152364,0.000000,267.000000,255.000000,12.000000,16.000000,0.000000,0.000000:
0000
0000
0000
0000
,
0000
0000
0000
0000
,
0000
0000
0000
0000
,
0000
0000
0000
0000
0000
0000
0000
0100
,
1000
0100
1000
0000
0001
0000
0001
0000
,
1000
0100
1000
0000
0001
0000
0001
0000
,
0100
0001
0100
0000
0010
0000
0010
0200
,
0000
0302
0000
0003
0000
0000
0001
1000
,
0001
0010
0001
0000
1000
0000
1000
0000
,
0001
0010
0001
0000
1000
0000
1000
0000
,
0010
0100
0001
0000
0010
0100
0000
0100
,
0010
0000
0001
1000
,
1010
0000
0000
0000
1000
0010
1000
0100
,
2000
3200
0320
0030
,
0001
0010
0100
0000
1000
0000
0001
0000
,
1000
0100
0010
0000
0001
0000
1000
0000
,
1001
0000
0000
0000
0001
0010
0001
0100
,
0002
0000
0003
0010
0200
0000
1300
0000
,
1100
0000
0000
0000
1000
0001
1000
0000
,
0001
1000
0001
0000
1000
0001
0000
0100
,
0010
0000
0000
0000
0100
0010
0100
0000
,
0010
0100
0010
0100
0000
1001
0000
0000
,
0000
0000
0000
0000
,
1000
1000
0001
0000
0001
0000
0001
0000
,
0001
0001
1000
0000
1000
0000
1000
0000
,
1000
1000
0001
0000
1000
0000
0001
0000
,
1000
0100
0010
0000
0001
0010
0100
0000
,
1000
0010
1000
0000
1000
0100
1000
0000
,
0001
0010
0001
0000
0001
0100
0001
0000
,
0100
0010
0100
0000
0010
1000
0010
0100
,
0000
0101
0000
0000
0000
0000
0010
0000
,
1000
0100
0010
0000
0001
0010
0100
0000
,
1000
0010
0100
0000
0001
0100
0010
0000
,
1000
0001
0100
0000
0001
1000
0100
0010
,
0000
0110
0000
0000
0000
0000
0000
0000
,
1100
0000
0000
0000
0010
0001
0010
0100
,
0020
0032
2003
3010
,
0100
0000
0010
0100
0010
0000
1000
0000
,
0010
0000
0100
0001
0010
0000
0000
0000
,
0110
0000
0000
0000
0100
1000
0100
0010
,
0200
2300
3020
0130
,
0101
0000
0000
0000
0001
1000
0001
1000
,
0001
0000
0100
0000
0001
1000
0000
0000
,
1001
0000
0000
0000
1000
0001
1000
0001
,
1000
0000
0010
0100
0000
0110
0000
0000
,
1000
0100
0001
0100
,
1000
0010
0100
0000
0001
0010
0100
0000
,
1000
0000
0010
0100
0001
0000
1000
0000
,
0001
0200
0000
0000
0000
0000
0000
0000
,
0310
1000
0010
0000
0100
0001
0100
0001
,
0100
0000
0000
0000
0010
1000
0010
1000
,
0010
0000
0000
0000
1000
0001
1000
0001
,
1000
0000
0000
0000
0001
0100
0001
0100
,
0001
0000
0000
0000
0010
0100
0010
0100
,
0010
0000
0000
0000
0100
1000
0100
1000
,
0100
0000
0000
0000
1000
0100
0001
0100
,
1000
0000
0000
0000
0001
0100
1000
0100
,
0001
0000
0000
0000
1000
0100
0022
0000
,
0000
0000
0000
0033
;

//---------------dance-single - ----------------
#NOTES:
     dance-single:
     :
     Beginner:
     2:
     0.111552,0.137484,0.009523,0.009523,0.000000,82.000000,81.000000,1.000000,1.000000,0.000000,0.000000,0.111552,0.137484,0.009523,0.009523,0.000000,82.000000,81.000000,1.000000,1.000000,0.000000,0.000000:
// measure 0
0000
0000
0000
0000
,  // measure 1
0000
0000
0000
0000
,  // measure 2
0000
0000
0000
0000
,  // measure 3
0000
0000
0000
0000
,  // measure 4
0001
0000
0010
0000
,  // measure 5
0100
0000
0010
0000
,  // measure 6
0001
0000
0000
0000
,  // measure 7
0001
0000
0000
0000
,  // measure 8
1000
0000
0010
0000
,  // measure 9
0100
0000
0010
0000
,  // measure 10
1000
0000
0000
0000
,  // measure 11
1000
0000
0000
0000
,  // measure 12
0010
0000
1000
0000
,  // measure 13
0001
0000
1000
0000
,  // measure 14
0010
0000
0000
0000
,  // measure 15
0010
0000
0000
0000
,  // measure 16
0100
0000
0001
0000
,  // measure 17
1000
0000
0001
0000
,  // measure 18
0100
0000
0000
0000
,  // measure 19
0100
0000
0000
0000
,  // measure 20
0010
0000
0000
0000
,  // measure 21
0010
0000
0000
0000
,  // measure 22
0000
0000
1000
1000
,  // measure 23
1000
0000
0000
0000
,  // measure 24
0001
0000
0000
0000
,  // measure 25
1000
0000
0001
0000
,  // measure 26
1000
0000
1000
0000
,  // measure 27
0010
0000
0100
0000
,  // measure 28
0001
0000
0100
0000
,  // measure 29
0010
0000
0000
0000
,  // measure 30
0010
0000
0000
0000
,  // measure 31
0100
0000
0010
0000
,  // measure 32
1000
0000
0010
0000
,  // measure 33
0100
0000
0000
0000
,  // measure 34
0100
0000
0000
0000
,  // measure 35
0001
0000
1000
0000
,  // measure 36
0010
0000
1000
0000
,  // measure 37
0001
0000
0000
0000
,  // measure 38
0001
0000
0000
0000
,  // measure 39
1000
0000
0001
0000
,  // measure 40
0010
0000
0001
0000
,  // measure 41
1000
0000
0000
0000
,  // measure 42
0001
0000
0000
0000
,  // measure 43
1000
0000
0000
0000
,  // measure 44
0001
0000
0000
0000
,  // measure 45
0200
0000
0300
0000
,  // measure 46
0100
0000
0000
0000
,  // measure 47
0100
0000
0000
0000
,  // measure 48
0010
0000
0000
0000
,  // measure 49
0010
0000
0000
0000
,  // measure 50
0001
0000
1000
0000
,  // measure 51
1000
0000
0001
0000
,  // measure 52
0001
0000
1000
0000
,  // measure 53
1000
0000
0001
0000
,  // measure 54
0001
0000
1000
0000
,  // measure 55
1000
0000
0001
0000
,  // measure 56
0001
0000
1000
0000
,  // measure 57
1000
0000
0000
1001
;

//---------------dance-single - ----------------
#NOTES:
     dance-single:
     :
     Easy:
     5:
     0.223104,0.279730,0.133318,0.133318,0.000000,164.000000,150.000000,14.000000,14.000000,0.000000,0.000000,0.223104,0.279730,0.133318,0.133318,0.000000,164.000000,150.000000,14.000000,14.000000,0.000000,0.000000:
0000
0000
0000
0000
,
0000
0000
0000
0000
,
0000
0000
0000
0000
,
0000
0000
0000
0000
,
0010
0100
1000
0000
,
0010
0100
0001
0000
,
1000
0000
0001
0100
,
0010
0000
0000
0000
,
1000
0100
0010
0000
,
0001
0010
0100
0000
,
1000
0000
0010
0100
,
0001
0000
1000
0001
,
1001
0000
0001
0010
,
0100
0100
1000
0000
,
0001
0010
0100
1000
,
0001
1000
0001
0000
,
1001
0000
1000
0100
,
0020
0030
0010
0001
,
1001
0000
1000
0100
,
0010
0001
0001
0000
,
1001
0000
0001
0010
,
0100
1000
1000
0000
,
0000
0000
0010
0010
,
0010
0000
0000
0000
,
0110
0000
0000
0000
,
0101
0000
1010
0000
,
1001
0000
0020
0000
,
0031
0010
0100
0000
,
1000
0100
0010
0000
,
0001
0100
1000
0100
,
0001
0000
0000
0000
,
1000
0010
0100
0000
,
0001
0100
0010
0000
,
1000
0100
0001
0100
,
1000
0000
0000
0000
,
1001
0000
0001
0010
,
0100
0100
0010
0001
,
1000
0000
0001
0000
,
1000
0001
1000
0000
,
1001
0000
1000
0010
,
0100
0100
0010
1000
,
1001
0000
0010
0100
,
0010
0010
0100
0000
,
1001
0000
0100
0010
,
0100
0100
0010
0000
,
2000
0000
0000
0000
,
3001
0010
0001
1000
,
0002
0000
0203
0000
,
0310
0000
1010
0000
,
1000
0000
0100
0010
,
0002
0000
0103
0010
,
2000
0000
3001
1000
,
0020
0000
1030
0001
,
0200
0000
0310
0100
,
0002
0000
0103
0010
,
2000
0000
3100
0010
,
0002
0000
0103
0010
,
0100
0000
0010
0202
,
0000
0000
0000
0303
;

//---------------dance-double - ----------------
#NOTES:
     dance-double:
     :
     Easy:
     5:
     0.206779,0.247472,0.085704,0.009523,0.000000,152.000000,143.000000,9.000000,1.000000,0.000000,0.000000,0.206779,0.247472,0.085704,0.009523,0.000000,152.000000,143.000000,9.000000,1.000000,0.000000,0.000000:
00000000
00000000
00000000
00000000
,
00000000
00000000
00000000
00000000
,
00000000
00000000
00000000
00000000
,
00000000
00000000
00000000
00000000
,
10000000
01000000
00100000
00000000
,
01000000
00100000
00001000
00000000
,
00010000
00000000
00000100
00000000
,
00000010
00000000
00000000
00000001
,
00000001
00000100
00000010
00000000
,
00000100
00000010
00010000
00000000
,
00001000
01000000
00100000
00000000
,
00000000
00000000
10000000
00000000
,
10010000
00000000
10000000
01000000
,
00010000
00001000
00000100
00000000
,
00000001
00001000
00000001
00000000
,
00001000
00000001
00001000
00000000
,
00001001
00000000
00000001
00000100
,
00001000
00000000
00010000
01000000
,
10000000
00000000
00100000
01000000
,
00100000
00000000
00100000
00000000
,
01100000
00000000
01000000
00000000
,
01000000
00000000
01100000
00000000
,
00000000
00000000
10000000
10000000
,
10000000
00000000
00000000
00000000
,
01100000
00000000
00000000
00000000
,
01000000
00000000
00001000
00000000
,
00010000
00000000
00000020
00000000
,
00000130
00000001
00001000
00000000
,
00000100
00010000
00001000
00000000
,
01000000
00010000
10000000
00000000
,
00000000
00000000
00000000
00100000
,
00100000
10000000
00010000
00000000
,
00100000
00001000
00010000
00000000
,
00000010
00001000
00000001
00001000
,
00000010
00000000
00000000
00000000
,
00001001
00000000
00000001
00000100
,
00001000
00010000
01000000
10000000
,
00010000
10000000
00010000
00000000
,
10000000
00010000
10000000
00000000
,
10010000
00000000
10000000
01000000
,
00010000
00001000
00000100
00000001
,
00001000
00000000
00000010
00000100
,
00000010
00000000
00000010
00000000
,
00000100
00000000
00000100
00000000
,
00000100
00000000
00000110
00000000
,
00000001
00000001
00000001
00000001
,
00000001
00000100
00001000
00000000
,
00010000
01000000
10000000
00000000
,
00100000
00000000
00100000
00000000
,
00100000
00000000
10000000
00010000
,
10000000
00000000
00010000
00100000
,
00010000
00000000
01000000
00001000
,
01000000
00000000
00001000
00010000
,
00001000
00000000
00010000
00000100
,
00010000
00000000
00000010
00000100
,
00000010
00000000
00000100
00000001
,
00000100
00000000
00000010
00001000
,
00000100
00000000
00000000
00011000
;

//---------------dance-double - ----------------
#NOTES:
     dance-double:
     :
     Medium:
     7:
     0.316971,0.357459,0.123795,0.095227,0.000000,233.000000,220.000000,13.000000,10.000000,0.000000,0.000000,0.316971,0.357459,0.123795,0.095227,0.000000,233.000000,220.000000,13.000000,10.000000,0.000000,0.000000:
00000000
00000000
00000000
00000000
,
00000000
00000000
00000000
00000000
,
00000000
00000000
00000000
00000000
,
00000000
00000000
00000000
00000000
,
10000000
00100000
10000000
00010000
10000000
00000000
00100000
00000000
,
10000000
00100000
10000000
00010000
10000000
00000000
00100000
00000000
,
01000000
00100000
00010000
00001000
,
00000010
00000000
00000000
00000000
,
00000001
00000010
00000001
00001000
00000001
00000000
00000010
00000000
,
00000001
00000010
00000001
00001000
00000001
00000000
00000010
00000000
,
00001000
00010000
00100000
10000000
,
00010000
00000000
10010000
01010000
,
10010000
00000000
00000000
00000000
10000000
01000000
00010000
00000000
,
00001000
00000100
00000001
00000000
,
00000100
00000010
00000100
00000000
00000010
00000000
00000010
00000000
,
00001000
00000010
00001000
00000000
00000001
00000000
00000000
00000000
,
00001001
00000000
00000000
00000000
00000001
00000100
00001000
00000000
,
00010000
00000000
01000000
10000000
,
00100000
00000000
00000000
00000000
10000000
01000000
10000000
00000000
,
00010000
01000000
00010000
00000000
00100000
00001000
00000000
00000000
,
00010000
00000000
00000000
00000000
00000010
00001000
00000010
00000000
,
00000100
00000001
00000100
00000001
00000000
00001000
00000000
00000000
,
00000000
00000000
00000000
00000000
00000010
00000010
00000010
00000000
,
00001001
00000000
00000000
00000000
,
00010100
00000000
00000000
00000000
,
00011000
00000000
01001000
00000000
,
01100000
00000000
00100000
00100000
,
10000000
01000000
10000000
00010000
10000000
00000000
00100000
00000000
,
01000000
00010000
01000000
00100000
01000000
00000000
00100000
00000000
,
00010000
00001000
00000100
00000002
,
00000000
00001003
00000000
00000000
00000000
00000000
00000100
00000000
,
00000001
00000010
00000001
00001000
00000001
00000000
00000100
00000000
,
00000010
00001000
00000010
00000100
00000010
00000000
00000100
00000000
,
00001000
00000000
00010000
00000000
01000000
00000000
10000000
00010000
,
00000000
00010000
00000000
00000000
10000000
00000000
00010000
00000000
,
10010000
00000000
00000000
00000000
10000000
01000000
00010000
00000000
,
00001000
00000100
00000001
00000000
,
00000100
00000010
00000100
00000100
,
00000001
00001000
00000001
00000000
,
00001001
00000000
00000000
00000000
00000001
00000100
00001000
00000000
,
00010000
01000000
10000000
10000000
,
10010000
00000000
00000000
00000000
10000000
00010000
10000000
00000000
,
00100000
01000000
00100000
00000000
01000000
00001000
00000000
00000000
,
00010000
00000000
00000000
00000000
00000100
00001000
00000100
00000000
,
00001000
00000010
00001000
00000001
00000000
00000100
00000000
00000000
,
00000010
00000010
00000010
00000010
,
00001000
00000100
00010000
00001000
,
01000000
00100000
10000000
00100000
,
02000000
00000000
03020000
00000000
,
00030000
00100000
00001000
00010000
,
00000020
00000000
00000000
00000000
00000130
00000010
00000100
00000010
,
00000200
00000000
00000000
00000000
00000310
00001000
00000010
00001000
,
00000020
00000000
00000000
00000000
00010030
00001000
00010000
00001000
,
00020000
00000000
00000000
00000000
00031000
00100000
00001000
00100000
,
00002000
00000000
00000000
00000000
00103000
01000000
00100000
01000000
,
00200000
00000000
00000000
00000000
01300000
10000000
01000000
10000000
,
02000000
00000000
00000000
00000000
13000000
00010000
10000000
00010000
,
10000000
00000000
00010000
00110000
;

//---------------dance-double - ----------------
#NOTES:
     dance-double:
     :
     Hard:
     11:
     0.429883,0.447568,0.228545,0.028568,0.052375,316.000000,292.000000,24.000000,3.000000,0.000000,0.000000,0.429883,0.447568,0.228545,0.028568,0.052375,316.000000,292.000000,24.000000,3.000000,0.000000,0.000000:
00000000
00000000
00000000
00000000
,
00000000
00000000
00000000
00000000
,
00000000
00000000
00000000
00000000
,
00000000
00000000
00000000
00000000
00000000
00000000
00000000
00000001
,
00000010
00000001
00000100
00000001
00001000
00000000
00001001
00000000
,
00000010
00000000
00000100
00000010
00000000
00000000
00000100
00000000
00001000
00000000
00000000
00000000
00010000
00000000
00000000
00000000
,
01000000
00000000
10000000
00000000
00000000
00000000
10000000
00000000
01000000
00000000
00100000
00010000
00000000
00000000
10000000
00000000
,
00000000
10010000
00000000
00000000
00000000
00000000
01000000
00100000
,
10000000
01000000
10000000
00100000
10000000
00010000
10000000
00000000
,
00100000
00000000
01000000
00100000
00000000
00000000
00010000
00000000
00001000
00000000
00000010
00000000
00000001
00000000
00000000
00000000
,
00000100
00000000
00000001
00000000
00000100
00000000
00000010
00000000
00001000
00000100
00000000
00001000
00000000
00000000
00000010
00000000
,
00000010
00000000
00000000
00000000
00000000
00000000
00000000
00000000
00000100
00000010
00000000
00000000
00000110
00000000
00000000
00000000
,
00001001
00000000
00000000
00000000
00000001
00000100
00000001
00000100
,
00001000
00010000
00100000
00000000
,
10000000
01000000
00010000
01000000
10000000
00000000
10010000
00000000
,
00010000
01000000
10000000
01000000
00010000
00000000
10000000
00010000
,
10010000
00000000
00000000
00000000
10000000
01000000
10000000
01000000
,
00020000
00000000
00030000
00001000
00000010
00000000
00000001
00000000
,
00001001
00000000
00000000
00000000
00000001
00000100
00001000
00000100
,
00000001
00000010
00001000
00000010
00000001
00001000
00000000
00001000
,
00000001
00000000
00000000
00000001
00000100
00001000
00010000
01000000
,
10000000
00010000
10000000
00010000
00000000
10010000
00000000
00000000
,
00000000
00000000
00000000
00000000
01000000
01000000
00100000
00100000
,
10000000
00010000
00000000
00000000
00000000
00000000
00000000
00000000
,
00001000
00000001
00000000
00000000
00000000
00000000
00000000
00000000
,
00000110
00000000
00011000
00000000
,
01100000
00100000
01000000
00000000
10000000
00010000
01000000
00100000
,
10000000
01000000
00010000
00000000
00001000
00000010
00000001
00000000
,
00000001
00000100
00001000
00000000
00010000
00100000
10000000
00000000
,
00100000
01000000
00100000
10000000
00100000
01000000
00010000
00100000
,
00000000
00011000
00000000
00000000
00000000
00000000
00000010
00001000
,
00000001
00000100
00001000
00000000
00010000
00100000
10000000
00000000
,
10000000
01000000
00010000
00000000
00001000
00000010
00000001
00000000
,
00000100
00000000
00000010
00000000
00000100
00000000
00000001
00000000
00000100
00000000
00000010
00001000
00000000
00000000
00000001
00000000
,
00000000
00001000
00000010
00000010
00001000
00000100
00000100
00000000
,
00000011
00000000
00000000
00000000
00000001
00000100
00000001
00000100
,
00001000
00000000
00010000
00000000
00100000
00000000
10000000
00010000
,
10010000
00100000
01100000
10010000
,
10000000
01000000
00010000
01000000
10000000
00000000
00000000
00000000
,
10010000
00000000
00000000
00000000
10000000
01000000
10000000
01000000
,
00010000
00001000
00000010
00000001
,
00001001
00000000
00000000
00000000
00000100
00000010
00001000
00000001
,
00000100
00000001
00001000
00000010
00000100
00001000
00000000
00010000
,
01000000
00000000
00000000
10000000
00100000
10000000
00100000
01000000
,
00010000
00100000
00010000
00100000
00000000
00110000
00000000
00000000
,
00001000
00010000
00001000
00010000
00000100
00010000
00000100
00000010
,
00000001
00000000
00000100
00000000
00000000
00000001
00000000
00000000
00000100
00000000
00000000
00000010
00000000
00000000
00001000
00000000
,
00000100
00000000
00000010
00001000
00010000
00000000
00100000
10000000
,
00010000
00000000
01000000
00000000
00000000
00100000
00000000
00000000
01000000
00000000
00000000
00100000
00000000
00000000
01000000
00000000
,
00010000
00100000
10000000
00100000
00010000
01000000
00010000
01000000
,
01010000
00000000
00000000
00000000
01000000
00100000
01000000
00100000
,
01100000
00000000
00000000
00000000
00001000
00010000
00001000
00010000
,
00011000
00000000
00000000
00000000
00010000
00000100
00010000
00000100
,
00010100
00000000
00000000
00000000
00000010
00000001
00000010
00000001
,
00000011
00000000
00000000
00000000
00000001
00000100
00001000
00010000
,
01000000
00000000
00000000
00000000
10000000
01000000
00010000
00001000
,
00000100
00000000
00000000
00000000
00000001
00001000
00000001
00001000
,
00000002
00000000
00000000
00000000
00000103
00001000
00020000
00000000
,
00000000
00000000
00000000
00030000
;

//---------------dance-double - ----------------
#NOTES:
     dance-double:
     :
     Challenge:
     16:
     0.857045,0.895136,0.133318,0.028568,1.104636,630.000000,616.000000,14.000000,3.000000,0.000000,0.000000,0.857045,0.895136,0.133318,0.028568,1.104636,630.000000,616.000000,14.000000,3.000000,0.000000,0.000000:
00000000
00000000
00000000
00000000
,
00000000
00000000
00000000
00000000
,
00000000
00000000
00000000
00000000
,
10000000
01000000
00010000
00000000
01000000
00000000
01000000
00000000
10000000
01000000
00010000
01000000
10000000
01000000
00010000
01000000
,
10000000
00000000
01000000
00100000
00000000
00010000
01000000
00000000
00100000
00000000
00010000
00001000
00000000
00000100
00000001
00000000
,
00001000
00000000
00000010
00000100
00000000
00001000
00010000
00000000
01000000
00000000
10000000
00010000
00000000
10000000
00010000
00000000
,
10000000
00000000
00010000
00100000
00000000
01000000
00010000
00000000
00001000
00000000
00000100
00000001
00000000
00000010
00000100
00000000
,
00001000
00000000
00000010
00000100
00000000
00001000
00010000
00000000
00001000
00000000
00000100
00000000
00000001
00001000
00000001
00001000
,
00000001
00000000
00000100
00001000
00000000
00010000
01000000
00000000
00010000
00000000
00001000
00010000
00000000
00100000
10000000
00000000
,
00100000
00000000
01000000
00100000
00000000
00010000
00001000
00000000
00000010
00000000
00000001
00001000
00000000
00000001
00001000
00000000
,
00000010
00000000
00000100
00001000
00000000
00010000
01000000
00000000
00010000
00000000
00001000
00010000
00000000
01000000
10000000
00000000
,
00100000
00000000
01000000
00100000
00000000
00010000
00100000
00000000
10000000
00010000
00000000
00000000
10010000
00000000
00000000
00000000
,
10000000
00000000
01000000
00100000
00010000
00100000
01000000
00000000
10000000
00000000
00100000
01000000
00010000
01000000
00100000
00000000
,
10000000
00000000
01000000
00100000
00010000
00100000
01000000
00000000
00100000
00000000
00010000
00001000
00000000
00000010
00000001
00000000
,
00001000
00000000
00000100
00000010
00000001
00000010
00000100
00000000
00001000
00000000
00000010
00000100
00000001
00000100
00000010
00000000
,
00001000
00000000
00000100
00000010
00000001
00000010
00000100
00000000
00001000
00000000
00000001
00000000
00001000
00000001
00001000
00000001
,
00000100
00000000
00000010
00001000
00000100
00001000
00000010
00000000
00000100
00000000
00000001
00001000
00000100
00001000
00000001
00000000
,
00000100
00000000
00000010
00001000
00000100
00001000
00000010
00000000
00000100
00000000
00001000
00010000
00000000
01000000
10000000
00000000
,
00100000
00000000
01000000
00010000
00100000
00010000
01000000
00000000
00100000
00000000
10000000
00010000
01000000
00010000
10000000
00000000
,
00100000
00000000
01000000
00010000
00100000
00010000
01000000
00000000
00100000
00000000
00100000
00000000
10000000
00010000
00000000
00000000
,
10000000
00000000
01000000
00010000
00001000
00000100
00000001
00000000
00001000
00000000
00000010
00000000
00000010
00001000
00000000
00000000
,
00000001
00000000
00000100
00000000
00000100
00000001
00000000
00000000
00001001
00000000
00000000
00000000
00000000
00000000
00000000
00000000
,
00000010
00000000
00000100
00000000
00000010
00001000
00000000
00000000
00001001
00000000
00001001
00000000
00000001
00001000
00000001
00001000
,
00000001
00000000
00000110
00000000
00000010
00001000
00000010
00000100
00000010
00001000
00000010
00000100
00000010
00001000
00000010
00000100
,
00001000
00000000
00011000
00000000
01000000
10000000
01000000
00100000
01000000
10000000
01000000
00100000
02000000
00000000
00000000
00000000
,
03100000
00000000
00011000
00000000
00001000
00000010
00000001
00000100
00000001
00000010
00000001
00000100
00000001
00001000
00000010
00000100
,
00000001
00000010
00001000
00010000
00100000
10000000
00010000
10000000
00100000
01000000
00100000
01000000
00100000
01000000
00100000
01000000
,
00010000
00000000
01000000
00100000
00000000
00010000
00100000
00000000
01000000
00000000
00010000
00100000
00000000
01000000
00010000
00000000
,
00001000
00000000
00000010
00000001
00000000
00000100
00000010
00000000
00001000
00000000
00000010
00000100
00000000
00001000
00010000
00000000
,
00100000
00000000
10000000
01000000
00000000
00010000
00001000
00000000
00000010
00000000
00000001
00001000
00000000
00000010
00000100
00000000
,
00000001
00000000
00001000
00000010
00000000
00000100
00001000
00000000
00000100
00000000
00000001
00000000
00000010
00000100
00000010
00000100
,
00000010
00000000
00000001
00000100
00000000
00000010
00000001
00000000
00000010
00000000
00001000
00000100
00000000
00000010
00001000
00000000
,
00010000
00000000
00100000
10000000
00000000
01000000
00100000
00000000
00010000
00000000
01000000
00100000
00000000
00010000
00100000
00000000
,
10000000
00000000
01000000
00010000
00000000
00001000
00000100
00000000
00000001
00000000
00001000
00000010
00000000
00000100
00000001
00000000
,
00000010
00000000
00001000
00000000
00000010
00000001
00000010
00000001
00000010
00000000
00000001
00000000
00000001
00000000
00000000
00000000
,
00001000
00000000
00000001
00000010
00000100
00000010
00000001
00000000
00001000
00000000
00000010
00000100
00000001
00000100
00000010
00000000
,
00001000
00000000
00000001
00000010
00000100
00000010
00000001
00000000
00000100
00000000
00001000
00010000
00000000
01000000
10000000
00000000
,
00010000
00000000
10000000
01000000
00100000
01000000
10000000
00000000
00010000
00000000
01000000
00100000
10000000
00100000
01000000
00000000
,
00010000
00000000
10000000
01000000
00100000
01000000
10000000
00000000
00010000
01000000
00010000
00000000
10000000
00000000
10000000
00000000
,
00100000
00000000
01000000
00010000
10000000
00010000
01000000
00000000
00100000
00000000
10000000
01000000
00100000
01000000
10000000
00000000
,
00100000
00000000
01000000
00010000
10000000
00010000
01000000
00000000
00100000
00000000
00010000
00001000
00000000
00000010
00000001
00000000
,
00000100
00000000
00000010
00001000
00000001
00001000
00000010
00000000
00000100
00000000
00000001
00000010
00000100
00000010
00000001
00000000
,
00000100
00000000
00000010
00001000
00000001
00001000
00000010
00000000
00000100
00000000
00000100
00000000
00000010
00001000
00000010
00001000
,
00000010
00000000
00000100
00000000
00000000
00000000
00001001
00000000
00000010
00000100
00000010
00000100
00000010
00000100
00000010
00000100
,
00000010
00001000
00000000
00000000
00000001
00000100
00000000
00001000
00010000
00000000
00000000
00000000
01000000
00000000
00000000
00000000
,
10000000
01000000
00100000
00010000
10000000
01000000
00100000
00010000
10000000
01000000
00100000
00010000
10000000
01000000
00100000
00000000
,
00010000
00000000
01000000
00010000
00000000
00010000
01000000
00000000
00100000
00010000
00000000
00010000
00001000
00000000
00000010
00000000
,
00000001
00000000
00001000
00000010
00001000
00000010
00001000
00000010
00001000
00000000
00000001
00000100
00000001
00000100
00000001
00000100
,
00000001
00000000
00000101
00000000
00000000
00001100
00000000
00000000
00011000
00000000
00000000
01010000
00000000
00000000
11000000
00000000
,
00010000
00000000
01000000
00010000
10000000
00010000
01000000
00100000
10000000
01000000
10000000
01000000
10000000
01000000
10000000
01000000
,
00100000
00010000
01000000
00000000
00100000
00000000
01000000
00000000
00001000
00010000
00001000
00010000
00001000
00010000
00001000
00010000
,
00000100
00001000
00000010
00000000
00000100
00000000
00000001
00000000
00001000
00000010
00001000
00000010
00001000
00000010
00001000
00000010
,
00000100
00000001
00000010
00000000
00000100
00000000
00001000
00000000
00000001
00001000
00000001
00001000
00000001
00001000
00000001
00001000
,
00000010
00010000
00001000
00000000
00100000
00000000
00010000
00000000
01000000
00010000
01000000
00010000
01000000
00010000
01000000
00010000
,
10000000
00100000
01000000
00000000
00010000
00000000
10000000
00000000
00100000
01000000
00100000
01000000
00100000
01000000
00100000
01000000
,
00100000
10000000
00010000
00000000
10000000
00000000
01000000
00000000
00100000
00010000
00100000
00010000
00100000
00010000
00100000
00010000
,
01000000
00001000
00010000
00000000
00000100
00000000
00001000
00000000
00000001
00001000
00000001
00001000
00000001
00001000
00000001
00001000
,
00000001
00000000
00000000
00000000
00000100
00000000
00000000
00000000
00001000
00000000
00000000
00000000
00010000
00000000
00000000
00000000
01000000
00000000
00000000
00000000
10000000
00000000
00000000
00000000
00010000
00000000
00000000
10000000
00000000
00000000
00010000
00000000
00000000
00000000
00000000
00000000
20020000
00000000
00000000
00000000
00000000
00000000
00000000
00000000
00000000
00000000
00000000
00000000
,
00000000
00000000
00000000
30030000
;
