#TITLE:Bury It;
#SUBTITLE:;
#ARTIST:CHVRCHES;
#TITLETRANSLIT:;
#SUBTITLETRANSLIT:;
#ARTISTTRANSLIT:;
#GENRE:Pop;
#CREDIT:;
#BANNER:buryit-bn.png;
#BACKGROUND:buryit-bg.png;
#LYRICSPATH:;
#CDTITLE:;
#MUSIC:Bury It.ogg;
#OFFSET:0.010000;
#SAMPLESTART:61.939999;
#SAMPLELENGTH:13.000004;
#SELECTABLE:YES;
#BPMS:0.000000=100.000000
;
#STOPS:
;
#BGCHANGES:;
#KEYSOUNDS:;
#ATTACKS:;

//---------------dance-single - ----------------
#NOTES:
     dance-single:
     :
     Hard:
     12:
     0.483749,0.481746,0.158730,0.063492,0.682540,320.000000,305.000000,15.000000,6.000000,0.000000,0.000000,0.483749,0.481746,0.158730,0.063492,0.682540,320.000000,305.000000,15.000000,6.000000,0.000000,0.000000:
0000
0000
0000
0000
,
0000
0000
0000
0000
,
0000
0000
1000
0100
0000
0100
1000
0000
0000
0000
0001
0010
0000
0010
0001
0000
,
0000
0000
1000
0100
0000
0100
1000
0000
0010
0000
0100
0000
0001
0000
1000
0000
,
0000
0000
0010
1000
0000
1000
0010
0000
0000
0000
0100
0001
0000
0001
0100
0000
,
0000
0000
0010
1000
0000
1000
0010
0000
0100
0010
0100
0010
1000
0000
0100
0000
,
1000
0000
0000
0010
0100
0010
0000
1000
0000
1000
0001
0000
0000
0000
0000
0001
,
0010
0000
0000
0001
0100
0000
0000
0001
1000
0000
0000
0010
0100
0000
0010
0000
,
1000
0000
0001
0000
0100
0000
0001
0000
1000
0000
1000
0000
1000
0000
0000
1000
,
0100
0000
0000
1000
0010
0000
0000
1000
0001
0000
0000
0100
0010
1000
0100
0010
,
0002
0013
1010
0011
,
2000
3010
0011
1010
,
1000
0100
1000
0000
0001
0000
0100
0001
0000
0000
0000
0000
1001
0000
0000
0000
,
0001
0010
0001
0000
1000
0000
0010
1000
0000
0000
1000
0100
0000
0000
0010
0000
,
0002
0103
1100
0101
,
2000
3100
0101
1100
,
1000
0100
1000
0000
0001
0000
0100
0001
0000
0000
0000
0000
1001
0000
0000
0000
,
0001
0010
0001
0000
1000
0000
0010
1000
0010
0000
0000
0100
0000
0000
0001
0000
,
1000
0000
0010
0100
0000
0010
0100
0000
0000
0000
0010
1000
0000
0010
1000
0000
,
0000
0000
0010
0100
0000
0010
0100
0000
0000
0000
0001
0010
0000
0100
1000
0000
,
0000
0000
0100
0010
0000
0100
0010
0000
0000
0000
0100
0001
0000
0100
0001
0000
,
0000
0000
0100
0010
0000
0100
0010
0000
0000
0000
1000
0100
0000
0010
0001
0000
,
1000
0010
0000
1000
0010
1000
0000
0010
1000
0010
0000
1000
0010
0000
0000
0000
,
0100
0001
0000
0100
0001
0100
0000
0001
0100
0001
0000
0100
0001
0100
0010
0100
,
0001
0010
0000
0001
0010
0001
0000
0010
0001
0010
0000
0001
0010
0000
0000
0000
,
0100
1000
0000
0100
1000
0100
0000
1000
0100
1000
0000
0100
1000
0001
1000
0001
,
2000
3010
0011
1010
,
0002
0013
1010
0011
,
0001
0100
0001
0000
1000
0000
0010
1000
0000
0000
0000
0000
1001
0000
0000
0000
,
1000
0010
1000
0000
0001
0000
0100
0001
0100
0000
0000
0010
0000
0000
1000
0000
,
0001
0000
1000
0100
0000
1000
0100
0000
1000
0000
0001
0010
0000
0001
0010
0000
,
0001
0000
0100
0010
0000
0100
0010
0000
1000
0000
0001
0010
0000
0100
1000
0000
,
0001
0000
0100
0001
0000
0100
0001
0000
1000
0000
0010
0100
0000
0010
0100
0000
,
0001
0000
1000
0100
0000
1000
0100
0000
0010
0000
0100
1000
0000
1000
0001
0000
,
0010
0001
0000
0010
0001
0010
0000
0001
0010
0001
0000
0010
0001
0000
0010
0000
,
0100
0010
0000
0100
0010
0100
0000
0010
0100
0010
0000
0100
0010
0000
0100
0000
,
1000
0100
0000
1000
0100
1000
0000
0100
1000
0100
0000
1000
0100
0000
1000
0000
,
0001
1000
0000
0001
1000
0001
0000
1000
0001
1000
0000
0001
1000
0010
1000
0010
;

//---------------dance-single - ----------------
#NOTES:
     dance-single:
     :
     Medium:
     7:
     0.343159,0.360714,0.486772,0.042328,0.000000,227.000000,181.000000,46.000000,4.000000,0.000000,0.000000,0.343159,0.360714,0.486772,0.042328,0.000000,227.000000,181.000000,46.000000,4.000000,0.000000,0.000000:
0000
0000
0000
0000
,
0000
0000
0000
0000
,
0000
0000
0010
1000
0000
0000
0010
1000
,
0000
0000
0010
1000
0100
0100
0010
0001
,
0000
0000
0100
0001
0000
0000
0100
0001
,
0000
0000
0100
0001
0010
0010
0100
1000
,
0000
0000
0001
1000
0001
0010
0000
0000
,
1100
0000
0011
0000
1100
0000
0010
0100
,
0010
0000
1000
0001
0100
0100
0001
0000
,
0101
0000
1010
0000
0101
0000
0010
1000
,
0200
1300
1010
0101
,
0200
0301
0011
1100
,
0001
0010
0001
1000
0001
0000
1010
0000
,
0001
0010
0001
1000
0001
0000
1100
0000
,
1000
0000
0010
0100
0001
0001
1000
0000
,
0011
0000
0100
1000
0010
0010
1000
0000
,
1000
0100
1000
0010
1000
0000
0011
0000
,
1000
0100
1000
0010
1000
0000
0101
0000
,
1001
0000
0001
0010
0000
0000
0001
0100
,
0000
0000
0001
0010
0100
1000
1000
0000
,
0000
0000
1000
0010
0000
0000
1000
0100
,
0000
0000
1000
0010
0100
0001
0001
0000
,
1001
0000
0110
0000
1001
0000
0010
1000
,
1010
0000
0101
0000
1010
0000
1000
0100
,
1100
0000
0011
0000
1100
0000
0001
0100
,
0101
0000
1010
0000
0101
0000
0001
1000
,
0002
0013
0101
1001
,
2000
3100
1010
1001
,
0010
0100
0010
1000
0010
0000
1001
0000
,
0010
0001
0010
0100
0010
0000
1001
0000
,
0000
0000
0100
0010
0000
0000
0100
0001
,
0000
0000
0100
0010
1000
0001
0001
0000
,
0000
0000
1000
0010
0000
0000
1000
0100
,
0000
0000
1000
0010
0100
0001
0001
0000
,
0011
0000
0101
0000
1001
0000
0100
1000
,
1100
0000
1010
0000
1001
0000
0100
0010
,
0110
0000
0101
0000
1010
0000
0001
0010
,
0011
0000
1100
0000
1001
0000
0010
0100
;

//---------------dance-single - ----------------
#NOTES:
     dance-single:
     :
     Beginner:
     1:
     0.077098,0.099868,0.063492,0.000000,0.000000,51.000000,45.000000,6.000000,0.000000,0.000000,0.000000,0.077098,0.099868,0.063492,0.000000,0.000000,51.000000,45.000000,6.000000,0.000000,0.000000,0.000000:
0000
0000
0000
0000
,
0000
0000
0000
0000
,
0000
0010
0000
0010
,
0000
0010
0010
0000
,
0000
0100
0000
0100
,
0000
0100
0100
0000
,
0000
0001
0000
0000
,
1000
0000
0000
0000
,
0000
1000
0000
0000
,
0001
0000
0000
0000
,
0100
0000
0000
0000
,
0100
0000
0000
0000
,
0110
0000
0000
0000
,
0110
0000
0000
0000
,
0001
0000
0000
0000
,
0000
0001
0000
0000
,
1001
0000
0000
0000
,
1001
0000
0000
0000
,
0000
0010
0000
0010
,
0000
0010
0000
0000
,
0000
0001
0000
0001
,
0000
0001
0000
0000
,
1000
0000
0000
0000
,
0010
0000
0000
0000
,
0100
0000
0000
0000
,
0001
0000
0000
0000
,
0100
0000
0000
0000
,
0100
0000
0000
0000
,
0110
0000
0000
0000
,
0110
0000
0000
0000
,
0000
0001
0000
0001
,
0000
0001
0000
0000
,
0000
0100
0000
0100
,
0000
0100
0000
0000
,
1000
0000
0000
0000
,
0001
0000
0000
0000
,
0100
0000
0000
0000
,
0010
0000
0000
0100
;

//---------------dance-single - ----------------
#NOTES:
     dance-single:
     :
     Easy:
     5:
     0.214664,0.241270,0.074074,0.306878,0.000000,142.000000,135.000000,7.000000,29.000000,0.000000,0.000000,0.214664,0.241270,0.074074,0.306878,0.000000,142.000000,135.000000,7.000000,29.000000,0.000000,0.000000:
0000
0000
0000
0000
,
0000
0000
0000
0000
,
0000
0100
1000
0100
,
1000
0100
1000
0010
,
0000
0100
0001
0100
,
0001
0100
0001
0010
,
0000
0200
2000
3300
,
0010
0010
0010
0000
,
0000
0200
0002
0303
,
0010
0010
0010
0000
,
0002
2003
3100
0100
,
2000
3002
0103
0100
,
0001
0001
0010
0001
,
0001
0001
0010
0100
,
2000
3020
0130
0100
,
0002
0023
0130
0100
,
1000
1000
0010
1000
,
1000
1000
0010
0100
,
0002
0103
0002
0103
,
0002
0103
0010
1000
,
2000
3010
2000
3010
,
2000
3010
0100
0001
,
1000
1000
1000
1001
,
0001
0001
0001
1001
,
0010
0010
0010
0110
,
0100
0100
0100
0110
,
0200
0302
1003
1000
,
0020
2030
3001
0001
,
1000
0100
0010
0000
,
0001
0010
0100
1000
,
0020
1030
0020
1030
,
0020
1030
0001
0100
,
0200
0301
0200
0301
,
0200
0301
1000
0010
,
0100
0100
0100
0110
,
0010
0010
0010
0110
,
1000
1000
1000
1001
,
0001
0001
0001
0200
,
0300
0000
0000
0000
;

//---------------dance-double - ----------------
#NOTES:
     dance-double:
     :
     Easy:
     2:
     0.102797,0.139815,0.000000,0.000000,0.000000,68.000000,68.000000,0.000000,0.000000,0.000000,0.000000,0.102797,0.139815,0.000000,0.000000,0.000000,68.000000,68.000000,0.000000,0.000000,0.000000,0.000000:
// measure 0
00000000
00000000
00000000
00000000
,  // measure 1
00000000
00000000
00000000
00000000
,  // measure 2
00000000
10000000
00000000
10000000
,  // measure 3
00000000
10000000
00000000
00100000
,  // measure 4
00000000
01000000
00000000
01000000
,  // measure 5
00000000
01000000
00000000
00001000
,  // measure 6
00000000
00010000
00010000
00000000
,  // measure 7
00000010
00000000
00000010
00000000
,  // measure 8
00000100
00000000
00000000
00000000
,  // measure 9
00000001
00000000
00000001
00000000
,  // measure 10
00001000
00000100
00000000
00000000
,  // measure 11
00001000
00000010
00000000
00000000
,  // measure 12
00010000
00001000
00010000
00000000
,  // measure 13
00001000
00010000
00001000
00000000
,  // measure 14
00000000
00000000
00100000
00000000
,  // measure 15
00000000
00000000
01000000
00000000
,  // measure 16
00001000
00010000
00001000
00000000
,  // measure 17
00010000
00001000
00010000
00000000
,  // measure 18
00000000
00000010
00000000
00000010
,  // measure 19
00000000
00000010
00000000
00000100
,  // measure 20
00000000
00010000
00000000
00010000
,  // measure 21
00000000
00010000
00000000
00001000
,  // measure 22
01000000
00000000
00000000
00000000
,  // measure 23
00100000
00000000
00000000
00000000
,  // measure 24
10000000
00000000
00000000
00000000
,  // measure 25
00100000
00000000
00000000
00001000
,  // measure 26
00010000
00000000
00000000
00000000
,  // measure 27
00000010
00000000
00000000
00000000
,  // measure 28
00010000
00001000
00010000
00000000
,  // measure 29
00001000
00010000
00001000
00000000
,  // measure 30
00000000
01000000
00000000
00010000
,  // measure 31
00000000
01000000
00000000
00001000
,  // measure 32
00010000
00000100
00000000
00001000
,  // measure 33
00000000
00000100
00000000
00010000
,  // measure 34
00001000
00000000
00000000
00000000
,  // measure 35
00010000
00000000
00000000
00000000
,  // measure 36
00100000
00000000
00000000
00000000
,  // measure 37
01000000
00000000
00000000
10000000
;

//---------------dance-double - ----------------
#NOTES:
     dance-double:
     :
     Hard:
     12:
     0.477702,0.481746,0.169312,0.063492,0.619048,316.000000,300.000000,16.000000,6.000000,0.000000,0.000000,0.477702,0.481746,0.169312,0.063492,0.619048,316.000000,300.000000,16.000000,6.000000,0.000000,0.000000:
00000000
00000000
00000000
00000000
,
00000000
00000000
00000000
00000000
,
00000000
00000000
00000001
00000100
00000000
00000100
00000001
00000000
00000000
00000000
00001000
00000010
00000000
00000010
00001000
00000000
,
00000000
00000000
00000100
00010000
00000000
00010000
00001000
00000000
00100000
00000000
00010000
00000000
01000000
00000000
00100000
00000000
,
00000000
00000000
10000000
01000000
00000000
01000000
10000000
00000000
00000000
00000000
00010000
00100000
00000000
00100000
00010000
00000000
,
00000000
00000000
01000000
00001000
00000000
00001000
01000000
00000000
00001000
00000000
00010000
00000000
00000010
00000000
00000100
00000000
,
00000000
00000000
00000010
00000000
00001000
00000000
00000100
00010000
00000000
00010000
00000100
00000000
00001000
00000000
00000000
00000010
,
00000100
00000000
00000000
00000010
00001000
00000000
00000000
00000010
00010000
00000000
00000000
00000000
00011000
00000000
00000000
00000000
,
01000000
00000000
00010000
00000000
10000000
00000000
00100000
00000000
01000000
00000000
01000000
00000000
00100000
00000000
00000000
01000000
,
00100000
00000000
00000000
01000000
00010000
00000000
00000000
01000000
10000000
00000000
00000000
00000000
01100000
00000000
00000000
00000000
,
20000000
31000000
01010000
00011000
,
00002000
00003100
00000101
00001001
,
00000010
00000100
00000010
00000000
00001000
00000000
00000001
00001000
00000000
00000000
00000000
00000000
00001100
00000000
00000000
00000000
,
00000100
00010000
00000100
00000000
00001000
00000000
00000010
00001000
00000010
00000000
00000100
00000001
00000000
00000000
00001000
00000000
,
00000002
00000103
00001100
00011000
,
00020000
01030000
11000000
10010000
,
10000000
00100000
10000000
00000000
00010000
00000000
01000000
00010000
00000000
00000000
00000000
00000000
00000000
00000000
00000000
00000000
,
00100000
00001000
00100000
00000000
00010000
00000000
01000000
00100000
01000000
00000000
00000000
00001000
00000000
00000000
01000000
00000000
,
00000000
00000000
00010000
01000000
00000000
01000000
00010000
00000000
00100000
00000000
00001000
00010000
00000000
00010000
00001000
00000000
,
00010000
00000000
00000010
00000100
00000000
00000100
00000010
00000000
00001000
00000000
00000001
00000100
00000000
00000001
00000100
00000000
,
00000010
00000000
00001000
00000100
00000000
00000100
00001000
00000000
00000100
00000000
00010000
00001000
00000000
00001000
00010000
00000000
,
00001000
00000000
01000000
00100000
00000000
00100000
01000000
00000000
00010000
00000000
10000000
00100000
00000000
10000000
00100000
00000000
,
10000000
01000000
00000000
10000000
01000000
10000000
00000000
01000000
10000000
01000000
00000000
10000000
01000000
00000000
00010000
00000000
,
00001000
00010000
00000000
00001000
00010000
00001000
00000000
00010000
00001000
00010000
00000000
00001000
00010000
00000000
00000100
00000000
,
00000010
00000001
00000000
00000010
00000001
00000010
00000000
00000001
00000010
00000001
00000000
00000010
00000001
00000000
00001000
00000000
,
00000100
00001000
00000000
00000100
00001000
00000100
00000000
00001000
00000100
00001000
00000000
00000100
00001000
00000000
00001000
00000000
,
00000002
00000013
00001010
00011000
,
00020000
00130000
10100000
10010000
,
10000000
00100000
10000000
00000000
00010000
00000000
01000000
00010000
00000000
00000000
00000000
00000000
01001000
00000000
00000000
00000000
,
01000000
00001000
01000000
00000000
00001000
00000000
00010000
00000100
00010000
00000000
00000000
00000010
00000000
00000000
00001000
00000000
,
00000000
00000000
00000001
00000010
00000000
00000001
00000010
00000000
00000100
00000000
00010000
00001000
00000000
00010000
00001000
00000000
,
01000000
00000000
00100000
10000000
00000000
00100000
10000000
00000000
01000000
00000000
00100000
00001000
00000000
00001000
00010000
00000000
,
00000010
00000000
00001000
00000100
00000000
00001000
00000100
00000000
00000010
00000000
00000001
00000100
00000000
00000001
00000100
00000000
,
00000010
00000000
00010000
00001000
00000000
00010000
00001000
00000000
01000000
00000000
00100000
10000000
00000000
00010000
01000000
00000000
,
00010000
00100000
00000000
00010000
00100000
00010000
00000000
00100000
00010000
00100000
00000000
00010000
00100000
00000000
00001000
00000000
,
00010000
00000100
00000000
00010000
00000100
00010000
00000000
00000100
00010000
00000100
00000000
00010000
00000100
00000000
00001000
00000000
,
00000001
00000010
00000000
00000001
00000010
00000001
00000000
00000010
00000001
00000010
00000000
00000001
00000010
00000000
00000100
00000000
,
00010000
00001000
00000000
00010000
00001000
00010000
00000000
00001000
00010000
00001000
00000000
00010000
00001000
00100000
00001000
00100000
;

//---------------dance-double - ----------------
#NOTES:
     dance-double:
     :
     Medium:
     7:
     0.294785,0.300595,0.285714,0.222222,0.000000,195.000000,168.000000,27.000000,21.000000,0.000000,0.000000,0.294785,0.300595,0.285714,0.222222,0.000000,195.000000,168.000000,27.000000,21.000000,0.000000,0.000000:
00000000
00000000
00000000
00000000
,
00000000
00000000
00000000
00000000
,
00000000
11000000
10000000
10100000
,
10000000
00000000
11000000
00000000
00100000
00001000
00010000
00000100
,
00001000
00001010
00001000
00001100
,
00001000
00000000
00001010
00000000
00000100
00000001
00001000
00000010
,
00000100
00001000
00010000
01000000
,
10100000
01010000
10100000
10000000
,
01000000
00010000
00001000
00000010
,
00000101
00000000
00001010
00000000
00000101
00000000
00000010
00001000
,
00000100
00000100
00020000
00000000
00031000
00000000
00011000
00000000
,
01000000
01000000
00002000
00000000
00013000
00000000
00011000
00000000
,
00000100
00001000
00000010
00000000
00001001
00000000
00000010
00000000
,
00000100
00000001
00001000
00000000
00000110
00000000
00001000
00000000
,
00000010
00001000
00000200
00000000
00010300
00000000
00011000
00000000
,
00100000
00010000
02000000
00000000
03001000
00000000
00011000
00000000
,
00100000
00010000
10000000
00000000
00100000
00000000
10100000
00000000
,
10000000
00010000
01000000
00000000
00010000
00000000
01010000
00000000
,
00200000
00301000
00020000
00030010
,
00020000
00031000
00200000
00310000
,
02000000
03001000
00020000
00031000
,
00020000
00030100
00010100
00001010
,
00000100
00000000
00000100
00000000
00000100
00000000
00000100
00000001
,
00000010
00000000
00000010
00000000
00000010
00000000
00000010
00001000
,
00010000
00000000
00010000
00000000
00010000
00000000
00010000
01000000
,
10000000
00000000
10000000
00000000
10000000
00000000
10000000
00100000
,
02000000
03010000
10100000
01010000
,
00100000
00001000
00020000
00000000
00030100
00000000
00010100
00000000
,
00001000
00000010
00000100
00000000
00000001
00000000
00000011
00000000
,
00000001
00000010
00000100
00000000
00010000
00000000
00010100
00000000
,
00002000
00103000
00002000
00013000
,
00020000
00030100
00020000
00030010
,
00002000
00003100
00020000
00031000
,
00200000
00000000
00310000
00000000
02000000
00000000
03010000
00100000
,
01000000
00000000
01000000
00000000
01000000
00000000
01000000
10000000
,
00100000
00000000
00100000
00000000
00100000
00000000
00100000
00010000
,
00001000
00000000
00001000
00000000
00001000
00000000
00001000
00000100
,
00000001
00000000
00000001
00000000
00000001
00000000
00000001
00001000
;
