#TITLE:Braid & Blade;
#SUBTITLE:;
#ARTIST:SHAMDEL;
#TITLETRANSLIT:;
#SUBTITLETRANSLIT:;
#ARTISTTRANSLIT:;
#GENRE:Classical;
#CREDIT:;
#BANNER:braidandblade-bn.png;
#BACKGROUND:braidandblade-bg.png;
#LYRICSPATH:;
#CDTITLE:;
#MUSIC:Braid & Blade.mp3;
#OFFSET:-0.290000;
#SAMPLESTART:23.780006;
#SAMPLELENGTH:13.000004;
#SELECTABLE:YES;
#BPMS:0.000000=153.000000
;
#STOPS:
;
#BGCHANGES:;
#KEYSOUNDS:;
#ATTACKS:;

//---------------dance-single - ----------------
#NOTES:
     dance-single:
     :
     Challenge:
     13:
     0.675918,0.709586,0.317477,0.174100,1.275027,462.000000,431.000000,31.000000,17.000000,0.000000,0.000000,0.675918,0.709586,0.317477,0.174100,1.275027,462.000000,431.000000,31.000000,17.000000,0.000000,0.000000:
// measure 0
0000
0000
0000
0000
,  // measure 1
0000
0000
0000
0000
,  // measure 2
0000
0000
0000
0000
,  // measure 3
0000
0000
0000
0000
0000
0000
0000
0000
0000
0000
0001
0100
,  // measure 4
0010
0000
1000
0000
0100
0000
0010
0000
0001
0000
0100
0000
,  // measure 5
0010
0000
1000
0000
0001
0000
0100
0000
0000
0010
0100
0001
,  // measure 6
1000
0000
0001
0000
0010
0000
0001
0010
0100
1000
0100
0010
,  // measure 7
0001
0000
0010
0001
0100
0001
0010
0000
0001
0100
0010
1000
,  // measure 8
0001
0000
0001
1000
0010
1000
0001
0010
0100
1000
0100
0010
,  // measure 9
0000
0001
0010
0100
0010
0001
0010
0000
0100
1000
0100
0010
,  // measure 10
0100
1000
0010
0100
0001
0010
0001
1000
0010
1000
0000
0000
,  // measure 11
0001
0010
0100
1000
0100
0010
0001
0000
0100
0010
1000
0100
,  // measure 12
0010
0000
0100
1000
0010
0100
0001
0010
0100
1000
0100
0010
,  // measure 13
0000
0001
0100
1000
0100
0001
1000
0000
0100
0001
0100
1000
,  // measure 14
0001
0010
0100
1000
0010
0100
0001
0100
0010
1000
0100
0010
,  // measure 15
0100
0000
0100
1000
0000
1000
0010
0000
0010
0100
0000
0100
,  // measure 16
0001
0000
0001
1000
0000
1000
0010
0000
0100
0010
0000
1000
,  // measure 17
0001
0000
0001
0010
0000
0010
0100
0000
0100
0010
0000
0010
,  // measure 18
0001
0000
1001
0000
0010
0100
0010
0000
1001
0000
0100
0010
,  // measure 19
0100
0000
0100
1000
0000
1000
0010
0000
0010
0001
0000
0001
,  // measure 20
0010
0000
0010
1000
0000
1000
0001
0000
0000
0101
0000
0001
,  // measure 21
0010
0000
0100
0000
1000
0000
0010
0000
0000
0110
0000
0000
,  // measure 22
0200
0000
0000
0301
0100
1000
0200
0000
0000
0301
0000
0000
,  // measure 23
1100
0000
0000
0101
0000
0000
0100
1000
0001
1000
0010
0100
,  // measure 24
0002
0000
0000
0013
1000
0010
0001
0000
0000
1001
0000
0000
,  // measure 25
0101
0000
0000
1100
0000
0000
0001
1000
0001
0100
0010
0100
,  // measure 26
0020
0000
0000
1030
0010
0001
0020
0000
0000
1030
0000
0000
,  // measure 27
1010
0000
0000
0011
0000
0000
0010
1000
0001
0100
0010
0001
,  // measure 28
0020
0000
0000
1030
0100
0001
0200
0000
0000
1300
0000
0000
,  // measure 29
1000
0000
0100
0000
0010
0000
0001
0000
0000
1001
0000
0000
,  // measure 30
1200
0301
1200
0301
,  // measure 31
0100
0000
1000
0010
0100
0001
0010
0000
0100
1000
0000
0000
,  // measure 32
0201
1300
0201
1300
,  // measure 33
0001
0100
1000
0100
0001
1000
0001
0000
0000
0010
0100
0010
,  // measure 34
0001
0000
0100
0010
1000
0100
0001
0000
0000
1100
0000
0000
,  // measure 35
0101
0000
0001
0100
1000
0100
0010
0000
0010
0100
0000
0000
,  // measure 36
1100
0000
0010
0000
0000
0000
0101
0000
0010
0000
1000
0001
,  // measure 37
0100
0000
0000
0000
0010
0000
0000
0000
2002
0000
0000
0000
0000
0000
0000
3003
0000
0000
0000
0000
0010
0000
0100
0000
,  // measure 38
0010
0000
0010
0000
1000
0000
0001
0000
0001
0000
0100
0000
,  // measure 39
0020
0000
0100
0000
0100
0000
0130
0001
1000
0010
0100
0010
,  // measure 40
1000
0000
0100
0000
0010
0000
0001
0000
0100
0000
0010
0000
,  // measure 41
0100
0010
0100
0010
1000
0001
1000
0000
0010
0000
0100
0001
,  // measure 42
0100
0000
0010
0000
1000
0000
0010
0000
0100
0000
0001
0000
,  // measure 43
0010
0000
0001
0000
0100
0000
0110
0000
0000
1001
0000
0001
,  // measure 44
0100
0000
0010
0000
1000
0000
0010
0000
0000
0110
0000
0000
,  // measure 45
0101
0000
0000
0010
0000
1000
0000
0010
0000
0100
0001
0010
,  // measure 46
0100
0000
1000
0000
0100
0000
0001
0000
0100
0000
1000
0000
,  // measure 47
0200
0000
0010
0000
0010
0000
0310
0001
1000
0100
1000
0001
,  // measure 48
0010
0000
0001
0000
1000
0000
0100
0000
0010
0000
0001
0000
,  // measure 49
1000
0001
1000
0001
0000
0100
0010
0000
0010
0000
0100
0001
,  // measure 50
1000
0000
0010
0000
0001
0000
0010
0000
1000
0000
0100
0000
,  // measure 51
0010
0000
0001
0000
1000
0000
1000
0100
0010
0001
0100
0010
,  // measure 52
1000
0000
1010
0000
0101
0000
0100
0000
1010
0000
0101
0000
,  // measure 53
1000
0100
0010
0001
1000
0000
0010
0100
0010
0100
0001
1000
,  // measure 54
0001
0000
0010
0000
0100
0000
1000
0000
0000
1001
0000
0000
,  // measure 55
0220
0000
0000
0000
,  // measure 56
0000
0000
0000
0330
0000
0000
1000
0100
0010
0100
1000
0001
,  // measure 57
0010
0000
1000
0010
0001
0100
0010
0000
0100
0001
0010
0001
,  // measure 58
0100
0010
1000
0010
0100
0001
0000
0001
0100
0010
0100
0001
,  // measure 59
1000
0000
0100
0010
0100
1000
0100
0001
0100
1000
0010
0100
,  // measure 60
0001
0010
0100
1000
0000
0000
0000
0000
0000
0000
0000
0000
;

//---------------dance-single - ----------------
#NOTES:
     dance-single:
     :
     Beginner:
     3:
     0.156544,0.215961,0.102412,0.081929,0.000000,107.000000,97.000000,10.000000,8.000000,0.000000,0.000000,0.156544,0.215961,0.102412,0.081929,0.000000,107.000000,97.000000,10.000000,8.000000,0.000000,0.000000:
0000
0000
0000
0000
,
0000
0000
0000
0000
,
0000
0000
0000
0000
,
0000
0000
0000
0000
,
0001
0000
0010
0000
,
0100
0000
1000
0000
,
0001
0000
0001
0000
,
0100
0000
0100
0000
,
0100
0000
0110
0000
,
0010
0000
0010
0000
,
0010
0000
1000
0000
,
0001
0000
0001
0000
,
0001
0000
1001
0000
,
1000
0000
1000
0000
,
1000
1000
0000
0000
,
0010
0000
0010
0000
,
0010
0000
0010
0000
,
0100
0000
0100
0000
,
0200
0000
0300
0000
,
0001
0000
0001
0000
,
0001
0000
0001
0000
,
1000
0000
1000
0000
,
2000
0000
3000
0000
,
0020
0000
0030
0000
,
0200
0000
0300
0000
,
0020
0000
0030
0000
,
0002
0000
0003
0000
,
0020
0000
0030
0000
,
0200
0000
0300
0000
,
0110
0000
0000
0000
,
0000
1000
0000
1000
,
0000
1000
0000
1000
,
0000
0001
0000
0001
,
0000
0001
0000
0001
,
0000
0100
0000
0010
,
0010
0000
0000
0000
,
0110
0000
0110
0000
,
0110
0000
0000
0000
,
1000
0000
0001
0000
,
0000
1001
0000
0000
,
0010
0000
0010
0000
,
0010
0000
0000
0000
,
0100
0000
0100
0000
,
0100
0000
0100
0000
,
1000
0000
0001
0000
,
1001
0000
0000
0000
,
0010
0000
0100
0000
,
0000
0110
0000
0000
,
1000
0000
1000
0000
,
1000
0000
0000
0000
,
0100
0000
0100
0000
,
0100
0000
0100
0000
,
0010
0000
0001
0000
,
1000
0000
0010
0000
,
0100
0100
0100
0100
,
0100
0000
0000
0000
,
0000
0000
0001
0000
,
0001
0000
0001
0000
,
0001
0000
1000
0000
,
1000
0000
1000
0000
,
0000
1001
0000
0000
;

//---------------dance-single - ----------------
#NOTES:
     dance-single:
     :
     Hard:
     12:
     0.526689,0.586180,0.256030,0.235547,0.850018,360.000000,335.000000,25.000000,23.000000,0.000000,0.000000,0.526689,0.586180,0.256030,0.235547,0.850018,360.000000,335.000000,25.000000,23.000000,0.000000,0.000000:
0000
0000
0000
0000
,
0000
0000
0000
0000
,
0000
0000
0000
0000
,
0000
0000
0000
0000
0000
0000
0000
0000
0000
0000
0010
0100
,
0010
0000
1000
0000
0010
0000
0100
0000
0010
0000
0001
0000
,
0010
0000
0010
0000
1000
0000
0001
0000
0000
1001
0000
0000
,
0100
0000
0001
0000
0100
0000
0010
0000
0000
0110
0000
0000
,
1000
0000
1000
0000
0000
0000
0001
0000
0001
0000
0000
0000
,
0100
0000
0100
0000
0000
0000
0010
1000
0001
1000
0010
0100
,
0010
0000
0010
0000
0000
0000
0100
0000
0100
0000
0000
0000
,
0001
0010
0100
1000
0100
0010
0001
1000
0001
1000
0000
0000
,
0010
0000
0100
1000
0000
0100
1000
0000
0001
0010
0000
0001
,
0010
0000
0001
1000
0000
0000
0100
0001
0010
0001
0100
0010
,
1000
0000
0010
0100
0000
0010
0100
0000
0001
1000
0000
0001
,
1000
0000
0000
0101
0000
0000
0010
1000
0001
0100
0000
0000
,
0010
0000
1000
0000
0001
0000
0100
0000
0001
0000
1000
0000
,
0010
0000
1000
0000
0001
0000
1000
0000
0000
0000
0000
0000
,
0100
0000
0001
0000
1000
0000
0001
0000
0100
0000
0010
0000
,
1000
0000
1000
0000
0000
0000
0001
0000
0001
0000
0000
0000
,
1000
0000
0100
0000
0010
0000
0100
0000
1000
0000
0001
0000
,
0010
0000
0001
0000
1000
0000
0001
0000
0000
1010
0000
0000
,
0001
0000
0100
0000
0010
0000
0100
0000
0000
1001
0000
0000
,
0020
0000
0000
1030
0100
0010
0001
0000
0000
1001
0000
0000
,
0002
0000
0000
0203
0000
0000
0301
0100
0010
1000
0010
0100
,
0002
0000
0000
0103
1000
0100
0001
0000
0000
1001
0000
0000
,
0200
0000
0000
0320
0000
0000
1030
0001
0100
0010
0100
0001
,
0020
0000
0000
0031
0100
0010
1000
0000
0000
1001
0000
0000
,
2000
0000
0000
3020
0000
0000
1030
0010
0100
0001
0100
0010
,
2000
0000
0000
3010
0001
0010
1000
0000
0000
1001
0000
0000
,
0010
0000
0100
0000
0010
0000
0100
0000
0000
1001
0000
0000
,
0201
1300
0201
1300
,
0001
0000
1000
0100
0000
0000
1000
0000
0001
0100
0000
0000
,
1200
0301
1200
0301
,
1000
0100
0010
0100
0010
0100
1000
0000
0000
1001
0000
0000
,
0001
0010
1000
0200
,
0302
0103
1000
0010
,
0001
0000
1001
0000
0000
0000
1000
0000
1001
0000
0000
0000
,
0010
0000
0100
0000
0110
0000
0000
0000
0000
0000
0000
0000
,
0001
0000
0011
0000
0000
0000
1000
0000
1100
0000
0000
0000
,
0020
0000
0100
0000
0100
0000
0130
0001
1000
0010
0000
0100
,
0010
0000
1000
0000
0001
0000
0100
0000
0001
0000
1000
0000
,
0010
0100
0010
0100
0000
0001
1000
0000
0001
0000
0000
0000
,
0100
0000
0001
0000
1000
0000
0010
0000
1000
0000
0001
0000
,
0100
0000
0010
0000
0100
0000
0010
0000
0000
1001
0000
0000
,
0001
0000
0010
0000
0100
0000
1000
0000
0000
0110
0000
0000
,
0020
0000
0000
1030
0000
0100
0000
0001
0000
0100
0000
1000
,
0002
0000
2000
3003
,
0200
0000
0010
0000
0010
0000
0310
0001
1000
0100
0000
1000
,
0001
0000
0100
0000
1000
0000
0100
0000
0001
0000
1000
0000
,
0001
0010
0001
0010
0000
0100
1000
0000
0010
0000
0000
0000
,
1000
0000
0010
0000
0001
0000
0010
0000
1000
0000
0001
0000
,
0100
0000
0010
0000
0100
0000
0010
1000
0100
1000
0000
0010
,
0100
0000
0100
0000
0100
0000
0001
0000
0001
0000
0001
0000
,
1000
0010
1000
0010
0000
0000
0100
0000
0010
0000
1000
0000
,
0001
0000
1000
0000
0100
0000
0010
0000
0000
1001
0000
0000
,
0202
0000
0000
0000
,
0000
0000
0000
0303
0000
0000
0010
0000
1000
0100
0000
1000
,
0010
0000
0100
0001
0000
0100
0010
0000
1000
0001
0000
0100
,
0010
0100
0001
1000
0010
0100
0000
0000
0001
0010
0000
0001
,
0100
0000
0010
1000
0000
0010
0100
0000
0000
0101
0000
0000
,
0001
0010
0100
1000
0000
0000
0000
0000
0000
0000
0000
0000
;

//---------------dance-single - ----------------
#NOTES:
     dance-single:
     :
     Medium:
     9:
     0.370146,0.431922,0.215065,0.286753,0.384044,253.000000,232.000000,21.000000,28.000000,0.000000,0.000000,0.370146,0.431922,0.215065,0.286753,0.384044,253.000000,232.000000,21.000000,28.000000,0.000000,0.000000:
0000
0000
0000
0000
,
0000
0000
0000
0000
,
0000
0000
0000
0000
,
0000
0000
0000
0000
,
1000
0000
0100
0000
0000
0000
0010
0000
0001
0000
0000
0000
,
1000
0001
1001
0000
,
0010
0100
1000
1000
,
0001
0000
0001
0000
0000
0000
1000
0000
1000
0000
0000
0000
,
0010
0000
0010
0000
0000
0000
0100
0000
0000
1010
0000
0000
,
0001
0000
0001
0000
0000
0000
1000
0000
1000
0000
0000
0000
,
0100
0000
0100
0000
0000
0000
0010
0000
0000
0101
0000
0000
,
0010
1000
1100
0010
,
0011
0100
0101
1001
,
0010
0100
0101
0010
,
0011
0000
0000
1001
0000
0000
0000
1000
0000
0001
0000
0000
,
0100
0000
0010
0000
0100
0000
0010
0000
1000
0000
0010
0000
,
1000
0000
0010
0000
0100
0000
0010
0000
0000
0000
0000
0000
,
0100
0000
0001
0000
0100
0000
0001
0000
0010
0000
0001
0000
,
0010
0000
0110
0000
,
1000
0000
0001
0000
1000
0000
0001
0000
0100
0000
0001
0000
,
0100
0000
0010
0000
0100
0000
0010
0000
0000
0000
0000
0000
,
0100
0000
0001
0000
0100
0000
0001
0000
0000
1001
0000
0000
,
0020
1000
1030
1001
,
2000
3200
0320
0032
,
0203
0001
0301
1001
,
0002
0023
0230
2300
,
3010
1000
0001
1001
,
0200
0320
2030
3002
,
0103
0001
1000
1001
,
0010
0000
0010
0000
0010
0000
0010
0000
0000
1000
0000
0000
,
0002
0103
0002
0103
,
1000
0100
0001
1000
,
2000
3100
2000
3100
,
0001
0100
1000
0002
,
0203
0300
0000
0020
,
0230
0300
0000
0000
,
0001
0000
1000
0000
0000
0000
0001
0000
1000
0000
0000
0000
,
0010
0000
0100
0000
0010
0000
0000
0000
0000
0000
0000
0000
,
1000
0000
0001
0000
0000
0000
1000
0000
0001
0000
0000
0000
,
0000
0000
0100
0000
0100
0000
0100
0000
0000
0000
0000
0000
,
0001
0000
0010
0000
0001
0000
0010
0000
0100
0000
0010
0000
,
0100
1000
1100
0000
,
1000
0000
0010
0000
1000
0000
0010
0000
0100
0000
0010
0000
,
0100
0000
0001
0000
0100
0000
0001
0000
0000
0000
0000
0000
,
0200
0000
0310
1001
,
0002
0010
0103
1010
,
1000
0000
0100
0000
0000
0000
0010
0000
0001
0000
0000
0000
,
0000
0000
0010
0000
0010
0000
0010
0000
0000
0000
0000
0000
,
0001
0000
1000
0000
0001
0000
1000
0000
0010
0000
1000
0000
,
0010
1000
0001
0000
,
0100
0000
0001
0000
0100
0000
0001
0000
0010
0000
0001
0000
,
0010
0000
0100
0000
0010
0000
0100
0000
0000
0000
0000
0000
,
1000
0000
1000
0000
1000
0000
0001
0000
0001
0000
0001
0000
,
0200
0000
0320
0000
,
1030
0001
1000
0001
,
2002
0000
0000
0000
,
0000
0000
0000
3003
0000
0000
0010
0000
0000
0010
1000
0010
,
1000
0000
0000
0001
0100
0001
0100
0000
0000
0010
1000
0010
,
1000
0000
0000
0001
0000
0000
0000
0000
0000
1000
0100
1000
,
0100
0000
0000
0010
0001
0010
0001
0000
0000
1000
0000
0000
,
0001
0101
0000
0000
;

//---------------dance-single - ----------------
#NOTES:
     dance-single:
     :
     Easy:
     8:
     0.400869,0.462773,0.266271,0.296994,0.332838,274.000000,248.000000,26.000000,29.000000,0.000000,0.000000,0.400869,0.462773,0.266271,0.296994,0.332838,274.000000,248.000000,26.000000,29.000000,0.000000,0.000000:
0000
0000
0000
0000
,
0000
0000
0000
0000
,
0000
0000
0000
0000
,
0000
0000
0000
0000
,
1000
0000
1000
0000
0000
0000
0001
0000
0001
0000
0000
0000
,
1000
0000
0001
0000
1000
0000
0001
0000
0000
0000
0000
0000
,
0100
0010
1000
1001
,
0010
1000
1100
0001
,
0101
1000
1100
0101
,
1000
0001
0011
1000
,
1010
0110
0101
1001
,
1000
0000
0000
0001
0000
0100
0001
0000
0100
0001
0000
0000
,
0001
0000
0000
1000
0000
0100
1000
0000
0100
1000
0000
0000
,
0010
0000
0000
0100
0000
0001
0100
0000
0001
0100
0000
0000
,
0010
0000
0000
1000
0000
0000
0000
0010
0000
1000
0000
0000
,
0002
0013
2000
3010
,
0001
0000
1000
0000
0001
0000
1000
0000
0000
0000
0000
0000
,
2000
3100
0002
0103
,
1000
0000
0001
0000
0000
0000
1000
0000
0001
0000
0000
0000
,
0200
0310
0002
0013
,
1000
0000
0010
0000
1000
0000
0010
0000
0000
0101
0000
0000
,
0002
0023
0230
1300
,
0001
0000
0000
1000
0100
1000
0100
0000
0000
1000
0000
0000
,
0002
0000
0000
2003
0000
0000
3001
0100
0001
0100
0000
0000
,
0010
0000
0000
0100
0010
0100
0010
0000
0000
1000
0000
0000
,
0020
0000
0000
0230
0000
0000
0310
1000
0010
1000
0000
0000
,
1000
0000
0000
0001
0010
0001
0010
0000
0000
0001
0000
0000
,
2000
0000
0000
3002
0000
0000
1003
0010
1000
0010
0000
0000
,
0100
0000
0000
0010
0100
0010
0100
0000
0000
0001
0000
0000
,
0100
0000
0010
0000
0100
0000
0010
0000
0000
1001
0000
0000
,
0002
0103
0002
0103
,
0002
0013
0002
0013
,
2000
3100
2000
3100
,
1000
0100
0001
0000
,
0100
1100
0001
0101
,
1001
0010
0100
0010
,
0100
0000
0100
0000
0000
0000
0010
0000
0010
0000
0000
0000
,
0100
0000
0010
0000
0100
0000
0000
0000
0000
0000
0001
1000
,
0001
0000
0001
0000
0000
0000
1000
0000
1000
0000
0000
0000
,
0000
0000
0001
0000
1000
0000
0001
0000
0000
0000
0000
0000
,
2000
3100
0002
0103
,
1000
0000
0001
0000
0000
0000
1000
0000
0001
0000
0000
0000
,
0010
0100
1000
0100
,
0001
1000
1001
0110
,
1000
0000
0010
0000
0100
0000
0001
0000
0000
1001
0000
0000
,
0010
0000
0000
0100
0000
0100
0000
0100
0000
0100
0000
0000
,
2000
0000
0002
0000
,
3003
0000
0010
0000
0010
0000
0010
0000
0000
0000
0000
0000
,
0002
0013
2000
3010
,
0000
0001
0010
0001
0000
0000
0011
0000
0000
0000
0000
0000
,
0100
0010
0001
1000
,
0010
1000
1010
0101
,
0001
0000
0010
0000
0001
0000
0100
0000
0010
0000
0100
0000
,
0010
0000
1000
0000
0010
0000
1000
0000
0100
0000
1000
0000
,
0001
0010
0100
1000
,
2002
0000
0000
0000
,
0000
3003
1000
0001
,
0101
0000
0000
1000
0000
0000
1100
0000
0000
0010
0000
0100
,
0010
0000
0100
0010
0000
0000
1000
0000
0000
0001
0000
0000
,
0101
1000
1100
0000
,
0001
0010
0100
1000
0000
0000
0000
0000
0000
0000
0000
0000
;

//---------------dance-double - ----------------
#NOTES:
     dance-double:
     :
     Easy:
     5:
     0.264808,0.308516,0.133135,0.225306,0.035844,181.000000,168.000000,13.000000,22.000000,0.000000,0.000000,0.264808,0.308516,0.133135,0.225306,0.035844,181.000000,168.000000,13.000000,22.000000,0.000000,0.000000:
00000000
00000000
00000000
00000000
,
00000000
00000000
00000000
00000000
,
00000000
00000000
00000000
00000000
,
00000000
00000000
00000000
00000000
,
20000000
00000000
30200000
00000000
,
00310000
00001000
00000100
00000000
,
00000001
00001000
00000001
00001000
,
00000100
00000000
00000100
00000000
00000000
00000000
00010000
00000000
00010000
00000000
00000000
00000000
,
00001000
00000000
00001000
00000000
00000000
00000000
01000000
00000000
00000000
01100000
00000000
00000000
,
00010000
00000000
00010000
00000000
00000000
00000000
00100000
00000000
00100000
00000000
00000000
00000000
,
00001000
00010000
00000010
00000100
,
00000001
00000100
00001000
00000100
,
00001000
00010000
00100000
10000000
,
01000000
00010000
00001000
00010000
,
00001000
00000020
00000000
00000031
,
00000100
00000010
00000100
00000010
,
00000001
00000100
00001000
00010000
,
01000000
00100000
01000000
00100000
,
00020000
00000000
00032000
00000000
,
00003010
00000001
00000100
00001000
,
00010000
00010000
00100000
00000000
,
10000000
00010000
10000000
00000000
,
10010000
00000000
00100000
01000000
,
00001000
00001000
00010000
00010000
,
00011000
00000000
00000010
00000100
,
00000001
00001000
00000010
00000100
,
00000110
00000000
00000010
00010000
,
00001000
00001000
00010000
00010000
,
00011000
00000000
00100000
01000000
,
20000000
00000000
00000000
30000000
,
01000000
00010000
00000000
00010000
,
00000000
00001000
00000000
00001000
,
00000000
00000010
00000000
00000010
,
00000000
00000001
00000000
00000001
,
00000100
00001000
00000000
00010000
,
00100000
10000000
00010000
10000000
,
00100000
00000000
01000000
00000000
,
02200000
00000000
03300000
00000000
,
00001000
00000000
00010000
00000000
00000000
00000000
00010000
00000000
00001000
00000000
00000000
00000000
,
00022000
00000000
00000000
00033000
,
00000010
00000100
00000001
00001000
,
00000002
00000000
00000000
00000000
,
00000013
00001000
00010000
01000000
,
10000000
00010000
10010000
00000000
,
10000000
01000000
00010000
00000000
,
00002000
00000000
00000000
00003000
,
00000010
00000000
00000001
00000000
,
00002002
00000000
00000000
00003003
,
00000010
00000100
00001000
00010000
,
00200000
00000000
00000000
00300000
,
10000000
01000000
00010000
00001000
,
00000010
00000001
00002000
00000000
,
00003010
00000000
00000100
00000000
,
00000110
00000000
00011000
00000000
,
01100000
01000000
01000000
01000000
,
02000000
00000000
00000000
00000000
,
00000000
00000000
03100000
20000000
,
30010000
02000000
03100000
00020000
,
00001000
00031000
00000020
00000031
,
00000200
00001300
00010000
00000000
,
00001000
00011000
00000000
00000000
;

//---------------dance-double - ----------------
#NOTES:
     dance-double:
     :
     Challenge:
     13:
     0.630564,0.712530,0.122894,0.215065,1.259665,431.000000,419.000000,12.000000,21.000000,0.000000,0.000000,0.630564,0.712530,0.122894,0.215065,1.259665,431.000000,419.000000,12.000000,21.000000,0.000000,0.000000:
00000000
00000000
00000000
00000000
,
00000000
00000000
00000000
00000000
,
00000000
00000000
00000000
00000000
,
00000000
00000000
00000000
00000000
00000000
00000000
00000000
00000000
00000000
00000000
00000010
00000100
,
00000001
00000000
00000010
00000000
00000001
00000000
00000100
00000000
00001000
00000000
00010000
00000000
,
00100000
00000000
10000000
00000000
00100000
00000000
01000000
00000000
00000000
00010000
10000000
00100000
,
01000000
00000000
00100000
00000000
00010000
00000000
00001000
00000100
00000001
00000100
00001000
00000100
,
00000001
00000000
00000010
00000100
00000010
00001000
00000010
00000000
00000100
00010000
00000100
00001000
,
00000100
00000000
00010000
00001000
00010000
00100000
10000000
00010000
10000000
00010000
01000000
00010000
,
00000000
01000000
00100000
01000000
00010000
01000000
00100000
00000000
00010000
00001000
00000100
00001000
,
00010000
00000010
00000100
00000001
00000010
00000100
00010000
00001000
00010000
00001000
00000000
00000000
,
00010000
00100000
10000000
01000000
00100000
01000000
00010000
00000000
00001000
00010000
00000100
00010000
,
00001000
00000000
00000100
00000010
00000100
00000001
00000100
00001000
00000100
00001000
00000001
00001000
,
00000000
00000010
00000100
00001000
00010000
00100000
10000000
00000000
00010000
01000000
00100000
01000000
,
00010000
00100000
00001000
00010000
00000010
00000100
00000001
00001000
00000001
00001000
00000100
00000010
,
00000001
00000000
00000001
00000000
00000100
00000000
00000010
00000000
00000010
00000000
00000001
00000000
,
00000010
00000000
00001000
00000000
00010000
00000000
01000000
00000000
10000000
00010000
01000000
00100000
,
01000000
00000000
01000000
00000000
00100000
00000000
00010000
00000000
00010000
00000000
00001000
00000000
,
00000100
00000000
00000001
00000000
00001000
00000001
00000100
00000000
00000001
00000000
00001000
00000010
,
00000100
00000000
00000100
00000000
00001000
00000000
00010000
00000000
00010000
00000000
00100000
00000000
,
10000000
00000000
00010000
00000000
01000000
00000000
00100000
00000000
00000000
01000000
00010000
10000000
,
00100000
00000000
00100000
00000000
00010000
00000000
00001000
00000000
00000000
00011000
00000000
00000000
,
00000020
00000000
00000000
00000130
00000001
00001000
00000010
00000000
00000000
00000110
00000000
00000000
,
00000002
00000000
00000000
00000203
00000000
00000000
00000301
00000100
00000001
00000100
00001000
00010000
,
02000000
00000000
00000000
13000000
00100000
01000000
00010000
00000000
00000000
10010000
00000000
00000000
,
20000000
00000000
00000000
30200000
00000000
00000000
10300000
00100000
10000000
00100000
00010000
00001000
,
00000200
00000000
00000000
00000301
00001000
00000010
00000100
00000000
00000000
00000101
00000000
00000000
,
00000002
00000000
00000000
00000023
00000000
00000000
00000031
00000010
00000001
00000010
00001000
00010000
,
00200000
00000000
00000000
10300000
00010000
01000000
00100000
00000000
00000000
01100000
00000000
00000000
,
01000000
00000000
00001000
00000000
00010000
00000000
00000100
00000000
00000000
00000110
00000000
00000000
,
00000002
00000103
00000002
00000103
,
00001000
00000000
00000100
00010000
00001000
00100000
00010000
00000000
01000000
00100000
00000000
00000000
,
20000000
31000000
20000000
31000000
,
10000000
01000000
00100000
00010000
01000000
00100000
10000000
00000000
00000000
00010000
00100000
00001000
,
00010000
00000000
00001000
00010000
00000010
00000100
00000010
00000000
00001000
00000001
00000000
00000000
,
00000101
00000000
00000010
00001000
00000100
00001000
00000010
00000000
00010000
00001000
00000000
00000000
,
01000000
00000000
00100000
00000000
00000000
00000000
00010000
00000000
00001000
00000000
00000000
00000000
,
00000100
00000000
00000001
00000000
00001001
00000000
00000000
00000000
00000000
00000000
00000010
00000100
,
00010000
00000000
00001000
00000000
00000000
00000000
00001000
00000000
00010000
00000000
00000000
00000000
,
00200000
00000000
10000000
00000000
10000000
00000000
10300000
01000000
00010000
01000000
10000000
00010000
,
00100000
00000000
00001000
00000000
00100000
00000000
00010000
00000000
00001000
00000000
00000100
00000000
,
00000001
00001000
00000010
00000100
00000010
00001000
00000001
00000000
00001001
00000000
00000100
00000010
,
00001000
00000000
00001000
00000000
00010000
00000000
00100000
00000000
00100000
00000000
10000000
00000000
,
00010000
00000000
01000000
00000000
00100000
00000000
00020000
00000000
00000000
00130000
10000000
00010000
,
10000000
00000000
01000000
00000000
00010000
00000000
00001000
00000000
00000000
00001010
00000000
00000000
,
00000002
00000000
00000000
00000103
00000000
00001000
00000000
00010000
00000000
00100000
10000000
00010000
,
10000000
00000000
01000000
00000000
00010000
00000000
00001000
00000000
00010000
00000000
00000010
00000000
,
00000200
00000000
00000001
00000000
00000001
00000000
00000301
00000010
00000100
00001000
00000000
00000010
,
00000100
00000000
00000100
00000000
00001000
00000000
00010000
00000000
00010000
00000000
00100000
00000000
,
10000000
00010000
10000000
00010000
00000000
01000000
00100000
00000000
00010000
00000000
00001000
00010000
,
00000010
00000000
00000010
00000000
00000100
00000000
00000001
00000000
00000001
00000000
00000010
00000000
,
00001000
00000000
00010000
00000000
01000000
00000000
10000000
00100000
01000000
10000000
01000000
00100000
,
00010000
00000000
00010000
00000000
00001000
00000000
00000100
00000000
00000100
00000000
00000001
00000000
,
00000010
00001000
00000010
00000001
00000010
00000000
00001000
00000000
00010000
00000000
00100000
00000000
,
10000000
00000000
01000000
00000000
00010000
00000000
10000000
00000000
00000000
01010000
00000000
00000000
,
22000000
00000000
00000000
00000000
,
00000000
00000000
00000000
33000000
00000000
00000000
01000000
00100000
01000000
00010000
01000000
00100000
,
00010000
00000000
00001000
00000100
00000010
00000100
00001000
00000000
00000100
00000001
00000100
00000010
,
00000100
00001000
00010000
00001000
00010000
00100000
00000000
10000000
01000000
10000000
00100000
00010000
,
00001000
00000000
00010000
00001000
00000010
00000001
00000100
00000010
00000100
00000010
00000100
00001000
,
00010000
00001000
00010000
00200000
00000000
00000000
00300000
00000000
00000000
00000000
00000000
00000000
;

//---------------dance-double - ----------------
#NOTES:
     dance-double:
     :
     Hard:
     12:
     0.504744,0.588612,0.194582,0.184341,0.814174,345.000000,326.000000,19.000000,18.000000,0.000000,0.000000,0.504744,0.588612,0.194582,0.184341,0.814174,345.000000,326.000000,19.000000,18.000000,0.000000,0.000000:
00000000
00000000
00000000
00000000
,
00000000
00000000
00000000
00000000
,
00000000
00000000
00000000
00000000
,
00000000
00000000
00000000
00000000
00000000
00000000
00000000
00000000
00000000
00000000
00000010
00000100
,
00000010
00000000
00001000
00000000
00000001
00000000
00000100
00000000
00000010
00000000
00010000
00000000
,
00001000
00000000
00100000
00000000
01000000
00000000
10000000
00000000
00000000
01010000
00000000
00010000
,
10000000
00000000
01000000
00000000
00010000
00000000
00001000
00000000
00000000
00011000
00000000
00000000
,
00000010
00000000
00000100
00000000
00000000
00000000
00001000
00000000
00010000
00000000
00000000
00000000
,
00100000
00000000
01000000
00000000
00000000
00000000
00001000
00010000
00001000
00010000
00000100
00000010
,
00000001
00000000
00000100
00000000
00000000
00000000
00001000
00000000
00010000
00000000
00000000
00000000
,
00100000
00000000
10000000
00000000
00000000
00000000
10000000
00010000
01000000
00100000
00000000
10000000
,
01000000
00000000
01000000
10000000
00000000
00010000
01000000
00000000
01000000
00010000
00000000
00100000
,
00001000
00000000
00001000
00010000
00000000
00010000
00000100
00010000
00000100
00000010
00000001
00000100
,
00000001
00000000
00000010
00000001
00000000
00000001
00000010
00000000
00000100
00010000
00000000
00010000
,
00000100
00000000
00000000
00011000
00000000
00000000
00000000
00100000
00000000
00010000
00000000
00000000
,
01000000
00000000
00100000
00000000
10000000
00000000
00100000
00000000
01000000
00000000
00001000
00000000
,
00010000
00000000
00000010
00000000
00010000
00000000
00000100
00000000
00000000
00010100
00000000
00000000
,
00001000
00000000
00000001
00000000
00000100
00000000
00000001
00000000
00001000
00000000
00000100
00000000
,
00010000
00000000
00001000
00000000
00000000
00000000
00001000
00000000
00010000
00000000
00000000
00000000
,
00100000
00000000
10000000
00000000
01000000
00000000
00010000
00000000
00001000
00000000
00000010
00000000
,
00000001
00000000
00000100
00000000
00001000
00000000
00010000
00000000
00000000
00011000
00000000
00000000
,
00000100
00000000
00001000
00000000
00000010
00000000
00000100
00000000
00000000
00001001
00000000
00000000
,
00000020
00000000
00000000
00001030
00000001
00001000
00000001
00000000
00000000
00000110
00000000
00000000
,
00000200
00002300
00013000
00100000
,
02000000
00000000
00000000
03010000
10000000
00010000
10000000
00000000
00000000
01100000
00000000
00000000
,
00200000
00320000
00031000
00000100
,
00001100
00000000
00000000
00000001
00000010
00000001
00000010
00000000
00000000
00001001
00000000
00000000
,
00000200
00002300
00013000
01000000
,
11000000
00000000
00000000
00010000
00100000
00010000
00100000
00000000
00000000
11000000
00000000
00000000
,
00100000
00000000
01000000
00000000
00010000
00000000
10000000
00000000
00000000
00110000
00000000
00000000
,
00002000
00013000
00020000
00031000
,
00000010
00000000
00000001
00000100
00000010
00001000
00000100
00000000
00000100
00010000
00000000
00000000
,
00002000
00013000
00020000
00031000
,
00100000
01000000
10000000
00010000
01000000
00100000
01000000
00000000
00000000
00010000
10000000
01000000
,
00100000
00000000
00001000
00010000
00000000
00010000
00000010
00000000
00000010
00000100
00000000
00000000
,
00001001
00000000
00000001
00000010
00000000
00000010
00000100
00000000
00000100
00010000
00000000
00000000
,
00001000
00000000
00001000
00000000
00000000
00000000
00010000
00000000
00010000
00000000
00000000
00000000
,
00000100
00000000
00000010
00000000
00000110
00000000
00000000
00000000
00000000
00000000
00000000
00000000
,
00000001
00000000
00001000
00000000
00000000
00000000
00010000
00000000
10000000
00000000
00000000
00000000
,
00200000
00000000
01000000
00000000
01000000
00000000
01300000
00010000
10000000
00100000
00000000
00000000
,
01000000
00000000
00001000
00000000
00010000
00000000
00000010
00000000
00000100
00000000
00000001
00000000
,
00000100
00000010
00000100
00000010
00000000
00001000
00000100
00000000
00000010
00000000
00000000
00000000
,
00000001
00000000
00000100
00000000
00000010
00000000
00000100
00000000
00001000
00000000
00010000
00000000
,
00100000
00000000
10000000
00000000
00100000
00000000
10000000
00000000
00000000
10010000
00000000
00000000
,
10000000
00000000
01000000
00000000
00010000
00000000
00001000
00000000
00000000
00001100
00000000
00000000
,
00000002
00000000
00000000
00000103
00000000
00001000
00000000
00010000
00000000
01000000
00000000
00000000
,
10000000
00000000
00010000
00000000
00000000
00000000
00001000
00000000
00000001
00000000
00000000
00000000
,
00000200
00000000
00000010
00000000
00000010
00000000
00000310
00001000
00000001
00000100
00000000
00000010
,
00001000
00000000
00000100
00000000
00010000
00000000
00001000
00000000
01000000
00000000
00100000
00000000
,
10000000
00000000
00010000
10000000
00000000
00010000
01000000
00000000
00100000
00000000
00000000
00000000
,
10000000
00000000
01000000
00000000
00010000
00000000
00001000
00000000
00000010
00000000
00001000
00000000
,
00010000
00000000
00000010
00000000
00000100
00000000
00000001
00000100
00000010
00001000
00000000
00000000
,
00000001
00000000
00000001
00000000
00000001
00000000
00000100
00000000
00000100
00000000
00000100
00000000
,
00001000
00000000
00010000
00000000
00100000
00000000
10000000
00000000
00010000
00000000
10000000
00000000
,
00010000
00000000
00100000
00000000
01000000
00000000
00100000
00000000
00000000
00010000
00000000
00000000
,
00022000
00000000
00000000
00000000
,
00000000
00000000
00000000
00033000
00000000
00000000
00000100
00000000
00001000
00000010
00000000
00000010
,
00000100
00000000
00000010
00010000
00000000
00010000
00001000
00000000
01000000
00100000
00000000
00100000
,
10000000
00000000
00000000
01010000
00000000
00000000
00000000
00000000
00100000
01000000
00000000
01000000
,
00010000
00000000
00100000
00001000
00000000
00001000
00010000
00000000
00000100
00000010
00000000
00000001
,
00000010
00000100
00001000
00000002
00000000
00000000
00000003
00000000
00000000
00000000
00000000
00000000
;

//---------------dance-double - ----------------
#NOTES:
     dance-double:
     :
     Medium:
     9:
     0.355515,0.433714,0.153618,0.225306,0.348200,243.000000,228.000000,15.000000,22.000000,0.000000,0.000000,0.355515,0.433714,0.153618,0.225306,0.348200,243.000000,228.000000,15.000000,22.000000,0.000000,0.000000:
00000000
00000000
00000000
00000000
,
00000000
00000000
00000000
00000000
,
00000000
00000000
00000000
00000000
,
00000000
00000000
00000000
00000000
,
00000100
00000000
00000010
00000000
00000000
00000000
00000100
00000000
00010000
00000000
00000000
00000000
,
00001000
00000000
00010000
00000000
00000000
00000000
00101000
00000000
00000000
00000000
00000000
00000000
,
00100000
00000000
01000000
00000000
10000000
00000000
00010000
00000000
00000000
10010000
00000000
00000000
,
10000000
00000000
01000000
00000000
00000000
00000000
00100000
00000000
00010000
00000000
00000000
00000000
,
01000000
00000000
00100000
00000000
00000000
00000000
00010000
00000000
00000000
00001000
00000000
00000000
,
00000100
00000000
00000001
00000000
00000000
00000000
00001000
00000000
00000010
00000000
00000000
00000000
,
00000100
00000000
00000010
00000000
00000000
00000000
00000100
00000000
00000000
00001000
00000000
00000000
,
00010000
00100000
10000000
01000000
,
00010000
00001000
00000100
00001100
,
00000001
00000010
00001000
00010000
,
02000000
00000000
00000000
03100000
00000000
00000000
00000000
00010000
00000000
00001000
00000000
00000000
,
00000100
00000000
00000010
00000000
00001000
00000000
00000010
00000000
00000100
00000000
00000001
00000000
,
00000100
00000000
00000010
00000000
00010000
00000000
00001000
00000000
00000000
00000000
00000000
00000000
,
01000000
00000000
00100000
00000000
10000000
00000000
00100000
00000000
01000000
00000000
00010000
00000000
,
00100000
00000000
00100000
00000000
00000000
00000000
00001000
00000000
00001000
00000000
00000000
00000000
,
00000010
00000000
00000001
00000000
00000100
00000000
00000010
00000000
00001000
00000000
00000100
00000000
,
00010000
00000000
00001000
00000000
00010000
00000000
00001000
00000000
00000000
00101000
00000000
00000000
,
00010000
00000000
00100000
00000000
01000000
00000000
10000000
00000000
00000000
10010000
00000000
00000000
,
20000000
32000000
03010000
00001000
,
00000100
00000100
00000010
00000010
,
00000002
00000203
00001300
00010000
,
00100000
10000000
01010000
10100000
,
00020000
00230000
01300000
00010000
,
00001000
00001000
00000100
00000100
,
00000002
00000023
00001030
00010000
,
00000100
00000000
00000010
00000000
00000001
00000000
00001000
00000000
00000000
00001001
00000000
00000000
,
00000200
00001300
00000200
00001300
,
00010000
00100000
00010000
01000000
,
20000000
31000000
20000000
31000000
,
00010000
00001000
00000010
00000000
,
00000002
00001003
00000100
00010100
,
00011000
00100000
00001000
00100000
,
00100000
00000000
01000000
00000000
00000000
00000000
00100000
00000000
01000000
00000000
00000000
00000000
,
10000000
00000000
00010000
00000000
10000000
00000000
00000000
00000000
00000000
00000000
00000000
00000000
,
00000001
00000000
00001000
00000000
00000000
00000000
00000001
00000000
00001000
00000000
00000000
00000000
,
00000000
00000000
00000100
00000000
00010000
00000000
00001000
00000000
00000000
00000000
00000000
00000000
,
00100000
00000000
00010000
00000000
01000000
00000000
00100000
00000000
10000000
00000000
01000000
00000000
,
00100000
00100000
00101000
00010000
,
00000010
00000000
00001000
00000000
00000001
00000000
00000010
00000000
00000001
00000000
00001000
00000000
,
00000010
00000000
00000100
00000000
00000010
00000000
00010000
00000000
00000000
00011000
00000000
00000000
,
00100000
00000000
00100000
00000000
00010000
00000000
00010000
00000000
00000000
10010000
00000000
00000000
,
02200000
00000000
00000000
03300000
,
10000000
00000000
00010000
00000000
00000000
00000000
10000000
00000000
00010000
00000000
00000000
00000000
,
00000000
00000000
01000000
00000000
00001000
00000000
00010000
00000000
00000000
00000000
00000000
00000000
,
00000100
00000000
00001000
00000000
00000010
00000000
00000100
00000000
00000001
00000000
00001000
00000000
,
00000100
00000100
00010100
00000000
,
00010000
00000000
00001000
00000000
01000000
00000000
00100000
00000000
10000000
00000000
01000000
00000000
,
00100000
00000000
00001000
00000000
00010000
00000000
00001000
00000000
00000000
00000100
00000000
00000000
,
00000002
00000000
00000023
00000000
,
00002030
00000000
00023000
00000000
,
00130000
10000000
01000000
00010000
,
00002000
00000000
00000000
00000000
,
00000000
00000000
00003100
00000001
,
00000010
00000001
00000100
00001000
,
00010000
00010000
00000000
00100000
,
10000000
00100000
00010000
00001000
,
00000100
00000002
00000003
00000000
;
