#TITLE:Bounce to the Moon;
#SUBTITLE:;
#ARTIST:Kid Whatever;
#TITLETRANSLIT:;
#SUBTITLETRANSLIT:;
#ARTISTTRANSLIT:;
#GENRE:;
#CREDIT:;
#BANNER:bouncetothemoon-bn.png;
#BACKGROUND:bouncetothemoon-bg.png;
#LYRICSPATH:;
#CDTITLE:;
#MUSIC:Bounce To The Moon.mp3;
#OFFSET:-0.060000;
#SAMPLESTART:44.859997;
#SAMPLELENGTH:12.000000;
#SELECTABLE:YES;
#BPMS:0.000000=168.000000
;
#STOPS:124.000000=0.714000,
273.000000=0.177000,
273.500000=0.177000,
274.000000=0.177000,
276.500000=0.534000,
291.000000=0.534000,
298.500000=0.893000,
299.000000=0.534000,
301.500000=0.528000
;
#BGCHANGES:;
#KEYSOUNDS:;
#ATTACKS:;

//---------------dance-single - ----------------
#NOTES:
     dance-single:
     :
     Challenge:
     18:
     1.078985,1.108457,0.339075,0.220399,1.288485,891.000000,851.000000,40.000000,26.000000,0.000000,0.000000,1.078985,1.108457,0.339075,0.220399,1.288485,891.000000,851.000000,40.000000,26.000000,0.000000,0.000000:
0000
0000
0000
0000
,
0000
0000
0000
0000
,
0000
0000
0000
0000
,
0000
0000
0000
0000
,
1000
0000
0100
0010
0100
0010
0001
0000
1000
0000
0001
0010
0100
0010
0100
1000
,
0001
0000
0100
0010
0100
0010
1000
0000
0001
0000
1000
0100
0010
0100
0010
0001
,
0100
0000
0010
1000
0010
1000
0100
0000
0010
0000
0001
0100
0001
0100
0010
0100
,
0001
0000
1000
0010
1000
0010
0100
0000
0001
0000
0100
0001
0100
0001
0010
0100
,
1000
0000
0001
0100
0010
1000
0010
0000
1000
0000
0001
0100
0010
1000
0010
0100
,
0001
0000
0001
1000
0010
0100
0010
0000
1000
0000
0001
0100
0010
1000
0010
0100
,
0001
0000
0010
0100
1000
0100
0010
0000
0001
0000
1000
0100
0010
0100
1000
0001
,
0100
0000
0010
1000
0001
1000
0010
0000
0100
0000
0001
1000
0010
1000
0100
0010
,
0002
0100
0100
0103
2010
0100
0100
3100
,
0012
0000
0103
0000
2010
0000
3100
0000
0012
0000
0103
0010
0100
0000
1001
0000
,
0100
0000
0010
0000
1000
0000
0010
0000
0100
0010
0000
0100
0001
0000
0010
0000
,
0001
0000
0100
0000
0010
0000
1000
0000
0001
0000
0001
0100
0001
0000
1000
0000
,
0010
0000
0100
0000
0010
0000
1000
0000
0001
1000
0000
0001
1000
0000
0001
0000
,
0010
0000
0100
0000
1000
0000
1000
0001
1000
0000
0000
0001
1000
0000
0010
0000
,
0110
0000
0100
0001
0010
0000
0001
0000
1000
0100
0000
0010
0100
0000
1000
0000
,
0010
0000
0100
0001
1000
0000
0001
0000
0100
0000
0010
1000
0010
0000
1000
0000
,
0010
0000
1000
0100
1000
0000
0001
0000
1000
0010
0000
1000
0010
0000
0100
0000
,
0001
0000
0100
0001
0100
0000
0010
1000
0010
0000
1000
0100
1000
0000
0001
0000
,
0010
0100
1000
0010
0100
0001
0100
0010
0000
1000
0000
0100
0010
0000
0001
0000
,
0100
0010
0100
0001
1000
0100
0010
0001
0000
1000
0000
0001
0100
0000
0100
0000
,
0010
1000
0100
0010
0001
0100
0001
1000
0000
0010
0000
0100
0010
0000
1000
0000
,
0001
0100
0010
1000
0010
0100
0001
1000
0000
0010
0000
0100
0010
0000
1000
0000
,
0100
0000
0010
0001
0010
0001
0100
0000
0010
0000
1000
0100
1000
0100
1000
0010
,
0100
0000
0001
1000
0001
1000
0010
0000
0100
0000
0001
0010
0001
0010
0100
0010
,
0100
0000
1000
0010
1000
0010
0100
0000
0001
0000
0100
0010
0100
0010
0100
0001
,
0100
0000
0010
1000
0010
1000
0100
0000
1000
0000
0010
0100
0001
0100
0001
1000
,
0002
0010
0010
0013
2100
0010
0010
3010
,
0202
0000
0303
0000
0200
0000
0000
0000
0310
0000
1000
0100
0010
0100
1000
0001
,
0100
0001
0000
0001
0100
0000
0010
0000
0100
0000
0001
1000
0010
1000
0100
0010
,
0001
1000
0001
1000
0001
0000
0010
0001
1000
0000
0100
0010
0001
0000
0010
0100
,
1000
0001
0100
0001
0010
0000
0100
0000
1000
0000
0100
0000
0001
0000
0100
1000
,
0100
0000
0000
1000
0100
0000
1000
0010
0100
0001
0100
0000
0001
0000
0010
0100
,
0010
0001
0010
0001
0010
0000
0001
0000
1000
0100
0010
0001
0010
0100
1000
0001
,
0100
0010
0100
0001
0100
0010
0100
0001
1000
0001
1000
0001
1000
0000
0010
0100
,
0001
0010
0100
0010
0001
1000
0010
0000
0100
0000
1000
0000
0100
0000
0001
0000
,
1000
0000
0010
1000
0010
0000
1000
0000
0001
0000
0000
0001
0100
0000
0000
0000
,
0001
0100
0000
0100
0001
0000
0000
0000
1000
0000
0000
1000
0100
0000
0000
0000
,
1000
0000
1000
0100
1000
0000
0000
0000
0010
0000
0000
0010
0100
0000
0000
0000
,
0010
0100
0000
0100
0010
0000
0000
0000
1000
0000
0000
1000
0001
0000
0000
1000
,
0001
0000
0000
1000
0001
0000
0001
0000
0100
0001
0010
0100
1000
0100
0010
0001
,
1000
0010
0100
0010
1000
0001
0100
0000
0001
0010
0100
1000
0100
0010
0100
1000
,
0001
0010
0100
0010
0001
1000
0010
0000
0100
0001
1000
0010
1000
0100
0010
0001
,
0100
0001
0010
0100
1000
0010
1000
0000
0010
1000
0010
0100
0001
0100
0001
0010
,
0100
1000
0010
0100
0010
1000
0100
0000
1001
0000
1001
0000
2002
0000
0000
0000
,
3003
0000
0010
0100
0010
0000
0000
1000
0001
0010
0001
1000
0100
0010
0100
1000
,
0001
0010
0100
1000
0100
0010
0100
0000
1000
0010
0100
0001
0010
0001
1000
0100
,
1000
0010
0100
0001
0010
0001
1000
0000
0010
0100
0001
1000
0010
1000
0100
0010
,
0001
0100
0001
0010
0100
1000
0100
0000
0010
0100
1000
0100
0001
0010
0100
1000
,
0001
0100
0001
1000
0010
0100
0010
1000
0001
0100
0010
0100
0001
0010
0100
1000
,
0100
1000
0100
0010
0100
0010
1000
0100
0010
0100
1000
0010
0100
0001
0010
0001
,
1000
0001
0100
0010
1000
0010
0100
0001
0010
0100
0010
0001
1000
0010
0100
0001
,
0100
0010
1000
0100
0010
0001
0010
0000
0110
0000
0110
0000
0220
0000
0000
0000
,
0330
0000
1000
0001
1000
0000
0000
0010
0100
0000
0001
0010
0100
1000
0100
0010
,
0001
0000
0000
0010
0001
0000
1000
0000
0100
0010
0100
1000
0010
0100
0001
1000
,
0010
0100
0000
0100
0010
0000
1000
0000
0001
0100
0010
1000
0100
0010
0100
1000
,
0001
0000
0000
1000
0001
0000
1000
0000
1001
0000
0101
0000
0021
0000
0100
0000
,
0130
0000
0000
1000
0001
0000
0000
0100
0010
1000
0100
0010
0001
0010
0100
1000
,
0100
0010
0001
1000
0001
0000
0100
0000
0010
0000
1000
0100
0010
0000
0100
0000
,
1000
0000
0001
0010
0100
0000
0010
0000
0001
0100
0010
1000
0010
0100
0001
0100
,
0010
1000
0100
0000
0010
0000
0001
0000
1000
0000
0100
0010
0100
0000
1000
0010
,
0100
0101
1010
1001
0020
0100
0130
1000
,
2100
0000
0000
0000
3100
0000
0100
1000
0100
0000
1000
0000
0102
0000
0010
0000
,
0103
1000
0100
0000
1000
0000
0010
0000
0100
0001
1000
0000
0010
1000
0001
0000
,
0100
0001
1000
0010
1000
0010
0100
0000
0110
0000
1010
0000
2100
0000
0010
0000
,
3010
0000
0100
0001
1000
0000
0110
0000
1001
0000
0100
0000
1000
0000
0100
0000
,
0001
0000
0120
0000
0130
1000
0100
1000
0100
0000
1000
0000
0010
0000
0010
0000
,
1000
0001
0010
0001
1000
0000
0010
0000
0200
0000
0001
0000
0301
0010
0100
1000
,
0100
0001
0100
1000
0001
1000
0010
0100
0010
0100
0010
0100
0010
0000
1000
0000
,
0001
0000
0100
0000
1020
0000
0000
0000
1030
0000
1000
0100
2000
0000
3010
0100
,
0001
0010
0001
0000
1000
0000
0100
0010
0001
0000
1001
0000
1001
0000
0010
0100
,
0010
0000
0100
0000
0010
0000
0000
0000
1000
0000
0000
0000
0001
0000
0000
0000
0100
0000
0000
0000
1020
0000
0000
0030
0101
0000
0000
0000
1001
0000
0000
0000
,
0010
0000
0001
0000
1000
0000
0201
0000
1300
0010
1000
0010
1000
0010
0100
0000
,
0101
0000
0101
0000
0001
0010
0100
1000
0010
0100
0010
1000
0001
0100
0001
0010
,
0100
0000
0100
1000
0100
1000
0100
0000
1001
0000
0000
0000
0101
0000
0000
0000
,
0120
0000
0000
0000
,
0000
0030
0000
0000
;

//---------------dance-single - ----------------
#NOTES:
     dance-single:
     :
     Hard:
     15:
     0.743543,0.806151,0.127153,0.169537,0.317883,614.000000,599.000000,15.000000,20.000000,0.000000,0.000000,0.743543,0.806151,0.127153,0.169537,0.317883,614.000000,599.000000,15.000000,20.000000,0.000000,0.000000:
0000
0000
0000
0000
,
0000
0000
0000
0000
,
0000
0000
0000
0000
,
0000
0000
0000
0000
,
1000
0100
0010
0001
0001
0010
0100
1000
,
0001
0010
0100
1000
1000
0100
0010
0001
,
0100
0010
1000
0001
0001
1000
0010
0100
,
0010
0100
0001
1000
1000
0001
0100
0010
,
1000
0100
0010
0100
1000
0001
0010
0001
,
0100
0010
1000
0010
0100
0001
1000
0001
,
0010
0001
0100
0001
0010
0100
1000
0100
,
0010
0001
1000
0001
0010
0001
0100
0001
,
0020
0100
0100
0130
2000
0001
0001
3001
,
0200
0000
0310
0000
2000
0000
3001
0000
0200
0000
0310
0100
0010
0000
1000
0000
,
0001
0000
0000
0001
0100
0000
0000
0000
0100
0001
0000
0001
0100
0000
0010
0000
,
1000
0000
0000
1000
0100
0000
0000
0000
0100
0000
1000
0100
1000
0000
0100
0000
,
0010
0000
0000
0001
1000
0000
0000
0000
1000
0001
0000
0001
1000
0000
0010
0000
,
0100
0000
0000
0010
0100
0000
0000
0010
0100
0000
0000
0010
0100
0000
0001
0000
,
1000
0000
0100
0000
0010
0000
0100
0000
1000
0001
0000
0001
0010
0000
0100
0000
,
0001
0000
0100
0000
1000
0000
0010
0000
0100
0000
0100
0010
0100
0000
0010
0000
,
1000
0000
0100
0000
0010
0000
0001
0000
0100
0010
1000
0000
0001
0000
0010
0000
,
0100
1000
0100
0001
0100
1000
0100
0001
,
0100
1000
0000
1000
0100
0000
1000
0000
0010
0000
0100
0000
0001
0000
0010
0000
,
0001
0100
0000
0100
0001
0000
0010
0000
0100
0000
1000
0000
0100
0000
0010
0000
,
0100
1000
0000
1000
0100
0000
1000
0000
0010
0000
0100
0000
0001
0000
0010
0000
,
0100
0010
0000
0010
0100
0000
0010
0000
0001
0000
1000
0000
0010
0000
0100
0000
,
0001
0000
0100
0000
0010
0000
1000
0000
0010
0000
0100
0000
0001
1000
0001
0000
,
1000
0000
0100
0000
0010
0000
0001
0000
0010
0000
0100
0000
0010
0100
0010
0000
,
0001
0000
0010
0000
0100
0000
1000
0000
0100
0000
0010
0000
0001
1000
0001
0000
,
1000
0000
0010
0000
0100
0000
0010
0000
1000
0000
0001
0000
0100
0010
1000
0001
,
0020
0100
0100
0130
0020
0100
0100
0130
,
0110
0000
2000
0000
3010
1000
0100
0010
,
0100
1000
0000
1000
0100
0000
1000
0000
0001
0010
0001
1000
0001
0010
0001
1000
,
0001
0010
0001
1001
1000
0010
0100
0001
,
0010
0100
0000
0100
0010
0000
0001
0000
1000
0000
0100
0000
0010
0000
0000
0100
,
0010
0000
0000
0100
0010
0000
0001
0000
0100
0000
0010
0000
1000
0000
0100
0000
,
1000
0001
0000
0001
1000
0000
0010
0000
1000
0100
1000
0001
1000
0100
1000
0001
,
1000
0010
0100
0000
0101
0000
0001
0000
0010
0000
0010
0000
0010
0000
0001
0000
,
0100
0010
0000
0010
0100
0000
0001
0000
1000
0000
0100
0000
0010
0000
0100
0000
,
1100
0000
1000
0001
1000
0000
0001
0000
0001
0000
0000
0000
0100
0000
0000
0000
,
1000
0100
0001
0100
,
1000
0100
0001
0000
1000
0000
0010
0000
,
0001
0010
1000
0010
,
0001
0000
0010
1000
0001
0100
0010
1000
,
0010
0100
0001
0000
1000
0100
0010
0100
,
1000
0001
0010
0000
0100
0010
0001
1000
,
0010
0001
0010
0000
1000
0001
0100
0010
,
1000
0100
0010
0001
0010
0010
0010
0000
,
0000
0000
0000
0001
1000
0000
0000
0000
0010
0000
1000
0000
0100
0000
0010
0000
,
0100
0000
1000
0000
0001
0100
0001
0000
0100
0000
0001
0000
1000
0000
0010
0000
,
1000
0000
0100
0000
0001
0100
0001
0000
0100
0000
1000
0000
0010
0000
0100
0000
,
0010
0000
1000
0000
0001
0010
0001
0000
0100
0000
0001
0000
1000
0000
0010
0000
,
1000
0100
0001
0100
1000
0010
0100
0001
,
1000
0010
0001
0010
1000
0001
0100
0010
,
0100
0001
0010
0001
0100
0010
1000
0001
,
1000
0100
0010
0100
1000
1000
1000
0000
,
0000
0000
0000
0001
1000
0000
0000
0000
0010
0000
1000
0000
0100
0000
0010
0000
,
0001
0010
0001
0010
0001
0000
1000
0000
0010
0000
1000
0000
0100
0000
0010
0000
,
0100
0000
1000
0000
0001
0010
0100
1000
0100
0000
1000
0000
0100
0000
0010
0000
,
0001
0000
0100
0000
0010
1000
0010
1000
0100
0000
0100
0000
0100
0000
0000
0000
,
0000
0000
0000
1000
0001
0000
0000
0000
1000
0000
0010
0000
1000
0000
0001
0000
,
1000
0010
1010
0000
1000
0100
0001
0100
,
1000
0010
0100
0001
0010
0100
0010
0001
,
0010
0100
0010
0100
0010
0000
0001
0000
1000
0000
0010
0000
0100
0000
0010
0000
,
1000
1000
1000
1000
0010
0100
0001
1000
,
0012
0000
0000
0000
0103
0000
0100
0010
0100
0000
0010
0000
2000
0000
3100
0000
,
1000
0001
0000
0001
0100
0000
0010
0000
0100
0000
0000
0000
0011
0000
0000
0000
,
1010
0000
0000
0000
0011
0000
0000
0000
0010
0000
0010
0000
0010
0000
0000
0001
,
1000
0000
0200
0320
0032
1003
0010
0100
,
0001
0000
0120
0000
0130
1000
0100
1000
0100
0000
1000
0000
0001
0000
0001
0000
,
0010
0100
0010
0001
1000
0010
0100
0010
,
1000
0001
0200
0000
0000
0000
0310
1000
,
0001
0100
0101
0000
1000
1000
2000
3010
,
0100
0000
0001
0000
0010
0000
0001
0000
0100
0000
0010
0000
0010
0000
1000
0100
,
0010
0000
0001
0010
0100
0000
0100
0000
0100
0000
0200
0000
0320
0000
1030
0000
,
0001
0000
1000
0000
0001
0000
2100
0000
3010
0100
0000
0100
0010
0000
0100
0000
,
0001
0001
1000
0100
0010
0001
0100
0001
,
1000
0000
0010
0100
0010
0100
0001
0000
1100
0000
0000
0000
0101
0000
0000
0000
,
1200
0000
0000
0000
,
0000
0300
0000
0000
;

//---------------dance-single - ----------------
#NOTES:
     dance-single:
     :
     Medium:
     11:
     0.492870,0.571023,0.135630,0.135630,0.008477,407.000000,391.000000,16.000000,16.000000,0.000000,0.000000,0.492870,0.571023,0.135630,0.135630,0.008477,407.000000,391.000000,16.000000,16.000000,0.000000,0.000000:
0000
0000
0000
0000
,
0000
0000
0000
0000
,
0000
0000
0000
0000
,
0000
0000
0000
0000
,
1000
0000
0000
0000
0000
0010
0100
0001
,
0000
0000
0000
0000
0000
0010
0100
1000
,
0000
0000
0000
0000
0000
1000
0001
0100
,
0000
0000
0000
0000
0000
0010
1000
0100
,
1000
0010
1000
0000
0000
0010
0100
0001
,
0010
0000
0000
0000
0000
1000
0010
0100
,
0001
0100
0001
0000
0000
0010
0100
1000
,
0000
0000
0000
0000
0000
1000
0100
0010
,
0001
0001
0001
0000
1000
1000
1000
0000
,
0010
0200
0000
0320
0000
0230
0000
0000
,
0301
0000
0100
0000
0001
0010
0001
0000
,
0100
0000
0001
0000
0010
0001
0010
0000
,
1000
0000
0100
0000
1000
0010
1000
0000
,
0010
0000
1000
0000
0100
1000
1100
0000
,
1000
0000
0010
0000
1000
0100
1000
0000
,
0001
0000
0100
0000
0001
0010
0001
0000
,
1000
0000
0010
0000
1000
0100
1000
0000
,
1001
0000
0010
0001
0100
0000
0001
0100
,
0010
0100
0010
0000
1000
0100
1000
0000
,
0010
0100
0001
0000
0100
0010
1000
0000
,
0010
0100
0010
0000
0100
0001
0100
0000
,
0001
1000
0010
0000
1000
0001
0100
0000
,
0010
1000
0000
0001
0000
0100
0010
1000
,
0000
0100
0000
0010
0000
0001
1000
0100
,
0000
1000
0000
0001
0000
0100
0001
1000
,
0000
0010
0000
1000
0000
0100
0010
0000
,
0000
0001
0001
0001
0000
1000
1000
1000
,
0002
0203
0300
0010
,
1000
0100
1000
0000
0001
0010
0001
0010
,
0001
1001
1000
0000
,
0010
0100
0001
0000
1000
0100
1000
0100
,
1000
0000
0010
0000
0100
0001
0100
0000
,
0001
0010
0001
0000
1000
0001
1000
0001
,
0010
0000
0010
0000
0001
0001
0001
0000
,
1000
0000
0010
0000
1000
0001
1000
0001
,
1000
0000
0001
0010
,
1000
0010
0001
0100
,
1000
0100
0001
0010
,
1000
0010
0001
0100
,
1000
0000
0100
0000
0001
0010
0100
0000
,
0001
0010
0100
1000
1000
0100
0010
0000
,
1000
0100
0010
0001
1000
0010
0100
0000
,
1000
0010
0100
0100
0001
0100
0010
0000
,
0001
0100
0010
1000
1000
1000
1000
0000
,
0000
0000
1001
0000
0010
0100
0001
0000
,
0010
0100
0001
1000
0100
0010
0001
0000
,
0001
1000
0010
1000
0001
1000
0010
0000
,
0010
1000
0001
0000
0000
0100
0001
1000
,
0000
0011
0000
1000
0000
0001
0100
0010
,
0000
1100
0000
0001
0000
0100
0001
1000
,
0000
0110
0000
1000
0000
0100
0010
0001
,
0000
0101
0000
0010
0100
0100
0100
0000
,
0000
0000
1001
0000
0000
1000
0100
1000
,
0000
0001
0000
0010
0000
0001
0100
0010
,
0000
1000
0000
0100
0000
1000
0010
1000
,
0000
0000
0001
0000
0000
0000
0100
0000
0001
0000
0001
0000
0001
0000
1000
0010
,
0000
1001
2000
3200
,
0320
0000
0032
0000
1003
0100
1000
0000
,
0001
0100
0001
0000
1000
0010
1000
0000
,
0001
0010
0001
0001
0100
0010
1000
0000
,
0001
0100
0001
0100
0002
0000
2003
0000
,
3020
0000
0130
0100
0100
0000
0001
1000
,
0001
1000
0010
1010
,
0110
0000
0000
0000
1010
0000
0000
0000
0100
0000
0100
0000
0100
0000
0001
1000
,
0000
0000
1001
0010
0100
1000
0001
1000
,
0001
1000
0010
0100
0010
0000
0100
0001
,
0100
0001
0100
0010
0100
0000
0001
0010
,
0001
0000
2000
0000
0000
0000
3010
0100
,
0010
0100
0010
0000
1001
0000
1000
0010
,
0100
0100
0000
0000
0000
0100
0010
0100
,
0010
0000
0000
0001
0001
0001
1000
0020
,
0000
0230
0000
0301
1000
0000
1000
0000
,
0010
1000
0010
1000
0010
0100
0010
0000
,
1000
0100
0010
0000
0001
0000
0001
0000
,
2001
0000
0000
0000
,
0000
3000
0000
0000
;

//---------------dance-single - ----------------
#NOTES:
     dance-single:
     :
     Easy:
     6:
     0.285792,0.403075,0.076292,0.076292,0.000000,236.000000,227.000000,9.000000,9.000000,0.000000,0.000000,0.285792,0.403075,0.076292,0.076292,0.000000,236.000000,227.000000,9.000000,9.000000,0.000000,0.000000:
0000
0000
0000
0000
,
0000
0000
0000
0000
,
0000
0000
0000
0000
,
0000
0000
0000
0000
,
0000
1000
0000
0000
0000
0010
0000
0000
,
0000
0100
0000
0000
0000
0001
0000
0000
,
0000
0010
0000
0000
0000
0100
0000
0000
,
0000
1000
0000
0000
0000
0010
0000
0000
,
0000
1000
0000
0000
0000
0001
0000
0000
,
0000
0100
0000
0000
0000
0001
0000
0000
,
0000
1000
0000
0000
0000
0010
0000
0000
,
0000
1000
0000
0000
0000
0001
0000
0000
,
0001
0000
1000
0000
,
1001
0110
1001
0000
,
1000
1000
0100
0000
,
1000
1000
0010
0010
,
0100
0100
0001
0000
,
0100
0100
0010
0010
,
1000
1000
0010
0000
,
0001
0001
0100
0100
,
0001
0001
0010
0000
,
0000
1000
0001
0010
,
0001
0001
0100
0000
,
0010
0010
1000
1000
,
0010
0010
0100
0000
,
0001
0001
1000
1000
,
0000
0010
0000
0000
0000
1000
0000
0001
,
0000
0010
0000
0000
0000
0001
0000
1000
,
0000
0010
0000
0000
0000
1000
0000
0100
,
0000
0010
0000
0000
0000
0001
0000
0000
,
2000
0000
3002
0000
,
1003
0200
1300
0010
,
0100
0000
0001
0001
,
0001
0000
0010
0100
,
0010
0001
1000
0010
,
1000
0000
0010
1000
,
0001
0000
0100
0100
,
0010
0010
2000
3000
,
0001
0010
0001
0001
,
0200
0000
0310
1000
,
1000
0000
0100
0001
,
0001
0000
0010
1000
,
1000
0000
0100
0001
,
0001
0000
0000
0000
0000
0100
0000
0000
,
0000
1000
0000
0100
0000
0010
0000
0000
,
0000
0001
0000
0010
0000
0100
0000
0000
,
0000
1000
0000
0001
0000
0100
0000
0000
,
0000
0001
0000
0000
1000
0000
1000
0000
,
0000
0000
1001
0000
0000
0001
0000
0000
,
0000
0100
0000
0010
0000
0001
0000
0000
,
0000
1000
0000
0100
0000
0010
0000
0000
,
0000
0100
0000
0000
1000
0000
0000
0000
,
0000
0100
0000
0010
0000
0001
0000
0000
,
0000
0010
0000
0100
0000
1000
0000
0000
,
0000
0010
0000
1000
0000
0001
0000
0000
,
0000
0100
0000
0000
0001
0000
0001
0000
,
0000
1001
1000
0000
,
0000
1000
0000
0100
0000
0001
0000
0000
,
0000
0100
0000
1000
0000
0010
0000
0000
,
0000
0100
0000
0000
1001
0000
0000
0000
,
0000
0010
0100
0100
,
0100
0100
0001
1000
,
0010
0000
1000
0100
,
1000
0100
1000
0001
,
0200
0000
0310
1000
,
0010
0000
1000
0200
,
1300
0001
0100
0100
,
0100
0100
0010
0010
,
0000
0000
0001
1000
0001
0100
0000
0100
,
0000
0100
0010
0000
0010
0000
1000
0000
,
1000
0001
0000
1000
,
0000
0020
0000
1030
,
0001
0100
0010
0010
,
0000
0000
0000
1000
0000
1000
0000
0001
,
0000
0001
0000
0100
0000
0100
0010
1000
,
0000
1000
0000
1000
0001
0000
0001
0000
,
0100
0100
0010
1000
,
0001
0001
1001
0110
,
2001
0000
0000
0000
,
0000
3000
0000
0000
;

//---------------dance-single - ----------------
#NOTES:
     dance-single:
     :
     Beginner:
     1:
     0.078714,0.165299,0.000000,0.000000,0.000000,65.000000,65.000000,0.000000,0.000000,0.000000,0.000000,0.078714,0.165299,0.000000,0.000000,0.000000,65.000000,65.000000,0.000000,0.000000,0.000000,0.000000:
// measure 0
0000
0000
0000
0000
,  // measure 1
0000
0000
0000
0000
,  // measure 2
0000
0000
0000
0000
,  // measure 3
0000
0000
0000
0000
,  // measure 4
1000
0000
0000
0000
,  // measure 5
0000
0000
0000
0000
,  // measure 6
0001
0000
0000
0000
,  // measure 7
0000
0000
0000
0000
,  // measure 8
0100
0000
0000
0000
,  // measure 9
0000
0000
0000
0000
,  // measure 10
0010
0000
0000
0000
,  // measure 11
0000
0000
0000
0000
,  // measure 12
1000
0000
0001
0000
,  // measure 13
1000
0000
0001
0000
,  // measure 14
0100
0000
0000
0000
,  // measure 15
0100
0000
0000
0000
,  // measure 16
0010
0000
0000
0000
,  // measure 17
0010
0000
0000
0000
,  // measure 18
1000
0000
0000
0000
,  // measure 19
1000
0000
0000
0000
,  // measure 20
0001
0000
0000
0000
,  // measure 21
0001
0000
0000
0000
,  // measure 22
0100
0000
0000
0000
,  // measure 23
0010
0000
0010
0000
,  // measure 24
0010
0000
0000
0000
,  // measure 25
1000
0000
1000
0000
,  // measure 26
1000
0000
0000
0000
,  // measure 27
0000
0000
0000
0000
,  // measure 28
0010
0000
0000
0000
,  // measure 29
0000
0000
0000
0000
,  // measure 30
0100
0000
0010
0000
,  // measure 31
0000
0000
0010
0000
,  // measure 32
0000
0000
1000
0000
,  // measure 33
0000
0000
0001
0000
,  // measure 34
0000
0000
0100
0000
,  // measure 35
0000
0000
0100
0000
,  // measure 36
0000
0000
0001
0000
,  // measure 37
0000
0000
1000
0000
,  // measure 38
0000
0000
0010
0000
,  // measure 39
0000
0000
1000
0000
,  // measure 40
0000
0000
1000
0000
,  // measure 41
0000
0000
0001
0000
,  // measure 42
0000
0000
0001
0000
,  // measure 43
0000
0000
0100
0000
,  // measure 44
0000
0000
0000
0000
,  // measure 45
0000
0000
0001
0000
,  // measure 46
0000
0000
0000
0000
,  // measure 47
0000
0000
1000
0000
,  // measure 48
0000
0000
0000
0000
,  // measure 49
0000
0000
0010
0000
,  // measure 50
0000
0000
0000
0000
,  // measure 51
0000
0000
1000
0000
,  // measure 52
0000
0000
0000
0000
,  // measure 53
0000
0000
0100
0000
,  // measure 54
0000
0000
0000
0000
,  // measure 55
0000
0000
0010
0000
,  // measure 56
0000
0000
0000
0000
,  // measure 57
0000
0000
0001
0000
,  // measure 58
0000
0000
0000
0000
,  // measure 59
0000
0000
1000
0000
,  // measure 60
0000
1000
0000
0000
,  // measure 61
0000
0000
0001
0000
,  // measure 62
0000
0000
0100
0000
,  // measure 63
0000
0000
0010
0000
,  // measure 64
0000
0000
0100
0000
,  // measure 65
0000
0000
0001
0000
,  // measure 66
0000
0000
1000
0000
,  // measure 67
0000
0000
1000
0000
,  // measure 68
0000
0010
0000
0000
,  // measure 69
0000
0000
0000
0100
,  // measure 70
0000
0000
0000
0001
,  // measure 71
0000
0000
0000
1000
,  // measure 72
0000
0000
0000
0000
,  // measure 73
0000
0000
0000
0010
,  // measure 74
0000
0000
0000
0000
,  // measure 75
0000
0000
0000
0000
,  // measure 76
1000
0000
0000
0000
,  // measure 77
0100
0000
0010
0010
,  // measure 78
0010
0000
0000
0000
;

//---------------dance-double - ----------------
#NOTES:
     dance-double:
     :
     Challenge:
     18:
     1.005115,1.108457,0.169537,0.203445,1.169809,830.000000,810.000000,20.000000,24.000000,0.000000,0.000000,1.005115,1.108457,0.169537,0.203445,1.169809,830.000000,810.000000,20.000000,24.000000,0.000000,0.000000:
00000000
00000000
00000000
00000000
,
00000000
00000000
00000000
00000000
,
00000000
00000000
00000000
00000000
,
00000000
00000000
00000000
00000000
,
00000001
00000000
00000100
00000010
00000100
00000010
00000100
00000000
00000010
00000000
00000100
00000010
00000100
00000010
00000100
00001000
,
00010000
00000000
01000000
10000000
01000000
10000000
00010000
00000000
10000000
00000000
01000000
00100000
00001000
00100000
00001000
01000000
,
00100000
00000000
10000000
00010000
10000000
00010000
00100000
00000000
01000000
00000000
00100000
01000000
00100000
01000000
00100000
00010000
,
00001000
00000000
00000100
00000001
00000100
00000001
00001000
00000000
00000010
00000000
00010000
00000100
00010000
00000100
00000010
00000001
,
00001000
00000000
00001000
00000100
00001000
00000100
00000010
00000000
00010000
00000000
00001000
00100000
00001000
00100000
01000000
00100000
,
01000000
00000000
10000000
00100000
10000000
00100000
01000000
00000000
00100000
00000000
01000000
00001000
00010000
00001000
00010000
00000010
,
00000100
00000000
00000010
00000001
00000010
00000001
00000100
00000000
00000010
00000000
00010000
00001000
00010000
00001000
01000000
00100000
,
01000000
00000000
00100000
10000000
00100000
10000000
00100000
00000000
01000000
00000000
00010000
01000000
00010000
01000000
00010000
01000000
,
00002000
00010000
00010000
00013000
00020100
00001000
00001000
00031000
,
00201000
00000000
00310000
00000000
00020100
00000000
00031000
00000000
00102000
00000000
00013000
00001000
00010000
00000000
00000100
00000000
,
00000010
00000000
00000000
00000000
00000010
00000000
00000001
00000000
00000100
00000010
00000000
00000100
00001000
00000000
00010000
00000000
,
01000000
00000000
00000000
00000000
10000000
00000000
00000000
00000000
00100000
00000000
00010000
00001000
00000010
00000000
00000001
00000000
,
00000100
00000000
00000000
00000000
00000010
00000000
00000100
00000000
00001000
00010000
00000000
00001000
01000000
00000000
00000000
00000000
,
00100000
00000000
00000000
10000000
00010000
00000000
00000000
00010000
00001000
00000000
00000000
00001000
00000001
00000000
00000000
00000000
,
00000100
00000000
00001000
00000000
00010000
00000000
01000000
00000000
00010000
00001000
00000000
00000100
00001000
00000000
00010000
00000000
,
00100000
00000000
10000000
00000000
00100000
00000000
00010000
00000000
00001000
00000000
00000010
00000001
00000010
00000000
00000000
00000000
,
00001000
00000000
00010000
00000000
01000000
00000000
10000000
00000000
01000000
00010000
00000000
00001000
00000100
00000000
00000000
00000000
,
00000001
00001000
00001000
00000001
00000001
00000100
00010010
00001000
,
00100000
01000000
10000000
01000000
00100000
00010000
00100000
01000000
00000000
10000000
00000000
01000000
00010000
00000000
00001000
00000000
,
00000100
00000001
00000010
00000100
00001000
00000100
00000010
00000001
00000000
00000100
00000000
00001000
00010000
00000000
00010000
00000000
,
00100000
10000000
01000000
00100000
00010000
00100000
01000000
10000000
00000000
00100000
00000000
00010000
00001000
00000000
00001000
00000000
,
00000010
00000001
00001000
00000010
00000100
00000010
00001000
00000001
00000000
00000100
00000000
00001000
00010000
00000000
01000000
00000000
,
01000000
00000000
00100000
10000000
00100000
10000000
00100000
00000000
00010000
00000000
00001000
00000100
00001000
00000100
00001000
00000100
,
00000001
00000000
00001000
00000010
00001000
00000010
00001000
00000000
00010000
00000000
00100000
10000000
00100000
10000000
00100000
10000000
,
01000000
00000000
00010000
00001000
00010000
00001000
00010000
00000000
00001000
00000000
00000010
00000001
00000010
00000001
00000010
00000001
,
00000100
00000000
00001000
00010000
00001000
00010000
00001000
00000000
01000000
00000000
00100000
10000000
00100000
10000000
00100000
10000000
,
01000000
00010000
00001000
00000100
00000100
00001000
00010000
01000000
,
20020000
00000000
30030000
00000000
00200000
00000000
00000000
00000000
00310000
00000000
00000100
00000010
00000001
00000010
00000100
00000000
,
00001000
00000010
00000000
00000010
00010000
00000000
00001000
00000000
01000000
00000000
00100000
10000000
00100000
00000000
10000000
01000000
,
10000000
00000000
01000000
00100000
01000000
00000000
00010000
00000000
00001000
00000000
00000100
00000000
00000001
00000000
00000010
00000100
,
00001000
00000100
00000010
00000000
00000001
00000000
00001000
00000000
00000001
00000000
00000010
00000000
00000100
00000000
00010000
00001000
,
00010000
00000000
00000000
00010000
00001000
00000000
00000000
00000000
00100000
01000000
10000000
01000000
00100000
00000000
00010000
10000000
,
00010000
00000000
01000000
00100000
01000000
00100000
01000000
00000000
00200000
00000000
00320000
00000000
00032000
00000000
00003020
00000000
,
00000031
00000100
00000010
00001000
00000010
00000100
00000001
00000010
00000100
00010000
00000100
00010000
00000100
00000000
00010000
00001000
,
00100000
01000000
00100000
00010000
10000000
00100000
01000000
00000000
00100000
00000000
10000000
00000000
00010000
00000000
00010000
00000000
,
10000000
00000000
01000000
00010000
00001000
00000000
00000100
00000000
00000001
00000000
00000000
00000000
00000001
00000000
00000000
00000000
,
00001000
00010000
10000000
10000000
,
00010000
00001000
00000001
00000001
,
00001000
00000000
00000000
00000000
00010000
00000000
00000000
00000000
10000000
00000000
00000000
10000000
00010000
00000000
00000000
00010000
,
00001000
00000000
00000000
00001000
00000001
00000000
00000001
00000000
00000100
00000010
00000100
00000010
00001000
00000010
00001000
00000010
,
00000100
00000000
00000010
00010000
00000010
00010000
00001000
00000000
00010000
00001000
00010000
00001000
01000000
00001000
01000000
00001000
,
00100000
00000000
01000000
10000000
01000000
10000000
00010000
00000000
01000000
00001000
01000000
00001000
00010000
00001000
00010000
00001000
,
00010000
00000000
00000010
00000100
00000010
00000100
00000001
00000000
00000010
00000100
00000010
00000100
00010000
00001000
00010000
00001000
,
00010000
00000000
00001000
00100000
00001000
00100000
00010000
00000000
00001000
00000000
00000010
00000000
00000022
00000000
00000000
00000000
,
00000033
00000000
00000000
00000001
00001000
00000000
00000000
00000000
00000001
00000010
00000001
00000010
00000100
00000010
00000100
00001000
,
00000100
00000000
00010000
00001000
00010000
00001000
01000000
00000000
00100000
10000000
00100000
10000000
01000000
10000000
01000000
10000000
,
00010000
00000000
01000000
00001000
01000000
00001000
00010000
00000000
00000100
00000010
00000100
00000010
00000100
00001000
00000100
00001000
,
00000001
00000000
00000010
00000001
00001000
00000001
00000010
00000000
00000001
00000100
00000010
00000100
00000001
00000010
00000100
00001000
,
00000010
00010000
00000010
00010000
00001000
00010000
00001000
00010000
00001000
01000000
00100000
01000000
00001000
00100000
01000000
10000000
,
01000000
00100000
01000000
00100000
00010000
10000000
00010000
10000000
00100000
01000000
00001000
01000000
00100000
01000000
00001000
00010000
,
00000010
00001000
00000010
00001000
00000010
00000100
00000010
00000100
00000010
00001000
00000100
00001000
00000010
00000100
00000001
00001000
,
00000100
00010000
00000100
00010000
00001000
00100000
00001000
00100000
00001000
00000000
00010000
00000000
00210000
00000000
00000000
00000000
,
00300000
00000000
10000000
00010000
10000000
00000000
00000000
01000000
10000000
00100000
01000000
00100000
10000000
01000000
00100000
00001000
,
00010000
00000010
00000100
00000010
00010000
00000100
00000010
00000001
00000100
00000010
00010000
00000010
00000100
00000010
00010000
00001000
,
01000000
00100000
10000000
00100000
01000000
00001000
00010000
00000100
00001000
00000100
00000010
00000100
00001000
00000001
00000100
00000010
,
00010000
00001000
01000000
00001000
00010000
00100000
01000000
10000000
00010000
00000000
10000000
00000000
12000000
00000000
00010000
00000000
,
03010000
00000000
00001000
00000010
00001000
00000000
00000010
00000001
00000100
00000010
00000100
00000010
00010000
00001000
00010000
00001000
,
01000000
00100000
01000000
00100000
10000000
00010000
10000000
00010000
01000000
00000000
00001000
00000000
00000100
00000000
00000010
00000000
,
00001000
00000001
00000000
00000001
00000100
00000000
00001000
00000000
01000000
00000000
00100000
00000000
10000000
00010000
10000000
00000000
,
00100000
00000000
00100000
00000000
00010000
00000000
00010000
00000000
00001000
00000000
00000010
00001000
00000010
00000000
00000001
00000000
,
00000200
00000001
00000010
00001000
00010300
00000100
00010000
00001000
,
00201000
00000000
00000000
00000000
00310000
00000000
00100000
10000000
00100000
00000000
00010000
00000000
02000000
00000000
00100000
00000000
,
03010000
00001000
00000000
00001000
00000100
00000000
00000001
00000000
00000010
00000000
00000100
00000000
00000010
00000001
00000010
00000000
,
00000010
00001000
00000010
00000000
00001000
00010000
00001000
00000000
00100000
00000000
10000000
00000000
01020000
00000000
00100000
00000000
,
01030000
00000000
00010000
00001000
00000100
00000000
00011000
00000000
00000100
00000000
00000010
00000001
00000010
00000001
00000100
00000001
,
00000100
00000000
00000010
00000000
00100000
01000000
00000000
00100000
01000000
00000000
00010000
00000000
10000000
00000000
10000000
00000000
,
01000000
00010000
00001000
00000000
00000010
00000000
00000001
00001000
00000001
00000000
00000010
00000000
00000100
00000000
00000010
00000000
,
00000001
00000000
00000010
00000000
00001000
00000000
00010000
00100000
00010000
00100000
00010000
00100000
20000000
00000000
31000000
00000000
,
00020000
00000000
01030000
00000000
20010000
00000000
00000000
00000000
30100000
00000000
00010000
00001000
00100000
00000000
00000010
00000100
,
00000000
00000010
00000100
00000000
00000001
00000000
00001000
00000010
00000100
00000000
00000001
00001000
00000001
00001000
00000001
00000100
,
00000001
00000100
00001000
00000000
00010000
00000000
00100000
00000000
10000000
00000000
10010000
00000000
00001001
00000000
10010000
00000000
,
00010000
00000000
10000000
00000000
00010000
00000000
01100000
00000000
00000010
00000100
00000000
00000010
00000100
00000000
00000001
00000000
,
00001000
00000000
00001000
00000000
00000010
00000100
00000001
00000100
00000010
00000000
00000100
00001000
00010000
01000000
10000000
00000000
,
00010000
00000000
00100000
01000000
00100000
01000000
00100000
00000000
11000000
00000000
00000000
00000000
00011000
00000000
00000000
00000000
,
00000102
00000000
00000000
00000000
,
00000000
00000003
00000000
00000000
;

//---------------dance-double - ----------------
#NOTES:
     dance-double:
     :
     Easy:
     8:
     0.395991,0.470255,0.169537,0.288214,0.000000,327.000000,307.000000,20.000000,34.000000,0.000000,0.000000,0.395991,0.470255,0.169537,0.288214,0.000000,327.000000,307.000000,20.000000,34.000000,0.000000,0.000000:
00000000
00000000
00000000
00000000
,
00000000
00000000
00000000
00000000
,
00000000
00000000
00000000
00000000
,
00000000
00000000
00000000
00000000
,
00000000
10010000
00000000
00000000
00000000
00011000
00000000
00000000
,
00000000
00001001
00000000
00000000
00000000
00011000
00000000
00000000
,
00000000
10010000
00000000
00000000
00000000
00011000
00000000
00000000
,
00000000
00001001
00000000
00000000
00000000
00011000
00000000
00000000
,
00000000
00100000
10000000
00100000
00000000
01000000
00010000
01000000
,
00000000
00100000
10000000
00100000
00000000
01000000
00001000
00010000
,
00000000
00000010
00001000
00000010
00000000
00000100
00000001
00000100
,
00000000
00000010
00001000
00000010
00000000
00000100
00000010
00010000
,
00002000
00020000
00000000
00033000
00020000
00002000
00000000
00033000
,
00001000
00010000
00001000
00010000
,
00001000
00100000
01000000
01000000
,
10000000
00100000
00010000
00001000
,
00000010
00000001
00000100
00000100
,
00000010
00010000
00010000
00010000
,
00001000
00200000
00301000
00010000
,
00100000
20000000
30010000
10000000
,
01000000
00020000
00031000
00010000
,
00000010
00000200
00000320
00000230
,
00000301
00001000
00000001
00000001
,
00001000
00000010
00001000
00001000
,
00000100
00010000
00000100
00000100
,
00010000
00001000
00100000
00100000
,
01000000
11000000
00000000
00110000
,
00000000
00011000
00000000
00010100
,
00000000
00000110
00000000
00000011
,
00000000
00000101
00000000
00001010
,
00000010
00000000
00010000
00000000
,
00011000
00100000
01000000
00000000
,
10000000
00100000
01000000
00000000
00020000
00030000
00020000
00030000
,
00020000
00030000
10000000
01000000
10000000
00000000
01000000
00000000
,
00010000
00000000
00001000
00000000
00000100
00000000
00000002
00000003
,
00000002
00000003
00000002
00000003
00000100
00000010
00000100
00000010
,
00001000
00000010
00000200
00002300
,
00023000
00000000
02030000
00000000
13000000
10000000
10000000
00000000
,
00100000
01000000
00100000
10000000
,
00000000
00010000
10000000
00010000
10000000
00000000
10000000
00000000
,
00000000
00100000
00000000
00010000
,
00000000
00001000
00000000
00000010
,
00000000
00000001
00000000
00000100
,
00001000
00000000
00010000
00000000
01000000
10000000
01000000
00000000
,
10000000
00100000
10000000
00000000
00100000
01000000
00100000
00000000
,
01000000
00100000
01000000
00000000
00100000
00000000
00010000
00000000
,
00001000
00000010
00000001
00000100
,
00001000
00000000
00010000
00000000
01000000
01000000
01000000
00000000
,
00000000
00010000
00001000
00000010
,
00000001
00000000
00000100
00000000
00000010
00001000
00000010
00000000
,
00000100
00000001
00000100
00000000
00000010
00000100
00000010
00000000
,
00010000
00001000
00010000
00000000
00001000
00100000
01000000
00000000
,
10000000
00000000
00010000
00000000
10000000
01000000
00100000
00000000
,
00001000
00000000
00010000
00000000
00000010
00000100
00000001
00000000
,
00001000
00000000
00000010
00000000
00010000
00001000
00100000
00000000
,
00010000
00000000
01000000
00000000
00100000
00100000
00100000
00000000
,
00000000
10000000
01000000
00010000
,
00001000
00000000
00000010
00000000
00000001
00001000
00000001
00000000
,
00001000
00000001
00001000
00000000
00000010
00000000
00000100
00000000
,
00001000
00000000
00010000
00000000
01000000
01000000
01000000
00000000
,
00000000
00000000
10010000
00000000
00100000
00001000
00100000
00001000
,
00100000
00001000
00010000
00000100
,
00001000
00000010
00000200
00000000
,
00000301
00001000
00000010
00000100
,
00000010
00010000
00000010
00010000
00000010
00000000
00000100
00000000
,
00002000
00000000
00013000
00000000
01000000
00000000
10000000
00010000
,
10000000
00100000
00010000
00001000
,
00000010
00000000
00000002
00000000
00000103
00000010
00000100
00000000
,
00000000
00000000
00000210
00000320
00002030
00003100
00000000
00000100
,
00000000
00000200
00010300
00000000
00010000
00000000
00001000
00001000
,
00001000
00100000
01000000
10000000
,
00000000
00020000
00000000
01030000
,
00100000
00000000
02000000
00000000
00000000
00000000
03200000
10300000
,
00000000
00010000
00000000
01000000
00000000
00100000
00000000
00010000
,
00000000
00001000
00000000
00000010
00000000
00000002
00000203
00000310
,
00000000
00000010
00000000
00000020
00010030
00000000
00010000
00000000
,
00001000
00001000
00001000
00000000
00100000
00000000
01000000
00000000
,
10000000
00000000
00010000
00010000
,
10020000
00000000
00000000
00000000
,
00000000
00030000
00000000
00000000
;

//---------------dance-double - ----------------
#NOTES:
     dance-double:
     :
     Hard:
     15:
     0.733855,0.738972,0.169537,0.110199,0.411128,606.000000,586.000000,20.000000,13.000000,0.000000,0.000000,0.733855,0.738972,0.169537,0.110199,0.411128,606.000000,586.000000,20.000000,13.000000,0.000000,0.000000:
00000000
00000000
00000000
00000000
,
00000000
00000000
00000000
00000000
,
00000000
00000000
00000000
00000000
,
00000000
00000000
00000000
00000000
,
00000000
00000000
00000001
00000100
00000001
00000100
00000001
00000000
00000000
00000000
00001000
00000100
00001000
00000100
00001000
00000000
,
00000000
00000000
00000010
00010000
00000010
00010000
00000010
00000000
00000000
00000000
00010000
00001000
00010000
00001000
00010000
00000000
,
00000000
00000000
00001000
00100000
00001000
00100000
00001000
00000000
00000000
00000000
01000000
00100000
01000000
00100000
01000000
00000000
,
00000000
00000000
00100000
10000000
00100000
10000000
00100000
00000000
00000000
00000000
10000000
01000000
10000000
01000000
10000000
00000000
,
00000000
00000000
00010000
01000000
00010000
01000000
00010000
00000000
00000000
00000000
00100000
00001000
00100000
00001000
00100000
00000000
,
00000000
00000000
00001000
00010000
00001000
00010000
00001000
00000000
00000000
00000000
00010000
00000010
00010000
00000010
00010000
00000000
,
00000000
00000000
00000010
00000100
00000010
00000100
00000010
00000000
00000000
00000000
00000100
00000001
00000100
00000001
00000100
00000000
,
00000000
00000000
00000010
00001000
00000010
00001000
00000010
00000000
00000000
00000000
00001000
00000001
00001000
00000001
00001000
00000000
,
00000002
00000010
00000010
00000013
00002000
00010000
00010000
00013000
,
02000000
00000000
13000000
00000000
02000000
00000000
03010000
00000000
00002000
00000000
00003100
00000001
00000100
00000000
00001000
00000000
,
00010000
00000000
00000000
00000000
00010000
00000000
00000000
00000000
00010000
00001000
00000000
00001000
01000000
00000000
00000000
00000000
,
00100000
00000000
00000000
00000000
00100000
00000000
00000000
00000000
00100000
00000000
00010000
00001000
00010000
00000000
00000000
00000000
,
00001000
00000000
00000000
00000000
00001000
00000000
00000000
00000000
00001000
00010000
00000000
00010000
00000010
00000000
00000000
00000000
,
00000100
00000000
00000000
00001000
00010000
00000000
00000000
00001000
00010000
00000000
00000000
00001000
00010000
00000000
00100000
00000000
,
01000000
00000000
00010000
00000000
00100000
00000000
01000000
00000000
00010000
00000000
00000000
00001000
00000000
00000000
00010000
00000000
,
00001000
00000100
00000001
00001000
00000100
00000001
00001000
00000010
,
00000100
00000000
00001000
00000000
00000010
00000000
00000100
00000000
00001000
00000000
00000000
00010000
00000000
00000000
01000000
00000000
,
00000000
10000000
00010000
10000000
01000000
00010000
00001000
00000010
,
00000001
00000100
00000001
00000000
00001000
00000000
00000000
00000010
00000000
00000000
00000010
00000000
00000100
00000000
00001000
00000000
,
00010000
00001000
00010000
00000000
00001000
00000000
00000000
00100000
00000000
00000000
01000000
00000000
10000000
00000000
01000000
00000000
,
00010000
00001000
00010000
00000000
00000010
00000000
00000000
00000100
00000000
00000000
00000001
00000000
00000010
00000000
00000100
00000000
,
00000010
00000001
00000010
00000000
00000100
00000000
00000000
00010000
00000000
00000000
00001000
00000000
00010000
00000000
00100000
00000000
,
10000000
01000000
00010000
00001000
00000000
00010000
00001000
00000100
,
00000000
00001000
00000100
00000001
00000000
00000100
00000001
00000010
,
00000000
00000001
00000010
00001000
00000000
00000010
00001000
00010000
,
00000000
00001000
00010000
00100000
00000000
00010000
00100000
10000000
,
02000000
00010000
00010000
03010000
00002000
00000100
00000100
00003100
,
00011000
00000000
00000011
00000000
00000001
00000100
00000001
00000010
,
00000001
00001000
00000000
00001000
00000010
00000000
00000100
00000000
00001000
00000000
00010000
00000000
00001000
00000000
00010000
00000000
,
00100000
10000000
00100000
10000000
01000000
00010000
00001000
00000010
,
00000100
00000010
00000000
00000010
00010000
00000000
00001000
00000000
00000100
00000000
00000001
00000000
00000100
00000000
00000000
00000001
,
00001000
00000000
00000000
00000001
00001000
00000000
00000000
00000000
00000010
00000100
00000010
00000000
00001000
00000000
00000020
00000000
,
00000030
00000100
00001000
00010000
00100000
10000000
00100000
10000000
,
01000000
00010000
01000000
00010000
00001000
00001000
00001000
01000000
,
00100000
00010000
00001000
00000010
00000001
00001000
00000001
00000000
,
00000110
00000000
00000010
00000100
00000010
00000000
00010000
00000000
00001000
00000000
00000000
00000000
00001000
00000000
00000000
00000000
,
00010000
00001000
00000000
00001000
01000000
00000000
00000000
00000000
00001000
00000000
00000000
00000000
00001000
00000000
00000000
00000000
,
00010000
00000000
00010000
00000010
00010000
00000000
00000000
00000000
00010010
00000000
00000000
00000000
00000101
00000000
00000000
00000000
,
00000001
00000010
00000000
00000100
00010000
00000000
00000000
00000000
00001000
00000000
00100000
00000000
00101000
00000000
00000000
00000000
,
11000000
00000000
00000000
00000000
10100000
00000000
00000000
00000000
10000000
00000000
00100000
01000000
00100000
00000000
10000000
00000000
,
01000000
00000000
00010000
00000000
00001000
00000000
00000010
00000000
00000001
00000000
00000100
00000010
00000100
00000000
00000001
00000000
,
00000010
00000000
00001000
00000000
00010000
00000000
01000000
00000000
10000000
00000000
00010000
00100000
00010000
00000000
10000000
00000000
,
01000000
00000000
00010000
00000000
00001000
00000000
00000010
00000000
00000001
00000000
00001000
00000100
00001000
00000000
00000001
00000000
,
00000010
00001000
00010000
01000000
10000000
10000000
10010000
00000000
,
00000000
00000000
01000000
00010000
10000000
00000000
00000000
00100000
01000000
00000000
00010000
00100000
00010000
00000000
01000000
00000000
,
00100000
00000000
00010000
00000000
00001000
00000000
00000010
00000000
00000100
00000000
00000001
00000010
00000001
00000000
00000100
00000000
,
00000010
00000000
00000100
00000000
00001000
00000000
00010000
00000000
01000000
00000000
10000000
00010000
10000000
00000000
00100000
00000000
,
01000000
00000000
00100000
00000000
00010000
00000000
00001000
00000000
00000010
00000000
00000001
00001000
00000001
00000000
00000000
00000000
,
00000010
00000000
00000001
00001000
00000001
00000000
00000000
00000000
00000100
00000000
00000010
00010000
00000010
00000000
00000000
00000000
,
00000100
00000000
00000010
00010000
00000010
00000000
00000000
00000000
00010000
00000000
00001000
01000000
00001000
00000000
00000000
00000000
,
00010000
00000000
00001000
01000000
00001000
00000000
00000000
00000000
01000000
00000000
00100000
10000000
00100000
00000000
00000000
00000000
,
10000000
00000000
01000000
00100000
01000000
00000000
00000000
00000000
00001000
00000000
00010000
00000000
00011000
00000000
00000000
00000000
,
00000000
00000000
00000010
00001000
00000010
00000000
00000000
00000000
00000100
00000000
00000001
00001000
00000001
00000000
00000010
00000000
,
00001000
00000000
00010000
00000100
00010000
00000000
00001000
00000000
01000000
00000000
00100000
10000000
00100000
00000000
01000000
00000000
,
00100000
00000000
00010000
00001000
00010000
00000000
00001000
00000000
00000100
00000000
00000001
00001000
00000001
00000000
00000100
00000000
,
00000010
00000000
00001000
00000001
00001000
00000000
00000010
00000000
00000100
00000000
00000100
00000000
00000100
00000000
00000001
00000000
,
00001000
00000000
00000000
00001000
00000010
00000000
00000000
00000010
00010000
00000000
00001000
00000000
00010000
00000000
00001000
00000000
,
00010000
01000000
10000000
00010000
10000000
00100000
10000000
01000000
,
10000000
00100000
00010000
00001000
00000100
00000001
00000100
00000001
,
00001000
00001000
00000010
00000010
00000100
00001000
00010000
02000000
,
00000000
10000000
10000000
13000000
00100000
00010000
00100000
00010000
,
00200000
00000000
00000000
00000000
10300000
00000000
00010000
01000000
00010000
00000000
02000000
00000000
00100000
00000000
03100000
00000000
,
00010000
00000000
00000000
00001000
00000000
00000000
00000100
00000000
00000001
00000000
00000000
00000000
00001001
00000000
00000000
00000000
,
00010100
00000000
00011000
00000000
00000010
00000010
00000010
00010000
,
00001000
00000000
00000000
00100000
01000000
00000000
10010000
00000000
00100000
00000000
00001000
00000000
00000010
00000000
00000001
00000000
,
00000010
00000000
00000011
00000000
00010000
00001000
00000000
00001000
00010000
00000000
00000100
00000000
00010000
00000000
00010000
00000000
,
00001000
00100000
01000000
10000000
01000000
10000000
00100000
01000000
,
00100000
00010000
00001000
00000200
00000000
00000000
00000301
00001000
,
00000001
00001000
00001001
00000000
00000010
00010000
00001000
00010000
,
00100000
10000000
01000000
00010000
00001000
00010000
00010000
00000010
,
00000100
00000001
00001000
00000100
00000100
00000100
01010000
00100000
,
10000000
00100000
10000000
01100000
00001000
00010000
00001000
00010000
,
00000010
00000010
00000100
00000001
00001000
00000010
00000100
00001000
,
00010000
00000000
00001000
01000000
00001000
01000000
00001000
00000000
00100000
00000000
00000000
00000000
11000000
00000000
00000000
00000000
,
00012000
00000000
00000000
00000000
,
00000000
00003000
00000000
00000000
;

//---------------dance-double - ----------------
#NOTES:
     dance-double:
     :
     Medium:
     13:
     0.571584,0.671792,0.135630,0.169537,0.050861,472.000000,456.000000,16.000000,20.000000,0.000000,0.000000,0.571584,0.671792,0.135630,0.169537,0.050861,472.000000,456.000000,16.000000,20.000000,0.000000,0.000000:
00000000
00000000
00000000
00000000
,
00000000
00000000
00000000
00000000
,
00000000
00000000
00000000
00000000
,
00000000
00000000
00000000
00000000
,
00000000
10000000
01000000
00010000
00000000
00001000
00000100
00000001
,
00000000
00000001
00000100
00001000
00000000
00010000
01000000
10000000
,
00000000
10000000
00100000
00010000
00000000
00001000
00000010
00000001
,
00000000
00000001
00000010
00001000
00000000
00010000
00100000
10000000
,
00000000
10000000
01000000
00010000
00000000
00001000
00000010
00000001
,
00000000
00000001
00000100
00001000
00000000
00010000
00100000
10000000
,
00000000
10000000
00100000
00010000
00000000
00001000
00000100
00000001
,
00000000
00000001
00000010
00001000
00000000
00010000
01000000
10000000
,
00200000
01000000
01000000
01300000
02000000
00100000
00100000
03100000
,
02000000
00000000
03100000
00000000
00200000
00000000
01300000
00000000
02000000
00000000
03001000
00010000
00001000
00000000
00010000
00000000
,
00000010
00000000
00000000
00000000
00000010
00000000
00000000
00000000
00000010
00010000
00000000
00010000
00001000
00000000
00000000
00000000
,
01000000
00000000
00000000
00000000
01000000
00000000
00000000
00000000
01000000
00000000
00001000
00010000
00001000
00000000
00000000
00000000
,
00010000
00000000
00000000
00000000
00010000
00000000
00000000
00000000
00010000
00000010
00000000
00000010
00000100
00000000
00000000
00000000
,
00000001
00000000
00000000
00000000
00000001
00000000
00000000
00001000
00000001
00000000
00000000
00001000
00000001
00000000
00000000
00000000
,
00000100
00001000
00010000
01000000
10000000
00010000
10000000
00000000
,
01000000
00010000
00001000
00000000
00010000
00001000
00000010
00000000
,
00000001
00000000
00000100
00000001
00000100
00000010
00000100
00000000
,
00001000
00010000
01000000
00010000
00001000
00100000
01000000
10000000
,
00010000
00000000
00100000
00000000
00010000
00000000
00000000
01000000
00000000
00000000
01000000
00000000
00010000
00000000
00000000
00000000
,
10000000
01000000
00010000
01000000
10000000
00010000
00100000
00000000
,
00001000
00000000
00010000
00000000
00001000
00000000
00000000
00010000
00000000
00000000
00010000
00000000
00000010
00000000
00000000
00000000
,
00000100
00000010
00001000
00000010
00000001
00001000
00000001
00000000
,
00000100
00000001
00000010
00000001
00000000
00000010
00001000
00000010
,
00000000
00001000
00010000
00001000
00000000
00010000
00100000
00010000
,
00000000
00100000
10000000
00100000
00000000
10000000
00100000
10000000
,
00000000
00100000
00010000
00100000
00000000
00010000
00001000
00010000
,
00000020
00000001
00000001
00000031
00000002
00000100
00000100
00000103
,
00000010
00000000
00011000
00000000
00100000
01000000
10000000
00000000
,
00100000
01000000
00100000
01000000
00200000
00000000
00320000
00000000
,
00032000
00000000
00003020
00000000
00000031
00000100
00000001
00000000
,
00001000
00000010
00001000
00000010
00002000
00000000
00003200
00000000
,
00020300
00000000
00032000
00000000
01003000
00010000
01000000
00100000
,
00100000
10000000
00010000
00000000
10100000
00000000
01001000
00000000
,
00011000
00000000
00010010
00000000
00000100
00000100
00000100
00000000
,
00000010
00000001
00000100
00001000
00010000
00000000
00001000
00000000
,
00000000
00000000
00010000
00010000
,
00001000
00100000
01000000
00000000
10000000
00000000
10000000
00000000
,
00100000
01000000
00001000
00000000
00010000
00000000
00010000
00000000
,
00000010
00000000
00000100
00000000
00000001
00000000
00000000
00000000
00000010
00000000
00000000
00000000
00000100
00000000
00000000
00000010
,
00000100
00000000
00000000
00000100
00000010
00000000
00000001
00000000
00001000
00000000
00000100
00000000
00000010
00000000
00000100
00000000
,
00000000
00010000
00001000
01000000
00000000
00100000
01000000
00100000
,
00000000
00001000
00010000
00000010
00000000
00000100
00000010
00000100
,
00000000
00001000
00010000
00100000
00000000
10000000
00010000
10000000
,
00000000
01000000
00010000
00001000
00000010
00000010
00000010
00000000
,
00000000
00000000
00001001
00000000
00000100
00000010
00010000
00001000
,
00000000
00010000
00001000
00100000
00000000
00010000
10000000
01000000
,
00000000
00010000
01000000
00001000
00000000
00010000
00000100
00001000
,
00000000
00000010
00000100
00000001
00000010
00000100
00000010
00000001
,
00000100
00001000
00010000
01000000
10000000
00100000
10000000
00010000
,
01000000
00100000
00010000
00001000
00000010
00000001
00000010
00000100
,
00000001
00000010
00001000
00010000
00100000
01000000
00100000
10000000
,
01000000
00100000
01000000
10000000
00010000
00010000
00010000
00000000
,
00000000
00000000
01010000
00000000
01000000
00001000
01000000
00100000
,
00010000
00001000
00000100
00000001
00000010
00000100
00000010
00000001
,
00000100
00001000
00010000
00100000
10000000
00010000
10000000
01000000
,
00010000
00001000
00000010
00000001
00000100
00000100
00000100
00000000
,
00000000
00001001
00000010
00000100
,
00001000
00000000
00010000
00000000
01000000
10000000
01000000
00000000
,
00010000
00100000
00010000
00000000
00100000
01000000
00010000
00000000
,
00001000
00000000
00000010
00000000
00000001
00001000
00000001
00001000
,
00000001
00000100
00000100
00000100
00000010
00000000
00010000
00000000
,
00002000
00000000
01003000
00100000
01000000
00000000
10010000
00000000
,
10000000
01000000
00100000
01000000
10000000
00000000
01000000
00000000
,
00010000
00000000
00001000
00000000
00000010
00000010
00000010
00000000
,
00000001
00000000
00001100
00000101
00001001
00000010
00010000
00000010
,
00010000
00002000
01003000
00100000
01000000
00100000
10000000
10000000
,
00010000
00100000
00010000
01000000
00100000
00000000
10000000
00000000
,
01000000
00000000
00010000
00001000
00010000
00001000
00000100
00000000
,
00000100
00000000
00000001
00000000
00001100
00001000
00000010
00000100
,
00001000
00010000
01000000
20000000
00000000
00010000
30010000
01000000
,
00100000
01000000
00000000
00100000
00100000
00100000
00011000
00000010
,
00000000
00000010
00000000
00000010
00000200
00000000
00000000
00000000
,
00000301
00001000
00000001
00000100
00000010
00000000
00010010
00000000
,
00010000
00001000
00010000
00000000
00001000
00000000
00100000
00000000
,
00020100
00000000
00000000
00000000
,
00000000
00030000
00000000
00000000
;
