#TITLE:Both of Us;
#SUBTITLE:;
#ARTIST:Jayda G;
#TITLETRANSLIT:;
#SUBTITLETRANSLIT:;
#ARTISTTRANSLIT:;
#GENRE:House;
#CREDIT:;
#BANNER:bothofus-bn.png;
#BACKGROUND:bothofus-bg.png;
#LYRICSPATH:;
#CDTITLE:;
#MUSIC:Both of Us.mp3;
#OFFSET:-0.520000;
#SAMPLESTART:69.692001;
#SAMPLELENGTH:12.000000;
#SELECTABLE:YES;
#BPMS:0.000000=124.000000
;
#STOPS:
;
#BGCHANGES:;
#KEYSOUNDS:;
#ATTACKS:;

//---------------dance-single - ----------------
#NOTES:
     dance-single:
     :
     Hard:
     13:
     0.526613,0.577351,0.429045,0.026268,0.437802,421.000000,372.000000,49.000000,3.000000,0.000000,0.000000,0.526613,0.577351,0.429045,0.026268,0.437802,421.000000,372.000000,49.000000,3.000000,0.000000,0.000000:
// measure 0
0000
0000
0000
0000
,  // measure 1
0000
0000
0000
0000
,  // measure 2
0000
0000
0000
0000
,  // measure 3
0000
0000
0000
0000
0000
0000
0000
0000
0000
0000
0000
0000
0001
0100
0010
1000
,  // measure 4
0000
0000
1000
0000
0001
0000
0000
0000
0101
0000
0000
0000
1100
0000
0000
1000
,  // measure 5
0001
0000
0100
0000
0100
0000
0000
0000
0110
0000
0000
0000
1010
0000
0000
0010
,  // measure 6
0100
0000
0001
0000
0001
0000
0000
0000
0011
0000
0000
0000
1010
0000
0000
1000
,  // measure 7
0001
0000
0100
0000
0100
0000
0000
0000
0110
0000
0000
0010
0000
1000
0010
0100
,  // measure 8
0000
0000
0100
0000
0001
0000
0000
0000
1100
0000
0000
0000
0101
0000
0000
0001
,  // measure 9
1000
0000
0010
0000
0010
0000
0100
0000
0100
0000
0000
0000
1010
0000
0000
0101
,  // measure 10
0000
0000
0001
0000
1000
0000
0000
0000
0001
0000
0000
0000
0011
0000
0000
1100
,  // measure 11
0000
0000
0000
1000
0000
0000
0100
0000
0000
0001
0000
0000
0100
0000
0000
1000
0000
0010
0100
0000
0010
0100
0000
0001
,  // measure 12
0000
0000
0010
0000
0100
0000
1000
0000
1100
0000
0000
0000
0011
0000
0000
0001
,  // measure 13
0100
0000
0000
0001
0000
0000
1000
0000
0000
0010
0000
0000
1010
0000
0000
0001
0000
0010
0100
0000
0010
0100
0000
1000
,  // measure 14
0000
0000
0010
0000
0010
0000
0100
0000
0100
0000
0000
0000
0101
0000
0000
0010
,  // measure 15
1000
0000
0000
0100
0000
0000
0001
0000
0000
0100
0000
0000
1000
0000
0000
0001
0000
0100
0010
0000
1000
0001
0000
0100
,  // measure 16
0000
0000
0010
0000
1000
0000
0001
0000
0011
0000
0000
0000
0110
0000
0000
0100
,  // measure 17
1000
0000
0000
0100
0000
0000
0010
0000
0000
0001
0000
0000
0101
0000
0000
0010
0000
0100
0001
0000
0100
0010
0000
1000
,  // measure 18
0000
0000
1000
0000
0001
0000
0100
0000
1010
0000
0000
0000
1001
0000
0000
0010
,  // measure 19
0000
0000
0000
0100
0000
0000
0001
0000
0000
0000
0000
0000
1000
0000
0000
0000
0000
0000
0010
0000
0000
0000
0000
0000
0010
0000
0000
0000
0100
0000
0001
0000
0000
0000
1000
0000
0001
0000
0000
0000
0100
0000
0001
0000
0000
0000
1000
0000
,  // measure 20
0001
0000
0000
0000
0000
0000
0010
0100
0000
0100
1000
0000
0000
0000
0000
0000
,  // measure 21
0110
0000
0000
0000
0000
0000
0010
1000
,  // measure 22
1001
0000
0100
0001
0000
0000
0000
0000
,  // measure 23
0000
0000
0000
0000
0000
0000
0000
0000
0000
0000
0010
0100
0010
1000
0010
0000
,  // measure 24
1010
0000
0000
0000
1000
0000
0100
0010
0000
0001
0100
0000
0010
0000
1000
0000
,  // measure 25
0000
0000
0000
0000
0000
0000
0000
0000
0000
0000
0000
0000
0000
0000
0001
1000
0000
0000
0100
0000
0000
0010
0000
0000
,  // measure 26
0011
0000
0100
0011
0000
0000
0000
0000
,  // measure 27
0000
0000
0000
0000
0000
0000
0001
0100
,  // measure 28
0020
0000
0000
0000
0000
0000
1000
0000
1030
0000
0000
0000
1000
0100
0010
0001
,  // measure 29
0000
0000
0001
0000
0100
0000
0001
0000
0100
0000
0000
0000
0010
1000
0001
0100
,  // measure 30
0010
0000
0000
1000
0000
0000
0100
0000
0000
1000
0000
0000
0100
0000
0000
0000
0000
0000
1001
0000
0000
0000
0000
0100
,  // measure 31
0010
0000
0000
0000
0000
0000
1000
0000
0000
0000
0000
0000
0100
0000
0000
0000
1000
0000
0100
0000
0000
0000
1000
0000
0100
0000
0000
0000
0000
0000
0000
0000
0000
0000
0000
0000
0010
0000
0000
0001
0000
0000
0100
0000
0000
0010
0000
0000
,  // measure 32
1000
0000
0000
0010
0000
0000
1000
0000
0000
0010
0000
0000
1000
0000
0000
0000
0000
0000
1100
0000
0000
0000
0000
0100
,  // measure 33
0010
0000
0000
0001
0000
0000
0100
0000
0000
0001
0000
0000
0100
0000
0000
0001
0000
1000
0010
0000
0100
0001
0000
1000
,  // measure 34
0010
0000
0100
0000
0001
0000
1000
0000
1001
0000
0000
0000
0011
0000
0000
0001
,  // measure 35
0000
1000
0000
0100
1000
0100
0010
0001
0000
0001
0000
0010
0100
1000
0100
0010
,  // measure 36
0001
0000
0000
1000
0000
0000
0001
0000
0000
1000
0000
0000
0110
0000
0000
0000
0000
0000
1001
0000
0000
0000
0000
0010
,  // measure 37
0100
0000
0001
0000
0010
0000
0001
0000
0010
0000
0000
0010
0001
1000
0001
0100
,  // measure 38
0000
0000
0000
0010
0000
0000
1000
0000
0000
0010
0000
0000
1100
0000
0000
0000
0000
0000
0110
0000
0000
0000
0000
0100
,  // measure 39
0010
0000
0000
0001
0000
0000
0100
0000
0000
0001
0000
0000
1010
0000
0000
1000
0000
0010
0100
0000
0010
0100
0000
0001
,  // measure 40
0000
0000
0000
1000
0000
0000
0010
0000
0000
1000
0000
0000
0101
0000
0000
0000
0000
0000
0110
0000
0000
0000
0000
0010
,  // measure 41
0100
0000
0000
0010
0000
0000
1000
0000
0000
0010
0000
0000
0101
0000
0000
0001
0000
0100
0010
0000
0100
0010
0000
1000
,  // measure 42
0000
0000
0000
0100
0000
0000
0001
0000
0000
0100
0000
0000
1100
0000
0000
0000
0000
0000
1001
0000
0000
0000
0000
0001
,  // measure 43
0100
0000
0000
0000
0000
0000
1000
0000
0000
0000
0000
0000
0100
0000
0000
0000
0000
0000
0001
0000
0000
0000
0001
0000
1000
0000
0000
0000
1000
0000
0100
0000
0000
0010
0000
0000
0001
0000
0000
0010
0000
0000
0100
0000
0000
2000
0000
0000
,  // measure 44
0000
0000
3001
0000
0001
0000
1000
0000
1000
0000
0000
0000
1001
0000
0000
0001
,  // measure 45
1000
0000
0010
0000
0001
0000
0010
0000
1010
0000
0100
0000
0101
0000
1000
0001
,  // measure 46
0000
0000
0000
0010
0000
0000
0100
0000
0000
1000
0000
0000
1001
0000
0000
0000
0000
1000
0001
0000
0000
0000
0000
0100
,  // measure 47
0010
0000
0000
0100
0000
0000
0001
0000
0000
1000
0000
0000
0110
0000
0000
0010
0000
1000
0001
0000
1000
0001
0000
0100
,  // measure 48
0000
0000
0010
0000
1000
0000
0010
0000
0101
0000
0000
0010
1000
0010
0000
0100
,  // measure 49
0001
0000
0010
0000
0001
0000
0010
0000
1100
0000
0010
0000
0100
0010
0000
0100
,  // measure 50
0001
0000
1000
0000
0100
0000
1000
0000
0011
0000
0000
0001
1000
0001
0000
0100
,  // measure 51
0010
0000
0000
1000
0000
0000
0100
0000
0100
0010
0000
0010
0001
0000
0001
0010
0000
0010
0100
0000
0100
1000
0000
1000
,  // measure 52
0020
0000
0000
0030
;

//---------------dance-single - ----------------
#NOTES:
     dance-single:
     :
     Medium:
     11:
     0.374008,0.392599,0.157609,0.052536,0.126962,299.000000,281.000000,18.000000,6.000000,0.000000,0.000000,0.374008,0.392599,0.157609,0.052536,0.126962,299.000000,281.000000,18.000000,6.000000,0.000000,0.000000:
0000
0000
0000
0000
,
0000
0000
0000
0000
,
0000
0000
0000
0000
,
0000
0000
0000
0000
0000
0000
0001
0010
,
0100
0000
1000
0000
0001
0000
0000
0000
1001
0000
0000
0000
0100
0000
0000
0010
,
0000
0000
0100
0000
0001
0000
0000
0000
1001
0000
0000
0000
0010
0000
0000
0100
,
0000
0000
0010
0000
1000
0000
0000
0000
1001
0000
0000
0000
1000
0000
0000
0100
,
0000
0010
0001
0000
1001
0000
0001
1000
,
0100
0000
0010
0000
0001
0000
0000
0000
0011
0000
0000
0000
0010
0000
0000
0100
,
0000
0000
1000
0000
0100
0000
1000
0000
1100
0000
0000
0000
0100
0000
0000
0010
,
0000
0000
0001
0000
0010
0000
0000
0000
0011
0000
0000
0000
0001
0000
0000
1000
,
0000
0010
0100
0010
0110
0000
1000
0001
,
0100
0000
0010
0000
0010
0000
0100
0000
0100
0000
0000
0000
0010
0000
0000
0100
,
0000
0001
1000
0001
1001
0000
1000
0100
,
0010
0000
0001
0000
0100
0000
0001
0000
0101
0000
0000
0000
0010
0000
0000
1000
,
0000
0001
1000
0001
1000
0000
0010
0100
,
0001
0000
0010
0000
0100
0000
0010
0000
0110
0000
0000
0000
1000
0000
0000
0010
,
0000
0100
0001
0100
0101
0000
0010
0100
,
1000
0000
0001
0000
0010
0000
0001
0000
0011
0000
0000
0000
0001
0000
0000
1000
,
0000
0010
1000
0010
1010
0000
0000
0000
,
0020
0000
0000
0000
0030
0000
1000
0001
0000
1000
0001
0000
0000
0000
0000
0000
,
0110
0000
0000
0000
0000
0000
0010
1000
,
0001
0000
0010
0010
0000
0000
0000
0000
,
0000
0000
0000
0000
0000
0000
0000
0100
,
1000
0000
1000
0010
0000
0010
0100
0001
,
0000
0000
0000
0000
0000
0000
0000
0000
0000
0001
0010
0000
0100
0000
1000
0000
,
0010
0000
0100
0100
0000
0000
0000
0000
,
0000
0000
0000
0000
0000
0000
0100
0001
,
0200
0000
0000
0010
0310
0000
1000
0001
,
0100
0001
0010
0001
0010
0000
0100
1000
,
0020
0000
0000
0000
0000
0000
0100
0000
0130
0000
0000
0000
0010
0000
0000
1000
,
0000
0001
0100
0010
1000
0000
0001
0010
,
0001
0000
0000
0000
1000
0000
0100
0000
0010
0000
0000
0000
0100
0000
0000
1000
,
0000
0010
0100
0001
1000
0000
0010
1000
,
0010
0000
0100
0000
0001
0000
0100
0000
0001
0000
0000
0000
1000
0000
0000
0001
,
0000
0100
0010
1000
0001
0000
0010
0100
,
1000
0000
0001
0000
0010
0000
0001
0000
0010
0000
0000
0000
0001
0000
0000
0100
,
0000
0000
0010
0000
1000
0000
0100
0000
0010
0000
0000
0100
1000
0000
0100
0000
,
0010
0000
0001
0000
1000
0000
0001
0000
1000
0000
0000
0000
0010
0000
0000
0100
,
0000
0000
0010
0000
1000
0000
0001
0000
0100
0000
0000
0010
0100
0000
0010
0000
,
1000
0000
0001
0000
0010
0000
0001
0000
0010
0000
0000
0000
0100
0000
0000
1000
,
0000
0000
0010
0000
0100
0000
0001
0000
1000
0000
0000
0010
1000
0000
0010
0000
,
0100
0000
0001
0000
1000
0000
0001
0000
1001
0000
0000
0000
0010
0000
0000
0100
,
0000
0000
0010
0000
0001
0000
1000
0000
0010
0000
0000
0000
0100
0000
0001
2000
,
0000
0010
3010
0100
0001
0000
1001
0000
,
0001
0000
1000
0000
0100
0000
1000
0000
0100
0000
0010
0000
0010
0000
0000
0100
,
0000
0000
1000
0000
0001
0000
1000
0000
0001
0000
0000
0000
0100
0000
0000
0010
,
0000
0100
0001
0100
0001
0000
1000
0010
,
0100
0000
0001
0000
1000
0000
0001
0000
0010
0000
0000
0100
1000
0000
0000
0000
,
0010
0000
1000
0000
0100
0000
1000
0000
0001
0000
0000
0000
0010
0000
0000
0001
,
0000
0000
0100
0000
0010
0000
0100
0000
0001
0000
0000
1000
0010
0000
0000
0000
,
0100
0010
1000
1000
0100
0100
0010
0010
,
0022
0000
0000
0033
;

//---------------dance-single - ----------------
#NOTES:
     dance-single:
     :
     Easy:
     5:
     0.202640,0.230940,0.017512,0.113828,0.000000,162.000000,160.000000,2.000000,13.000000,0.000000,0.000000,0.202640,0.230940,0.017512,0.113828,0.000000,162.000000,160.000000,2.000000,13.000000,0.000000,0.000000:
0000
0000
0000
0000
,
0000
0000
0000
0000
,
0000
0000
0000
0000
,
0000
0000
0000
1000
,
0100
0010
0001
0001
,
0010
0100
1000
1000
,
0001
0100
0010
0010
,
0100
0001
1000
0001
,
0100
0001
1000
1000
,
0001
0010
0100
0100
,
1000
0001
0010
0010
,
0001
1000
0100
1000
,
0001
0100
0010
1000
,
1000
0010
0100
0001
,
0001
1000
0010
0100
,
0100
0010
1000
0001
,
1000
0100
0010
0010
,
0100
1000
0001
0001
,
0100
0010
0100
0100
,
0010
1000
0100
0100
,
0100
0000
0000
1000
0000
0000
0000
0000
,
0001
0000
0000
0100
,
0100
0000
0000
0010
0000
0000
0000
0000
,
0000
0000
0000
0000
,
0010
0000
0000
0100
0000
0000
0001
0000
,
0000
0000
0000
0010
,
0100
0000
0000
1000
0000
0000
0000
0000
,
0000
0000
0000
1000
,
0200
0000
0310
0000
,
0000
0000
0000
0001
,
0200
0000
0310
0000
,
0000
0000
0000
0020
,
1030
0001
1000
0000
,
0001
1000
0001
0000
,
0001
0010
0001
0000
,
1000
0100
1000
0010
,
0100
0001
0100
0020
,
0130
0010
0100
0020
,
1030
0100
1000
0002
,
0103
0010
0100
0001
,
0001
0010
0001
2000
,
3010
0100
0010
2000
,
3100
0010
0100
0020
,
0031
1000
0001
0010
,
0011
0000
0000
1001
,
1000
0010
1000
0001
,
0001
0100
0001
1000
,
1000
0010
0100
0001
,
0100
0010
0100
0001
,
0100
0010
0100
0010
,
0010
1000
0010
0100
,
0010
2000
3200
0320
,
0032
0000
0000
0003
;

//---------------dance-single - ----------------
#NOTES:
     dance-single:
     :
     Beginner:
     1:
     0.063794,0.113828,0.017512,0.000000,0.000000,51.000000,49.000000,2.000000,0.000000,0.000000,0.000000,0.063794,0.113828,0.017512,0.000000,0.000000,51.000000,49.000000,2.000000,0.000000,0.000000,0.000000:
0000
0000
0000
0000
,
0000
0000
0000
0000
,
0000
0000
0000
0000
,
0000
0000
0000
0000
,
1000
0000
0000
0000
,
1000
0000
0000
0000
,
0001
0000
0000
0000
,
0001
0000
0000
0000
,
0100
0000
0000
0000
,
0100
0000
0000
0000
,
0001
0000
0000
0000
,
0001
0000
0000
0000
,
0010
0000
0000
0000
,
0010
0000
0000
0000
,
0100
0000
0000
0000
,
0100
0000
0000
0000
,
1000
0000
0000
0000
,
0010
0000
0000
0000
,
0100
0000
0000
0000
,
0001
0000
0000
0000
,
1000
0000
1000
0000
,
0000
0000
0000
0000
,
0100
0000
0000
0000
,
0000
0000
0000
0000
,
0010
0000
0010
0000
,
0000
0000
0000
0000
,
0001
0000
0000
0000
,
0000
0000
0000
0000
,
0100
0000
0100
0000
,
0000
0000
0000
0000
,
0010
0000
0010
0000
,
0000
0000
0000
1000
,
1000
0000
0000
0000
,
0000
0000
0000
0001
,
0001
0000
0000
0000
,
0000
0000
0000
0100
,
0100
0000
0000
0000
,
0010
0000
0000
0000
,
1000
0000
0000
0000
,
0001
0000
0000
0000
,
0001
0000
0000
0000
,
0010
0000
0000
0000
,
0100
0000
0000
0000
,
1000
0000
0000
0000
,
1001
0000
0000
0001
,
0001
0000
0000
0000
,
1000
0000
0000
0000
,
0010
0000
0000
0000
,
0100
0000
0000
0000
,
0010
0000
0000
0000
,
1000
0000
0000
0000
,
0010
0000
0000
0000
,
0110
0000
0000
0000
;

//---------------dance-double - ----------------
#NOTES:
     dance-double:
     :
     Easy:
     5:
     0.206392,0.230940,0.017512,0.192633,0.000000,165.000000,163.000000,2.000000,22.000000,0.000000,0.000000,0.206392,0.230940,0.017512,0.192633,0.000000,165.000000,163.000000,2.000000,22.000000,0.000000,0.000000:
00000000
00000000
00000000
00000000
,
00000000
00000000
00000000
00000000
,
00000000
00000000
00000000
00000000
,
00000000
00000000
00000000
10000000
,
01000000
00100000
00020000
00130000
,
00001000
00010000
00000200
00001300
,
00000010
00000100
00000002
00000013
,
00000001
00000100
00000020
00010030
,
00010000
00001000
02000000
03100000
,
10000000
00010000
00010000
00200000
,
00301000
00010000
00000200
00001300
,
00000010
00000100
00000001
00000010
,
00000010
00000100
00020000
00031000
,
01000000
00100000
10000000
10000000
,
00010000
00100000
02000000
03100000
,
00001000
00010000
00000100
00001000
,
00001000
00000010
00000200
00000301
,
00000010
00000100
00001000
00000100
,
00000100
00010000
00002000
00103000
,
01000000
10000000
00010000
00010000
,
00010000
00000000
00000000
01000000
00000000
00000000
00000000
00000000
,
00001000
00000000
00000000
00010000
,
00010000
00000000
00000000
00000100
00000000
00000000
00000000
00000000
,
00000000
00000000
00000000
00000000
,
00000010
00000000
00000000
00000001
00000000
00000000
00001000
00000000
,
00000000
00000000
00000000
00000010
,
00000010
00000000
00000000
00010000
00000000
00000000
00000000
00000000
,
00000000
00000000
00000000
00001000
,
00200000
00000000
01300000
00000000
,
00000000
00000000
00000000
10000000
,
00200000
00000000
01300000
00000000
,
00000000
00000000
00000000
01000000
,
00001000
00001000
00010000
00010000
,
00000100
00000100
00001000
00000010
,
00000100
00000100
00000001
00000001
,
00001000
00000100
00010000
00001000
,
00100000
01000000
20000000
30010000
,
01000000
00010000
00100000
00001000
,
00001000
00010000
00000200
00001300
,
00000010
00000100
00000001
00000010
,
00000010
00000100
00020000
00031000
,
01000000
00100000
10000000
00010000
,
00010000
00100000
02000000
13000000
,
01000000
00010000
00001000
00000100
,
00000001
00000000
00000000
00001001
,
00000010
00000100
00000010
00010000
,
00010000
00001000
01000000
00200000
,
10300000
00010000
00100000
00001000
,
00001000
00010000
00000100
00002000
,
00003010
00000100
00000001
00001000
,
00001000
00000010
00020000
00031000
,
01000000
00100000
00010000
00001000
,
00022000
00000000
00000000
00033000
;

//---------------dance-double - ----------------
#NOTES:
     dance-double:
     :
     Hard:
     14:
     0.497843,0.554257,0.402777,0.078804,0.415911,398.000000,352.000000,46.000000,9.000000,0.000000,0.000000,0.497843,0.554257,0.402777,0.078804,0.415911,398.000000,352.000000,46.000000,9.000000,0.000000,0.000000:
00000000
00000000
00000000
00000000
,
00000000
00000000
00000000
00000000
,
00000000
00000000
00000000
00000000
,
00000000
00000000
00000000
00000000
00000000
00000000
00000000
00000000
00000000
00000000
00000000
00000000
00000001
00000100
00000010
00001000
,
00000000
00000000
00000010
00000000
00000010
00000000
00000000
00000000
00011000
00000000
00000000
00000000
01001000
00000000
00000000
01100000
,
00000000
00000000
00100000
00000000
10000000
00000000
00000000
00000000
10010000
00000000
00000000
00000000
11000000
00000000
00000000
00110000
,
00000000
00000000
01000000
00000000
00001000
00000000
00000000
00000000
00011000
00000000
00000000
00000000
00010100
00000000
00000000
00000110
,
00000000
00000000
00000001
00000000
00001000
00000000
00000000
00000000
00010010
00000000
00000000
00010000
00001000
01000000
00100000
10000000
,
00000000
00000000
00010000
00000000
00010000
00000000
00000000
00000000
01001000
00000000
00000000
00000000
00011000
00000000
00000000
00010010
,
00000000
00000000
00000010
00000000
00000100
00000000
00000100
00000000
00000101
00000000
00000000
00000000
00000011
00000000
00000000
00001001
,
00000000
00000000
00000100
00000000
00010000
00000000
00000000
00000000
00011000
00000000
00000000
00000000
00101000
00000000
00000000
10010000
,
00000000
00000000
00000000
10000000
00000000
00000000
01000000
00000000
00000000
00010000
00000000
00000000
00001000
00000000
00000000
00010000
00000000
00000100
00001000
00000000
00000100
00001000
00000000
00000010
,
00000000
00000000
00000100
00000000
00000001
00000000
00000100
00000000
00001010
00000000
00000000
00000000
00010100
00000000
00000000
00001000
,
00000000
00000000
00000000
00010000
00000000
00000000
00100000
00000000
00000000
10000000
00000000
00000000
00010000
00000000
00000000
01000000
00000000
00100000
10000000
00000000
00100000
10000000
00000000
00010000
,
00000000
00000000
01000000
00000000
00100000
00000000
00010000
00000000
00001000
00000000
00000000
00000000
00011000
00000000
00000000
00000100
,
00000000
00000000
00000000
00001000
00000000
00000000
00000010
00000000
00000000
00000100
00000000
00000000
00000001
00000000
00000000
00000010
00000000
00000100
00001000
00000000
00000100
00001000
00000000
00000001
,
00000000
00000000
00000010
00000000
00001000
00000000
00010000
00000000
00100000
00000000
00000000
00000000
10010000
00000000
00000000
01000000
,
00000000
00000000
00000000
00010000
00000000
00000000
00001000
00000000
00000000
00000100
00000000
00000000
00000001
00000000
00000000
00001000
00000000
00000010
00000100
00000000
00000010
00000100
00000000
00000001
,
00000000
00000000
00001000
00000000
00000100
00000000
00000010
00000000
00001000
00000000
00000000
00000000
00011000
00000000
00000000
00100000
,
00000000
00000000
00000000
10000000
00000000
00000000
00010000
00000000
00000000
10000000
00000000
00000000
00100000
00000000
01000000
00100000
00000000
10000000
00010000
00000000
00100000
00001000
00000000
00010000
,
00000200
00000000
00000000
00000000
00001300
00000000
00000100
00000010
00000000
00000010
00000001
00000000
00001000
00000000
00000000
00000000
,
00001001
00000000
00000000
00000000
00000000
00000000
00000001
00000100
,
00020000
00000000
00130000
01000000
00000000
00000000
00000000
00000000
,
00000000
00000000
00000000
00000000
00000000
00000000
00000000
00100000
,
00020000
00000000
00000000
00000000
00030010
00000000
00000001
00000000
00000000
00001000
00000001
00000000
00000010
00000000
00020000
00000000
,
00000000
00000000
00030000
00000000
00000000
00000000
00000000
00000000
00000000
10000000
00010000
00000000
10000000
00000000
01000000
00000000
,
00002000
00000000
00003010
00000200
00000000
00000300
00000000
00000000
,
00000000
00000000
00000000
00000000
00000000
00000000
00000000
00000000
00000000
00000000
00000000
00000000
00000001
00000010
00000100
00000000
,
00000120
00000000
00000000
00000000
00000000
00000000
00010000
00000000
00010030
00000000
00000000
00010000
00001000
01000000
00100000
10000000
,
00000000
00000000
00010000
00000000
00100000
00000000
00010000
00000000
00100000
00000000
00000000
00000000
01000000
10000000
01000000
00000000
,
02100000
00000000
00000000
00000000
00000000
00000000
00001000
00000000
03001000
00000000
00000000
00000000
00011000
00000000
00000000
00000010
,
00000000
00000000
00000100
00000000
00000001
00000010
00000100
00000000
00001000
00000000
00000000
00000000
00000010
00000100
00000001
00001000
,
00000000
00000000
00000100
00000000
00010000
00000000
00000100
00000000
00010000
00000000
00000000
00000000
00101000
00000000
00100000
01000000
,
00000000
00000000
00000000
10000000
00000000
00000000
00100000
00000000
00000000
10000000
00000000
00000000
00100000
00000000
00000000
01000000
00000000
00001000
00010000
00000000
00001000
00010000
00000000
00000010
,
00000000
00000000
00000100
00000000
00000010
00000000
00000100
00000000
00000010
00000000
00000000
00000000
00010100
00000000
00000100
00010000
,
00000000
00001000
00000000
00100000
01000000
00000000
10000000
01000000
00000000
00100000
00010000
01000000
00100000
10000000
00010000
00100000
,
00000000
00000000
00010000
00000000
01000000
00000000
00100000
00000000
00010000
00000000
00000000
00000000
00011000
00000000
00000000
00010010
,
00000000
00000000
00000100
00000000
00001000
00000000
00000010
00000000
00000100
00000000
00000000
00000001
00000010
00000100
00000010
00000001
,
00000000
00000000
00000100
00000000
00001000
00000000
00010000
00000000
01000000
00000000
00000000
00000000
10010000
00000000
00000000
01001000
,
00000000
00000000
00000000
00010000
00000000
00000000
00001000
00000000
00000000
00000010
00000000
00000000
00000001
00000000
00000000
00001000
00000000
00000010
00010000
00000000
00000010
00010000
00000000
00001000
,
00000000
00000000
01000000
00000000
00100000
00000000
10000000
00000000
00010000
00000000
00000000
00000000
11000000
00000000
00000000
10010000
,
00000000
00000000
00000000
00100000
00000000
00000000
00010000
00000000
00000000
00001000
00000000
00000000
00000100
00000000
00000000
00000001
00000000
00000100
00000010
00000000
00000100
00000010
00000000
00010000
,
00000000
00000000
00001000
00000000
00100000
00000000
01000000
00000000
10100000
00000000
00000000
00000000
10010000
00000000
00000000
00110000
,
00000000
00000000
00000000
00000000
00000000
00000000
00001000
00000000
00000000
00000000
00000000
00000000
00100000
00000000
00000000
00000000
00000000
00000000
00010000
00000000
00000000
01000000
00000000
00000000
00010000
00000000
00000000
00000000
00000000
00000000
00100000
00000000
00000000
00000000
01000000
00000000
10000000
00000000
00000000
01000000
00000000
00000000
00100000
00000000
00000000
00010000
00000000
00000000
,
00000000
00000000
00001000
00000000
00000100
00000000
00000100
00000000
00000001
00000000
00000000
00000000
00001001
00000000
00000000
00000010
,
00000100
00000000
00000001
00000000
00001000
00000000
00000100
00000000
00010010
00000000
00001000
00000000
00110000
00000000
00010000
01000000
,
00000000
00000000
00000000
00100000
00000000
00000000
00010000
00000000
00000000
00001000
00000000
00000000
00000101
00000000
00000000
00000000
00000000
00000001
00001000
00000000
00000000
00000000
00000000
00000010
,
00000100
00000000
00001000
00000000
00010000
00000000
01000000
00000000
11000000
00000000
00100000
01000000
00010000
10000000
00100000
01000000
,
00000000
00000000
00010000
00000000
00100000
00000000
00001000
00000000
00011000
00000000
00000000
00000100
00001000
00000100
00000000
00000010
,
00000001
00000000
00000100
00000000
00001000
00000000
00010000
00000000
00100000
00000000
10000000
00010000
00000000
10010000
00000000
10000000
,
00010000
00000000
00100000
00000000
01000000
00000000
00010000
00000000
00001000
00000000
00000000
00010000
00000100
00001000
00000000
00000010
,
00000100
00000000
00000000
00000001
00000000
00000000
00000001
00000000
00000001
00000010
00000000
00000010
00001000
00000000
00001000
00010000
00000000
00010000
00100000
00000000
00100000
10000000
00000000
10000000
,
00020000
00000000
00000000
00030000
;

//---------------dance-double - ----------------
#NOTES:
     dance-double:
     :
     Medium:
     12:
     0.367753,0.415693,0.096316,0.035024,0.118206,294.000000,283.000000,11.000000,4.000000,0.000000,0.000000,0.367753,0.415693,0.096316,0.035024,0.118206,294.000000,283.000000,11.000000,4.000000,0.000000,0.000000:
00000000
00000000
00000000
00000000
,
00000000
00000000
00000000
00000000
,
00000000
00000000
00000000
00000000
,
00000000
00000000
00000000
00000000
00000000
00000000
10000000
01000000
,
00100000
00000000
00010000
00000000
00100000
00000000
00000000
00000000
00101000
00000000
00000000
00000000
00001000
00000000
00000000
00010000
,
00000000
00000000
00000100
00000000
00001000
00000000
00000000
00000000
00001010
00000000
00000000
00000000
00000100
00000000
00000000
00000001
,
00000000
00000000
00000010
00000000
00000100
00000000
00000000
00000000
00010100
00000000
00000000
00000000
00010000
00000000
00000000
00001000
,
00000000
01000000
00100000
00000000
10100000
00000000
10000000
00010000
,
10000000
00000000
01000000
00000000
10000000
00000000
00000000
00000000
10010000
00000000
00000000
00000000
00100000
00000000
00000000
00001000
,
00000000
00000000
00010000
00000000
00000100
00000000
00001000
00000000
00001000
00000000
00000000
00000000
00000001
00000000
00000000
00000010
,
00000000
00000000
00000100
00000000
00010000
00000000
00000000
00000000
00011000
00000000
00000000
00000000
00001000
00000000
00000000
00100000
,
00000000
00010000
01000000
00100000
00100000
10000000
00010000
10000000
,
00100000
00000000
01000000
00000000
00001000
00000000
01000000
00000000
00001000
00000000
00000000
00000000
00010000
00000000
00000000
00000100
,
00000000
00001000
00000010
00001000
00000010
00000100
00000001
00000100
,
00000001
00000000
00000010
00000000
00001000
00000000
00010000
00000000
00010000
00000000
00000000
00000000
00100000
00000000
00000000
10000000
,
00000000
00010000
01000000
00100000
10000000
00010000
10000000
00010000
,
10000000
00000000
01000000
00000000
00010000
00000000
00001000
00000000
00001000
00000000
00000000
00000000
00000100
00000000
00000000
00000001
,
00000000
00001000
00000010
00000100
00000001
00000010
00000001
00000010
,
00000001
00000000
00000100
00000000
00001000
00000000
00010000
00000000
00010000
00000000
00000000
00000000
01000000
00000000
00000000
10000000
,
00000000
00010000
00100000
00010000
01000000
01000000
01000000
01000000
,
01000000
00000000
00000000
00000000
00000000
00000000
00001000
00010000
00000000
00000100
00010000
00000000
00000000
00000000
00000000
00000000
,
00010100
00000000
00000000
00000000
00000000
00000000
00000100
00000010
,
00000001
00000000
00000001
00001000
00000000
00000000
00000000
00000000
,
00000000
00000000
00000000
00000000
00000000
00000000
00000000
00000100
,
00010000
00000000
00010000
00001000
00000000
00001000
00100000
01000000
,
00000000
00000000
00000000
00000000
00000000
10000000
01000000
00010000
,
00001000
00000000
00000010
00000001
00000000
00000000
00000000
00000000
,
00000000
00000000
00000000
00000000
00000000
00000000
00000001
00001000
,
00002001
00000000
00000000
00000010
00003010
00000000
00010000
00000000
,
00001000
00000000
00010000
00000000
00001000
00000000
00100000
00010000
,
02010000
00000000
00000000
00100000
03100000
00000000
00100000
00000000
,
01000000
00000000
00100000
00000000
01000000
00000000
00100000
10000000
,
00010000
00000000
01000000
00000000
00010000
00000000
01000000
00000000
00010000
00000000
00000000
00000000
00100000
00000000
00000000
00001000
,
00000000
00010000
00000010
00010000
00000010
00000100
00000001
00000100
,
00000010
00000000
00010000
00000000
00001000
00000000
00010000
00000000
00001000
00000000
00000000
00000000
01000000
00000000
00000000
00100000
,
00000000
10000000
00010000
10000000
00100000
00000000
01000000
00010000
,
00100000
00000000
00001000
00000000
00010000
00000000
00000100
00000000
00000010
00000000
00000000
00000000
00000001
00000000
00000000
00001000
,
00000000
00000001
00000100
00000010
00010000
00000000
00001000
01000000
,
00100000
00000000
10000000
00000000
00010000
00000000
01000000
00000000
00100000
00000000
00000000
00000000
01000000
00000000
00000000
00001000
,
00000000
00010000
00000100
00001000
00000010
00000000
00000100
00000001
,
00001000
00000000
00000010
00000000
00000100
00000000
00000001
00000000
00000010
00000000
00000000
00000000
00000100
00000000
00000000
00010000
,
00000000
00001000
00100000
01000000
10000000
00000000
00010000
00100000
,
01000000
00000000
10000000
00000000
00100000
00000000
01000000
00000000
00001000
00000000
00000000
00000000
00010000
00000000
00000000
00000010
,
00000000
00000000
00000100
00000000
00000001
00000000
00001000
00000000
00000010
00000000
00000010
00000000
00000000
00000000
00010000
00001000
,
00000000
00000000
00000000
01100000
,
01000000
00000000
10000000
00000000
01000000
00000000
00100000
00000000
00100000
00000000
00001000
00000000
00010000
00000000
00000100
00001000
,
00000000
00000000
00001000
00000000
00000010
00000000
00000100
00000000
00000100
00000000
00000000
00000000
00000001
00000000
00000000
00001000
,
00000000
00000001
00000010
00001000
00010000
00100000
10000000
00100000
,
10000000
00000000
01000000
00000000
00100000
00000000
00010000
00000000
00010000
00000000
00000000
00000000
00010000
01000000
00000000
01000000
,
00001000
00000000
00010000
00000000
00001000
00000000
00000010
00000000
00000010
00000000
00000001
00000000
00000000
00001000
00000000
00001000
,
00000001
00000000
00000100
00000000
00001000
00000000
00010000
00000000
00010000
00000000
00000000
00000000
00010000
00001000
00000000
00001000
,
00100000
00010000
01000000
00100000
00010000
00001000
00000010
00000001
,
00002002
00000000
00000000
00003003
;
