#TITLE:Bomber Bomber;
#SUBTITLE:;
#ARTIST:DJ NAGAI;
#TITLETRANSLIT:;
#SUBTITLETRANSLIT:;
#ARTISTTRANSLIT:;
#GENRE:Hardcore;
#CREDIT:;
#BANNER:bomberbomber-bn.png;
#BACKGROUND:bomberbomber-bg.png;
#LYRICSPATH:;
#CDTITLE:;
#MUSIC:Bomber Bomber.mp3;
#OFFSET:-0.045000;
#SAMPLESTART:38.725010;
#SAMPLELENGTH:12.000000;
#SELECTABLE:YES;
#BPMS:0.000000=96.500000
,64.000000=193.000000
,128.000000=96.500000
,176.000000=193.000000
;
#STOPS:
;
#BGCHANGES:;
#KEYSOUNDS:;
#ATTACKS:;

//---------------dance-single - ----------------
#NOTES:
     dance-single:
     :
     Challenge:
     15:
     0.821377,1.321958,0.786425,0.078642,0.921864,658.000000,568.000000,90.000000,9.000000,0.000000,0.000000,0.821377,1.321958,0.786425,0.078642,0.921864,658.000000,568.000000,90.000000,9.000000,0.000000,0.000000:
0000
0000
0000
0000
,
0000
0000
0000
0000
,
0110
0000
0000
0000
0100
0010
0100
0101
0000
0000
0000
0000
0010
0100
0010
2010
,
0000
0000
0000
0001
0001
0000
0000
0010
3010
1000
0100
0010
0001
0010
0010
0010
,
1001
0000
0000
0010
1100
0010
0100
0010
0101
0000
0000
0010
0101
0010
0100
0010
,
2100
0000
0000
0010
0010
0000
0000
0100
3100
0000
1001
0000
0010
0000
0110
0000
,
1001
0000
0000
0100
0011
0100
0010
0100
1010
0000
0000
0100
1010
0100
0010
0100
,
0012
0000
0000
0000
0000
0000
0100
0000
0100
0000
0000
0000
0000
0000
0010
0000
0013
0100
0001
0000
1000
0000
0010
0000
0100
0000
0001
0000
0001
0000
0001
0000
,
0011
0000
0000
0000
0010
0000
0100
1000
0100
0000
1000
0000
0001
0000
1000
0000
1001
0000
0000
0000
0001
0000
0010
0001
0010
0000
0001
0000
1000
0000
0010
0000
,
1020
0000
0000
1000
1000
0000
0000
0100
0130
0000
0010
0100
0110
0000
1001
1000
,
0001
0000
0000
0000
0100
0000
0010
1000
0010
0000
0100
0000
0001
0000
1000
0000
1001
0000
0000
0000
1000
0000
0100
0010
0100
0000
1000
0000
0010
0000
0010
0000
,
0210
0000
0000
0000
0000
0000
0001
0000
0001
0000
0000
0000
0000
0000
0010
0000
0310
1000
0100
0000
0010
0000
0001
0000
0100
0000
0010
0000
0010
0000
0010
0000
,
0110
0000
0000
0000
1000
0000
0110
0000
0000
0000
0000
0000
1000
0000
0001
0000
0100
0010
0100
0000
0000
0000
0001
0000
0100
0000
0100
0010
0100
0000
0000
0000
,
1001
0000
0000
0000
0000
0000
0010
0000
0000
1001
0000
0000
0000
0000
0000
0000
0000
0000
0010
0000
0000
0000
0000
0000
0100
0000
0001
0000
1000
0000
0010
0000
1000
0000
0001
0000
0100
0000
0000
0100
0000
0000
0100
0000
0000
0000
0000
0000
,
1001
0000
0001
0010
0001
0010
0001
0010
0001
0000
1000
0010
1000
0010
1000
0010
1000
0000
0001
0010
0001
0010
0001
0010
0001
0000
1000
0010
1000
0010
1000
0010
,
1000
0100
0010
0001
0010
0100
1000
0000
0001
0000
0110
0000
0000
0000
0000
0000
0000
0000
0000
0000
0000
0000
0000
0000
,
1001
0000
0101
0000
1001
0000
1000
0100
,
0000
0010
0000
1000
0010
0001
0100
0010
,
1000
0000
0001
0100
0001
0000
1000
0000
0010
0000
0100
0000
0010
0000
0100
0000
,
0101
0000
0010
1010
0000
1001
1000
0100
,
1100
0000
1001
0000
1100
0000
0001
0010
,
0000
0100
0000
0001
0100
1000
0010
0100
,
0001
0000
1000
0100
1000
0000
0001
0000
0100
0000
0010
0000
0100
0010
0100
0010
,
0100
0001
1000
0010
1000
0001
0001
0001
,
1000
0100
1000
0000
0001
0000
0000
0000
0001
0100
0001
0000
2000
0000
0000
0000
,
3010
0001
0000
0011
0000
0001
0010
1000
,
0001
0000
0100
0010
0100
0000
1000
0000
0100
0000
0010
0000
0100
0000
0001
0000
,
0101
0000
0001
1001
0000
0110
0100
0001
,
0101
0000
0000
0000
1001
0000
0000
0000
0101
0000
0000
0000
1000
0010
1000
0010
,
1000
0000
0001
0000
0000
0000
0110
0000
0000
0000
1000
0000
0001
0010
0001
0010
,
0001
0010
0100
1000
0100
0010
0001
0000
1000
0100
0010
0001
0010
0100
1000
0000
,
1001
0000
0000
0000
,
0110
0000
0000
0000
1001
0000
0000
0000
1000
0100
0000
0001
0100
0000
0010
0001
,
1000
0100
0000
0000
0110
0000
1000
0000
0010
0100
1000
0100
0001
0010
0100
1000
,
0001
1000
0000
0000
0101
0000
0001
1000
0010
0100
0000
0000
0110
0000
1000
0001
,
0100
0000
0010
0000
0000
0000
0000
0000
0110
0000
0000
0000
1000
0000
0000
0000
0001
1000
0001
0000
0100
0000
0010
0000
1000
0000
0001
0000
0001
0000
0001
0000
,
1001
0000
0000
0010
0101
0010
0100
0010
1100
0000
0000
0010
1100
0010
0100
0010
,
0101
0000
0000
0001
1000
0000
0000
1000
0001
0000
0100
0010
0110
0000
1001
1000
,
0001
0000
0000
0100
1010
0100
0010
0100
0011
0000
0000
0100
0011
0100
0010
0100
,
1010
0000
0000
0000
0000
0000
1000
0000
0001
0000
0000
0000
0000
0000
0001
0000
1000
0010
1000
0000
0001
0000
0100
0000
0010
0000
1000
0000
1000
0000
1000
0000
,
0011
0000
0000
0000
1000
0000
0011
0000
0000
0000
0000
0000
1000
0000
0000
0000
0010
0100
0010
0000
0000
0000
1000
0000
0001
0000
0010
0001
0010
0000
0000
0000
,
1100
0000
0000
0000
0000
0000
0001
0000
0000
1100
0000
0000
0000
0000
0000
0000
0000
0000
0001
0000
0000
0000
0000
0000
1000
0000
0100
0000
0010
0000
0001
0000
0010
0000
0100
0000
1000
0000
0000
1000
0000
0000
0110
0000
0000
0000
0000
0000
,
1001
0000
1000
0010
1000
0010
1000
0010
1000
0000
0001
0010
0001
0010
0001
0010
0001
0000
1000
0010
1000
0010
1000
0010
1000
0000
0001
0010
0001
0010
0001
0010
,
0001
0010
0100
1000
0100
0010
0001
0000
1000
0000
0110
0000
0000
0000
0000
0000
0000
0000
0000
0000
0000
0000
0000
0000
,
0110
0000
0101
0000
0110
0000
0010
1000
,
0000
1100
0000
0010
0000
1000
0010
0001
,
0100
0000
0010
1000
0010
0000
0100
0000
0010
0000
0001
0000
0010
0000
1000
0000
,
1001
0000
0110
1001
0000
0110
0100
0010
,
0110
0000
1010
0000
0110
0000
0100
0001
,
0000
0011
0000
1000
0010
0001
0100
0010
,
1000
0000
0001
0010
0001
0000
0100
0000
0010
0000
1000
0000
0100
1000
0100
0000
,
1000
0010
0100
0001
1000
0100
0100
0100
,
1000
0100
1000
0000
0001
0000
0000
0000
0001
0100
0001
0000
2000
0000
0000
0000
,
3010
0001
0000
0011
0000
0001
0010
1000
,
0001
0000
0100
0010
0100
0000
1000
0000
0100
0000
0010
0000
0100
0000
0001
0000
,
0101
0000
1010
0101
0000
1010
0010
0100
,
0001
0000
0010
0001
0000
0000
0100
0000
0010
0000
1000
0000
0010
1000
0010
1000
,
0010
0000
0100
0000
0000
0000
0011
0000
0000
0000
0100
0000
0001
1000
0001
1000
,
0001
0100
0010
0100
0001
0010
0100
1000
0100
0010
0100
1000
0010
0100
0001
0000
,
0011
0000
0000
0000
,
2200
0000
0000
0000
,
0000
0000
0000
3300
;

//---------------dance-single - ----------------
#NOTES:
     dance-single:
     :
     Hard:
     13:
     0.656602,0.944256,0.533021,0.139809,0.567973,526.000000,465.000000,61.000000,16.000000,0.000000,0.000000,0.656602,0.944256,0.533021,0.139809,0.567973,526.000000,465.000000,61.000000,16.000000,0.000000,0.000000:
0000
0000
0000
0000
,
0000
0000
0000
0000
,
0220
0000
0330
0000
1000
0010
0100
0001
0000
0000
0000
0000
0001
0100
0010
1000
,
0001
0000
0000
0001
1000
0000
0000
1000
0001
1000
0010
0100
0010
0100
0100
0100
,
0110
0000
0000
0000
1000
0010
0001
0010
1000
0000
0000
0000
0001
0010
1000
0010
,
0001
0000
0000
0100
0010
0000
0000
1000
0001
0000
0101
0000
0110
0000
1010
0000
,
1001
0000
0000
0000
0001
0010
1000
0010
0001
0000
0000
0000
1000
0010
0001
0010
,
1000
0000
0000
0010
0100
0000
0000
0001
1000
0100
0010
0001
0010
0100
0100
0100
,
1000
0000
0000
0010
1000
0100
0001
0100
1000
0000
0000
0010
1000
0100
0001
0100
,
1000
0000
0000
1000
0010
0000
0000
0010
0100
0000
0101
0000
1001
0000
0101
0000
,
0110
0000
0000
0100
0001
0010
1000
0010
0001
0000
0000
0100
0001
0010
1000
0010
,
0001
0000
0000
0001
0100
0000
0000
0100
0010
1000
0100
1000
0010
0100
0100
0100
,
0110
0000
0000
0000
0001
0000
0110
0000
0000
0000
0000
0000
0000
0000
0000
0000
1000
0001
1000
0000
0000
0000
0010
0000
0100
0000
0100
0010
0100
0000
0000
0000
,
0110
0000
0000
0000
0000
0000
1000
0000
0000
0110
0000
0000
0000
0000
0000
0000
0000
0000
0000
0000
0000
0000
0000
0000
0001
0000
0010
0000
0100
0000
1000
0000
0100
0000
0010
0000
0001
0000
0000
1000
0000
0000
0001
0000
0000
0000
0000
0000
,
1001
0001
0100
0010
1000
0100
0010
0001
0100
0010
1000
0100
0010
0001
0100
0010
,
1000
0100
0010
0001
0010
0100
1000
0000
0001
0000
1000
0000
0000
0000
0000
0000
0000
0000
0000
0000
0000
0000
0000
0000
,
0101
0000
1010
0000
0101
0000
1000
0100
,
0000
0011
0000
1200
0000
1300
0010
0100
,
0001
0010
0100
0010
0001
0100
0010
0100
,
0101
0000
0010
0100
0000
0100
0010
1000
,
1100
0000
0011
0000
1100
0000
0001
0100
,
0000
1010
0000
0201
0000
0301
0100
0010
,
1000
0100
0010
0100
1000
0010
0100
0010
,
1000
0100
0010
0001
0100
0010
0010
0010
,
2000
3000
0002
0203
,
0310
0100
0000
0110
0000
0010
1000
0001
,
0100
0010
0001
0010
1000
0100
0010
0001
,
0011
0000
0100
0010
0000
0010
0001
1000
,
1100
0000
0011
0000
1100
0000
0001
1000
,
0000
0110
0000
1002
0000
1003
0100
0010
,
0001
0100
0010
1000
0100
0010
0001
0100
,
0010
0000
0000
0000
,
1001
0000
0000
0000
0010
0000
0010
0100
0000
0000
0000
0000
1000
0000
1000
0010
,
0000
0000
0000
0000
0100
0000
0001
0000
1000
0010
0100
0001
0010
0100
1000
0001
,
0010
0000
0000
0000
0010
0000
0010
0001
0000
0000
0000
0000
0001
0000
0001
0100
,
0000
0000
0000
0000
0110
0000
0010
0000
1000
0100
0010
0001
0100
0010
0010
0010
,
1000
0000
0000
1000
0100
0010
0001
1000
0001
0000
0000
1000
0100
0010
0001
1000
,
0001
0000
0000
0001
0100
0000
0000
0100
0010
0000
1010
0000
1001
0000
1010
0000
,
1001
0000
0000
0001
0010
0100
1000
0001
1000
0000
0000
0001
0010
0100
1000
0001
,
1000
0000
0000
0010
0001
0000
0000
0010
1000
0100
0010
0001
0100
0010
0010
0010
,
1000
0000
0000
0000
0001
0000
1100
0000
0000
0000
0000
0000
0000
0000
0000
0000
0100
0010
0100
0000
0001
0000
1000
0000
0001
0000
0010
0100
0010
0000
0000
0000
,
0001
0000
0000
0000
0000
0000
1000
0000
0000
0101
0000
0000
0000
0000
0000
0000
0000
0000
0000
0000
0000
0000
0000
0000
0010
0000
0100
0000
0001
0000
1000
0000
0001
0000
0100
0000
0010
0000
0000
0010
0000
0000
0010
0000
0000
0000
0000
0000
,
1100
0100
0010
0001
0100
0010
1000
0100
0010
0001
0100
0010
1000
0100
0010
0001
,
0100
0010
1000
0001
0100
0010
0100
0000
0001
0000
1000
0000
0000
0000
0000
0000
0000
0000
0000
0000
0000
0000
0000
0000
,
0011
0000
0101
0000
1001
0000
1000
0010
,
0000
1001
0000
0210
0000
0301
0010
1000
,
0010
0001
0100
0010
1000
0100
0010
0001
,
0101
0000
0010
0100
0000
0100
0010
1000
,
1100
0000
1010
0000
1001
0000
0001
0100
,
0000
1010
0000
1200
0000
0310
1000
0010
,
0001
0100
0010
1000
0100
0010
0001
0100
,
0010
0010
1000
1000
0001
0001
0100
0100
,
0002
0003
2000
3020
,
0130
0001
0000
1001
0000
1000
0010
0100
,
0001
0010
0100
0010
0001
1000
0100
1000
,
1100
0000
1000
0100
0000
0100
0010
0001
,
0011
0000
0110
0000
1100
0000
0010
0100
,
0000
0101
0000
1020
0000
0130
0001
1000
,
0010
0100
0010
1000
0010
0001
0010
0100
,
0010
0000
0000
0000
,
2002
0000
0000
0000
,
0000
0000
0000
3003
;

//---------------dance-single - ----------------
#NOTES:
     dance-single:
     :
     Medium:
     9:
     0.401950,0.539575,0.131071,0.323308,0.240296,322.000000,307.000000,15.000000,37.000000,0.000000,0.000000,0.401950,0.539575,0.131071,0.323308,0.240296,322.000000,307.000000,15.000000,37.000000,0.000000,0.000000:
0000
0000
0000
0000
,
0000
0000
0000
0000
0000
0000
0000
0000
0000
0000
0000
0000
0000
0010
0100
0010
,
0100
0000
0000
0000
0001
0000
0000
1000
0000
0000
0000
0000
1000
0000
0000
0010
,
0000
0000
0000
0000
0200
0000
0000
0000
0310
1000
0001
0100
0010
0100
0100
0100
,
0100
0000
0000
0000
0001
0010
0001
0020
0000
0000
0030
0000
0100
1000
0100
2000
,
0000
0000
0001
0000
0001
0000
3100
0010
,
1001
0000
0000
0000
1000
0100
1000
0100
0000
0000
0000
0000
0010
0001
0010
0002
,
0000
0000
0000
0000
0000
0000
0000
0000
1003
0100
0010
0001
0010
0100
1000
0001
,
1000
0000
0000
0000
0001
1000
0001
1000
0000
0000
0000
0000
0010
0100
0010
0200
,
0000
0000
0001
0000
0001
0000
0310
0001
,
1001
0000
0000
0000
1000
0001
1000
0001
0000
0000
0000
0000
0100
0010
0100
0020
,
0000
0000
0000
0000
1000
0000
0000
0000
1030
0100
0010
0001
0010
0100
1000
0001
,
0100
0000
0000
1001
0000
0000
0000
0000
0020
0000
0030
0100
0010
0100
0010
0000
,
0100
0000
0000
1001
0000
0000
0000
0000
0001
0000
1000
0000
0010
0100
0010
0000
,
2000
3200
0302
0023
,
2030
0000
0000
0000
0000
0000
0000
3000
0000
0000
0000
0000
0000
0000
0000
0000
,
0001
0000
0001
0000
0001
0000
0100
0010
,
0000
1000
0000
0002
0000
0000
1003
0000
,
0010
0100
0010
0100
,
0101
0000
0001
1000
0000
1000
0100
0000
,
1000
0000
1000
0000
1000
0000
0010
0100
,
0000
0001
0000
2000
0000
0000
3000
0000
,
0000
0001
1000
0001
1000
0000
0010
0000
,
0110
0000
0000
0000
0000
0001
0001
0001
,
0002
0000
0003
0000
2000
0000
3010
0100
,
0000
0001
0000
0010
0000
0100
1000
0100
,
1000
0010
1000
0010
,
0110
0000
0100
0001
0000
0001
1000
0000
,
0010
0000
0010
0000
0010
0000
1000
0001
,
0000
0010
0000
0002
0000
1003
0010
0100
,
0002
0000
2003
0000
,
3010
0100
0100
0100
,
1001
1000
0100
0010
,
0001
0100
0020
2030
,
3001
0010
0100
1000
,
0010
0000
0000
0000
0100
0000
0000
0000
0002
0000
0000
0000
0003
1000
1000
1000
,
1000
0000
0000
0000
0001
0100
0010
1000
0000
0000
0000
0000
0001
0100
0010
2000
,
0000
0000
0001
0000
0010
0000
3001
1000
,
0110
0000
0000
0000
1000
0100
0010
0001
0000
0000
0000
0000
1000
0100
0010
0002
,
0000
0000
0000
0000
0100
0000
0000
0000
0013
0001
1000
0100
1000
0001
0010
0001
,
0100
0000
0000
1001
0000
0000
0000
0000
0020
0000
0030
1000
0001
0100
0010
0000
,
0100
0000
0000
1001
0000
0000
0000
0000
0001
0000
0001
0000
1000
0000
1000
0000
,
0002
0203
2300
3020
,
0032
0000
0000
0000
0000
0000
0000
0003
0000
0000
0000
0000
0000
0000
0000
0000
,
1000
0000
0010
0000
1000
0000
0100
0010
,
0000
0001
0000
0200
0000
0000
0310
0000
,
0000
1000
0001
0000
0100
0000
0010
0000
,
1000
0000
0010
0010
0000
1000
1000
0000
,
0001
0000
0010
0000
0001
0000
0100
0010
,
0000
1000
0000
0002
0000
0000
0013
0000
,
0000
0100
1000
0100
1000
0000
0010
0000
,
0100
0010
1000
0001
0100
0010
1000
0001
,
2000
0000
3000
0000
0002
0000
0103
0001
,
0000
1010
0000
0100
0000
0010
1000
0001
,
0000
0100
0010
0000
1000
0000
0001
0000
,
1001
0000
0100
0100
0000
0001
0001
0000
,
0010
0000
0100
0000
0010
0000
0100
1000
,
0000
1010
0000
0020
0000
0000
0130
0000
,
0000
0001
1000
0010
0100
0010
1000
0001
,
1000
0100
0100
0100
,
2002
0000
0000
0000
,
0000
0000
0000
3003
;

//---------------dance-single - ----------------
#NOTES:
     dance-single:
     :
     Easy:
     7:
     0.310825,0.404681,0.104857,0.227189,0.017476,249.000000,237.000000,12.000000,26.000000,0.000000,0.000000,0.310825,0.404681,0.104857,0.227189,0.017476,249.000000,237.000000,12.000000,26.000000,0.000000,0.000000:
0000
0000
0000
0000
,
0000
0000
0000
0000
,
1000
0000
0100
0000
,
0010
0000
0010
0000
0010
0000
0010
0001
,
1000
0000
0010
0100
0001
0000
0100
0010
,
1000
0000
0001
0000
1000
0001
0110
0001
,
1000
0000
0001
0010
0100
0000
1000
0010
,
0100
0000
0001
0000
1000
0010
0100
0001
,
1000
0000
0010
1000
0100
0000
0010
0001
,
0100
0000
0010
0000
0100
0001
1010
0001
,
0100
0000
0001
1000
0100
0000
1000
0001
,
0010
0000
1100
0000
0010
0001
1000
0010
,
0100
0000
0000
0001
0000
0000
0000
0000
1001
0000
0000
0000
0010
0000
0010
0000
,
0100
0000
0000
1000
0000
0000
0000
0000
0010
0000
0100
0000
0010
0000
0100
0000
,
0002
0203
2300
3200
,
0302
0000
0000
0000
0000
0003
0000
0000
0000
0000
0000
0000
,
1000
0000
1000
0000
1000
0000
0100
0010
,
0000
0001
0000
0200
0000
0000
0000
0000
,
0300
0001
1000
0001
,
1000
0000
0010
0100
0000
0010
0100
0000
,
0001
0000
0001
0000
0001
0000
0010
0100
,
0000
1000
0000
0020
0000
0000
0000
0000
,
0030
0100
0001
1000
,
0010
0010
1000
0001
,
2000
0000
3002
0000
,
0003
0001
0000
0100
0000
0010
1000
0000
,
0001
0100
0001
0100
,
0010
0000
1000
0001
0000
1000
0001
0000
,
1000
0000
1000
0000
1000
0000
0010
0100
,
0000
0001
0000
0020
0000
0000
0000
0000
,
0130
1000
0010
0100
,
0002
0000
0000
0000
,
0103
0010
0100
0100
,
0001
0000
0010
0000
0001
1000
0001
1000
,
0100
1000
0100
0100
,
1000
0000
0010
0000
1000
0100
0010
0001
,
0100
0000
0001
1000
1001
0000
1000
0001
,
1001
0000
0100
0000
0010
0000
1000
0001
,
0100
0000
0001
0010
0011
0000
0100
1000
,
1100
0000
1000
0000
0001
0010
0100
1000
,
0010
0000
0000
1000
0000
0000
0000
0000
1001
0000
0000
0000
1000
0000
0100
0000
,
0010
0000
0000
0001
0000
0000
0000
0000
0100
0000
0100
0000
0010
0000
0110
0000
,
2000
3200
0302
0203
,
2300
0000
0000
0000
0000
3000
0000
0000
0000
0000
0000
0000
,
0001
0000
0001
0000
0001
0000
0100
0010
,
0000
1000
0000
0002
0000
0000
0000
0000
,
0003
1000
0100
0010
,
0001
0000
1000
0001
0000
0001
1000
0000
,
0010
0000
0010
0000
0010
0000
0100
0001
,
0000
1000
0000
0020
0000
0000
0000
0000
,
0030
1000
0001
0100
,
0220
0000
0000
0330
,
2000
3000
0002
0003
,
0000
0100
0000
0001
0000
0100
0010
0000
,
0000
1000
0001
0100
,
0010
0000
0100
0001
0000
0001
1000
0000
,
0100
0000
0100
0000
0100
0000
1000
0010
,
0000
0100
0000
0002
0000
0000
0000
0000
,
0203
0300
0020
0030
,
1001
0000
0000
0000
,
0200
0000
0000
0000
,
0000
0000
0000
0300
;

//---------------dance-single - ----------------
#NOTES:
     dance-single:
     :
     Beginner:
     4:
     0.147299,0.215830,0.078642,0.096119,0.000000,118.000000,109.000000,9.000000,11.000000,0.000000,0.000000,0.147299,0.215830,0.078642,0.096119,0.000000,118.000000,109.000000,9.000000,11.000000,0.000000,0.000000:
0000
0000
0000
0000
,
0000
0000
0000
0000
,
1000
0000
0001
0000
,
1000
0000
0000
0010
,
0010
0000
0100
0000
,
0001
0001
0000
1000
,
1000
0000
0010
0000
,
0100
0000
0020
0030
,
0010
0000
1000
0000
,
0001
0001
0000
0100
,
0100
0000
0010
0000
,
1000
0000
1001
0000
,
1001
0000
0010
0000
,
0110
0000
0100
0100
,
0100
0000
0001
0000
,
2000
0000
3000
0000
,
0001
0001
0001
0000
,
0000
0000
0000
0100
,
0000
0010
0000
0000
,
1000
0000
0000
0000
,
0100
0100
0100
0000
,
1000
0000
0010
0000
,
0000
0100
0000
0000
,
0110
0000
0000
0000
,
0002
0003
0002
0003
,
0001
0000
0000
0000
,
0000
0100
0000
0000
,
0010
0000
0000
0000
,
1000
1000
1000
0000
,
0100
0000
0000
0000
,
0010
0000
0010
0000
,
0010
0000
0000
0000
,
0001
0000
0100
0000
,
0010
0000
1000
1000
,
1000
0000
0100
0000
,
0010
0000
0002
0003
,
0001
0000
0100
0000
,
0010
0000
0000
0100
,
0100
0000
0001
0000
,
1000
0000
2002
3003
,
1001
0000
0010
0000
,
0110
0000
1000
1000
,
1000
0000
0100
0000
,
0020
0000
0030
0000
,
0001
0001
0001
0000
,
0100
0000
0010
0000
,
0000
1000
0000
0000
,
0100
0000
0000
0000
,
1000
1000
1000
0000
,
0010
0000
0100
0000
,
0000
0001
0000
0000
,
1001
0000
0000
0010
,
0020
0030
0020
0030
,
0000
0000
0100
0000
,
0000
1000
0000
0000
,
0001
0000
0000
0000
,
0100
0100
0100
0000
,
0001
0000
1000
0000
,
0010
0000
0010
0000
,
0110
0000
0000
0000
,
2000
0000
0000
0000
,
0000
0000
0000
3000
;

//---------------dance-double - ----------------
#NOTES:
     dance-double:
     :
     Easy:
     7:
     0.337039,0.424669,0.157285,0.358260,0.052428,270.000000,252.000000,18.000000,41.000000,0.000000,0.000000,0.337039,0.424669,0.157285,0.358260,0.052428,270.000000,252.000000,18.000000,41.000000,0.000000,0.000000:
00000000
00000000
00000000
00000000
,
00000000
00000000
00000000
00000000
,
10000000
00000000
00100000
01000000
00100000
00000000
01000000
00010000
,
02000000
00000000
00000000
00000000
03020000
00000000
00000000
00000000
00130000
00000000
00001000
00000000
00010000
00001000
00010000
00001000
,
00010000
00000010
00000110
00000100
,
00000102
00000000
00002003
00000000
00003100
00010000
00000100
00010000
,
00001000
00101000
00100000
01100000
,
02000000
00000000
23000000
00000000
30100000
01000000
00010000
10000000
,
02000000
00000000
03010000
00001000
00000200
00000000
00000301
00001000
,
00000002
00000000
00002003
00000000
00003010
00000100
00000100
00000100
,
00000002
00000000
00000013
00001000
00020000
00000000
00130000
10000000
,
00100000
00000000
00000000
00000000
01000000
00000000
00000000
00000000
00010000
00000000
10000000
00000000
00100000
01000000
00100000
01000000
,
00100000
00000000
00000000
10000000
00000000
00000000
00000000
00000000
02000000
00000000
00000000
00000000
03010000
00000000
00001000
00000000
,
00000100
00000000
00000000
00000001
00000000
00000000
00000000
00000000
00001000
00000000
00000010
00000000
00000100
00000000
00000001
00000000
,
00000020
00002030
00023000
00230000
,
20300000
00000000
00000000
00000000
00000000
30000000
00000000
00000000
00000000
00000000
00000000
00000000
,
10000000
00000000
10000000
00000000
10000000
00000000
01000000
00100000
,
00000000
00010000
00000000
01000000
00000000
01000000
00000000
00000000
,
00000000
00001000
00010000
00000000
00000100
00000000
00000100
00000000
,
00001000
00000000
00000010
00001000
00000000
00000010
00000000
00000000
,
00000100
00000000
00000100
00000000
00000100
00000000
00000001
00001000
,
00000000
00000100
00000000
00000010
00000000
00000010
00000000
00000000
,
00000000
00000001
00001000
00000000
00000100
00000000
00010000
00000000
,
00002000
00000000
00000000
00000000
00003000
00010000
00001000
00010000
,
00002000
00000000
00003000
00000000
00200000
00000000
00300000
01000000
,
00000000
10000000
00000000
00200000
00000000
01300000
00000000
00000000
,
00000000
00010000
10000000
00000000
00100000
00000000
01000000
00000000
,
00100000
00000000
10000000
00100000
00000000
10000000
00000000
00000000
,
01000000
00000000
00010000
00000000
00001000
00000000
00000100
00000001
,
00000000
00000001
00000000
00001000
00000000
00000001
00000000
00000000
,
00000200
00000000
00000320
00000000
,
00010030
00000000
00000000
00000000
,
00011000
00100000
11000000
00010000
,
01010000
00000000
00100000
00000000
00001000
00010000
00000100
00000010
,
00000001
00000011
00000100
00001100
,
00001000
00000000
00000000
00000000
00001010
00000000
00000000
00000000
00000010
00000000
00000100
00000000
00000001
00001000
00000001
00001000
,
00000001
00000000
00000010
00001000
00010000
00000000
00001000
00010000
,
00200000
00000000
20300000
00000000
30010000
01000000
00100000
01000000
,
00010000
00000000
01000000
00100000
00010000
00000000
00100000
00010000
,
00002000
00000000
00000000
00000000
00003020
00000000
00000000
00000000
00000031
00000000
00001000
00000000
00000100
00000010
00000100
00000010
,
00000100
00000000
00000000
00001000
00000000
00000000
00000000
00000000
00010100
00000000
00000000
00000000
00010000
00000000
00001000
00000000
,
01000000
00000000
00000000
00100000
00000000
00000000
00000000
00000000
10000000
00000000
00010000
00000000
01000000
00000000
00100000
00000000
,
00020000
00032000
00003020
00000032
,
00002003
00000000
00000000
00000000
00000000
00003000
00000000
00000000
00000000
00000000
00000000
00000000
,
00000001
00000000
00000001
00000000
00000001
00000000
00001000
00000100
,
00000000
00000010
00000000
00001000
00000000
00010000
00000000
00000000
,
00000000
00100000
10000000
00000000
00010000
00000000
10000000
00000000
,
01000000
00000000
00100000
01000000
00000000
00100000
00000000
00000000
,
00010000
00000000
00010000
00000000
00010000
00000000
01000000
00100000
,
00000000
00010000
00000000
00001000
00000000
00000010
00000000
00000000
,
00000000
00000001
00001000
00000000
00000010
00000000
00000100
00000000
,
00000202
00000000
00000000
00000303
,
00001001
00000000
00000000
00000000
00000110
00000000
00000000
00000010
,
00000000
00010000
00000000
00001000
00000000
01000000
00000000
00000000
,
00000000
00100000
10000000
00000000
00100000
00000000
01000000
00000000
,
00010000
00000000
10000000
00010000
00000000
10000000
00000000
00000000
,
01000000
00000000
00010000
00000000
00001000
00000000
00000010
00000001
,
00000000
00000010
00000000
00000001
00000000
00000100
00000000
00000000
,
00002020
00003030
00020200
00030300
,
00011000
00000000
00000000
00000000
,
02002000
00000000
00000000
03003000
;

//---------------dance-double - ----------------
#NOTES:
     dance-double:
     :
     Medium:
     8:
     0.359508,0.426417,0.253403,0.305832,0.078642,288.000000,259.000000,29.000000,35.000000,0.000000,0.000000,0.359508,0.426417,0.253403,0.305832,0.078642,288.000000,259.000000,29.000000,35.000000,0.000000,0.000000:
00000000
00000000
00000000
00000000
,
00000000
00000000
00000000
00000000
,
10000000
00000000
00000000
00000000
01000000
00000000
00100000
01000000
00000000
00000000
00000000
00000000
10000000
00000000
00010000
20000000
,
00000000
00000000
00000000
00000000
30200000
00000000
00000000
00000000
00310000
00000000
00000000
00000000
00001000
00010000
00001000
00010000
,
00001000
00010000
00010100
00000100
,
00001200
00000000
00000010
00000000
00001300
00000010
00000100
00000001
,
00000010
00000100
00010100
00010000
,
00012000
00000000
00000000
00000000
00100000
00000000
00000000
00000000
00013000
00000000
00001000
00000000
01000000
00100000
01000000
00100000
,
01000000
00010000
10010000
10000000
,
12000000
00000000
00100000
00000000
13000000
00100000
01000000
00010000
,
00100000
00010000
00110000
00100000
,
00102000
00000000
00000000
00000000
00010000
00000000
00000000
00000000
00103000
00000000
00001000
00000000
00010000
00000100
00000100
00000100
,
00001000
00000000
00000000
00001010
00000000
00000000
00000000
00000000
00000100
00000000
00000000
00000000
00000001
00000000
00001000
00000000
,
00000001
00000000
00000000
00000101
00000000
00000000
00000000
00000000
00000001
00000000
00001000
00000000
00000100
00000010
00000100
00000000
,
00000020
00002030
00023000
00230000
,
20300000
00000000
00000000
00000000
00000000
30000000
00000000
00000000
00000000
00000000
00000000
00000000
,
00010000
00000000
01000000
00000000
00010000
00000000
10000000
00100000
,
00000000
00010000
00000000
00001000
00000000
00000020
00000000
00000000
,
00000000
00000031
00000100
00000000
00000010
00000000
00001000
00000000
,
00001001
00000000
00000010
00000100
00000000
00001001
00000000
00000000
,
00001000
00000000
00000010
00000000
00001000
00000000
00000001
00000100
,
00000000
00001000
00000000
00010000
00000000
02000000
00000000
00000000
,
00000000
13000000
00100000
00000000
01000000
00000000
00010000
00000000
,
10000000
00010000
10000000
00000000
00100000
01000000
00100000
01000000
,
00200000
00000000
00300000
00000000
02000000
00000000
03000000
00100000
,
00000000
00010000
00000000
00001000
00000000
00000020
00000000
00000000
,
00000000
00000031
00001000
00000000
00000010
00000000
00000100
00000000
,
00001001
00000000
00000010
00000100
00000000
00001001
00000000
00000000
,
00000010
00000000
00000100
00000000
00000010
00000000
00001000
00000001
,
00000000
00000100
00000000
00001000
00000000
00020000
00000000
00000000
,
00000000
01030000
10000000
00000000
00100000
00000000
01000000
00000000
,
00010000
00000000
00000000
00000000
,
10010000
10000000
01000000
00010000
,
00001000
00000000
00000100
00000000
00000001
00001000
00000001
00001000
,
00001001
00000001
00000100
00001000
,
00010000
00000000
00000000
00000000
01000000
00000000
00000000
00000000
10000000
00000000
00010000
00000000
01000000
00100000
10000000
00100000
,
01000000
00010000
00110000
00100000
,
00102000
00000000
00023000
00000000
00030100
00001000
00000010
00000100
,
00000001
00000010
00000110
00000100
,
00020100
00000000
00000000
00000000
00032000
00000000
00000000
00000000
01003000
00000000
00010000
00000000
10000000
00100000
00100000
00100000
,
01000000
00000000
00000000
01100000
00000000
00000000
00000000
00000000
01000000
00000000
00000000
00000000
00010000
00000000
10000000
00000000
,
01000000
00000000
00000000
11000000
00000000
00000000
00000000
00000000
10000000
00000000
00010000
00000000
01000000
00100000
01000000
00000000
,
00200000
00320000
00032000
00003020
,
00000032
00000000
00000000
00000000
00000000
00000003
00000000
00000000
00000000
00000000
00000000
00000000
,
00001000
00000000
00000100
00000000
00000010
00000000
00000001
00000100
,
00000000
00001000
00000000
00010000
00000000
02000000
00000000
00000000
,
00000000
13000000
00100000
00000000
01000000
00000000
00010000
00000000
,
00110000
00000000
01000000
10000000
00000000
11000000
00000000
00000000
,
00010000
00000000
00100000
00000000
01000000
00000000
10000000
00100000
,
00000000
00010000
00000000
00001000
00000000
00000020
00000000
00000000
,
00000000
00000031
00001000
00000000
00000010
00000000
00000100
00000000
,
00000202
00000000
00000000
00000000
00000303
00000001
00001000
00000001
,
00000200
00000000
00000300
00000000
00000020
00000000
00000030
00000100
,
00000000
00001000
00000000
00020000
00000000
00000000
00000000
00030000
,
00000000
01000000
10000000
00000000
00100000
00000000
01000000
00000000
,
01010000
00000000
10000000
00100000
00000000
10100000
00000000
00000000
,
10000000
00000000
01000000
00000000
00010000
00000000
00001000
00000100
,
00000000
00000001
00000000
00002000
00000000
00003010
00000100
00000001
,
00000011
00000000
00001100
00000000
,
00010000
00100000
10000000
01000000
,
00020000
00000000
00000000
00000000
,
00030000
00000000
00000000
00000000
;

//---------------dance-double - ----------------
#NOTES:
     dance-double:
     :
     Hard:
     12:
     0.530524,0.674468,0.270880,0.349522,0.362629,425.000000,394.000000,31.000000,40.000000,0.000000,0.000000,0.530524,0.674468,0.270880,0.349522,0.362629,425.000000,394.000000,31.000000,40.000000,0.000000,0.000000:
// measure 0
00000000
00000000
00000000
00000000
,  // measure 1
00000000
00000000
00000000
00000000
,  // measure 2
00000101
00000000
00000000
00000000
00001000
00000010
00000100
00000002
00000000
00000000
00000000
00000000
00000013
00001000
00010000
00200000
,  // measure 3
00000000
00000000
00000000
00000000
10000000
00000000
00000000
00000000
00300000
00000000
01000000
00000000
01000000
00100000
00100000
00100000
,  // measure 4
10000000
00000000
00000000
00000000
10000000
01000000
00010000
00002000
00000000
00000000
00003000
00000000
00010000
00001000
00000100
00000001
,  // measure 5
00001000
00000000
00010010
00000000
00001000
00000010
00000100
00000010
,  // measure 6
00001000
00000000
00000000
00000000
00000001
00000010
00001000
00020000
00000000
00000000
00030000
00000000
00001000
00010000
00100000
10000000
,  // measure 7
00010000
00000000
00000000
00000000
00101000
00000000
00000000
00000000
00001000
00100000
01000000
10000000
00100000
01000000
01000000
01000000
,  // measure 8
00010000
00000000
00000000
00000000
10000000
01000000
00010000
00002000
00000000
00000000
00003000
00000000
00010000
00001000
00000100
00000001
,  // measure 9
00001000
00000000
00010010
00000000
00001000
00000100
00000001
00000100
,  // measure 10
00001000
00000000
00000000
00000000
00000001
00000010
00001000
00020000
00000000
00000000
00030000
00000000
00001000
00010000
00100000
10000000
,  // measure 11
00010000
00000000
00000000
00000000
01001000
00000000
00000000
00000000
00010000
01000000
00100000
01000000
10000000
01000000
00010000
01000000
,  // measure 12
10000000
00000000
00000000
01010000
00000000
00000000
00000000
00000000
00110000
00000000
00000000
00001000
00010000
00001000
00010000
00000000
,  // measure 13
00000100
00000000
00000000
00000000
00000000
00000000
00000000
00000000
00000000
00001100
00000000
00000000
00000000
00000000
00000000
00000000
00000000
00000000
00000000
00000000
00000000
00000000
00000000
00000000
00001000
00000000
00000010
00000000
00001000
00000000
00000010
00000000
00000100
00000000
00000001
00000000
00000100
00000000
00000000
00000010
00000000
00000000
00000100
00000000
00000000
00000000
00000000
00000000
,  // measure 14
00000002
00000203
00002300
00023000
,  // measure 15
02030000
00000000
00000000
00000000
00000000
03000000
00000000
00000000
00000000
00000000
00000000
00000000
,  // measure 16
10000000
00000000
00100000
00000000
10100000
00000000
01000000
00010000
,  // measure 17
00000000
10010000
00000000
20000000
00000000
31000000
00010000
00001000
,  // measure 18
00000000
00000100
00000001
00000100
00000001
00000010
00000001
00000010
,  // measure 19
00000001
00000000
00000010
00000100
00000000
00001000
00000001
00001000
,  // measure 20
00000001
00000000
00000100
00000000
00000101
00000000
00000010
00001000
,  // measure 21
00000000
00001001
00000000
00000002
00000000
00000103
00001000
00010000
,  // measure 22
00000000
01000000
10000000
01000000
10000000
00100000
10000000
00100000
,  // measure 23
01000000
00010000
10000000
00010000
01000000
00100000
00100000
00100000
,  // measure 24
20000000
00000000
30000000
00000000
02000000
00000000
03010000
00002000
,  // measure 25
00000000
00003200
00000000
00000301
00000000
00001000
00000010
00000100
,  // measure 26
00000000
00000001
00000010
00000001
00000010
00000100
00001000
00000100
,  // measure 27
00001000
00000000
00000010
00000100
00000000
00000001
00000010
00000001
,  // measure 28
00001000
00000000
00000100
00000000
00000011
00000000
00000100
00001000
,  // measure 29
00000000
00020000
00000000
02030000
00000000
13000000
00100000
01000000
,  // measure 30
00010000
00100000
01000000
10000000
00010000
00100000
01000000
10000000
,  // measure 31
00010000
01000000
01000000
01000000
,  // measure 32
10010000
00000000
00000000
00000000
10000000
00000000
01000000
00010000
00000000
00000000
00000000
00000000
00010000
00000000
00001000
00000100
,  // measure 33
00000000
00000000
00000000
00000000
00000001
00000000
00001000
00000000
00000010
00000100
00000001
00001000
00000010
00000100
00000001
00001000
,  // measure 34
00000001
00000000
00000000
00000000
00000100
00000000
00001000
00010000
00000000
00000000
00000000
00000000
00001000
00000000
00010000
01000000
,  // measure 35
00000000
00000000
00000000
00000000
10000000
00000000
10010000
00000000
00010000
01000000
00100000
10000000
00010000
01000000
01000000
01000000
,  // measure 36
00010000
00000000
00000000
10000000
01000000
00010000
00001000
00020000
00000000
00000000
00030000
00001000
00010000
00001000
00000100
00000001
,  // measure 37
00001000
00000000
00000101
00000000
00001000
00000001
00000100
00000010
,  // measure 38
00001010
00000000
00000000
00000001
00000010
00001000
00010000
00002000
00000000
00000000
00003000
00010000
00001000
00010000
00100000
10000000
,  // measure 39
00010000
00000000
00000000
00000000
11000000
00000000
00000000
00000000
00010000
10000000
00100000
01000000
00100000
10000000
10000000
10000000
,  // measure 40
00010000
00000000
00000000
11000000
00000000
00000000
00000000
00000000
10010000
00000000
00000000
10000000
01000000
00010000
00001000
00000100
,  // measure 41
00000001
00000000
00000000
00000000
00000000
00000000
00000000
00000000
00000000
00001100
00000000
00000000
00000000
00000000
00000000
00000000
00000000
00000000
00000000
00000000
00000000
00000000
00000000
00000000
00000001
00000000
00000010
00000000
00000100
00000000
00001000
00000000
00000001
00000000
00000010
00000000
00000100
00000000
00000000
00001000
00000000
00000000
00000001
00000000
00000000
00000000
00000000
00000000
,  // measure 42
00000020
00002030
00023000
00230000
,  // measure 43
10300000
00100000
01000000
00010000
10000000
00100000
01000000
00000000
01000000
00000000
01000000
00000000
00000000
00000000
00000000
00000000
00000000
00000000
00000000
00000000
00000000
00000000
00000000
00000000
,  // measure 44
01010000
00000000
10100000
00000000
01010000
00000000
10000000
01000000
,  // measure 45
00000000
00020000
00000000
00032000
00000000
00003010
00000001
00000010
,  // measure 46
00000000
00000001
00000100
00001000
00000100
00000001
00000100
00000010
,  // measure 47
00001010
00000000
00000100
00000001
00000000
00001000
00000100
00000010
,  // measure 48
00000011
00000000
00001100
00000000
00000011
00000000
00000001
00000010
,  // measure 49
00000000
00002000
00000000
00023000
00000000
00130000
10000000
00100000
,  // measure 50
00000000
10000000
01000000
00010000
01000000
10000000
01000000
00100000
,  // measure 51
00010000
01000000
00100000
10000000
00010000
01000000
01000000
01000000
,  // measure 52
00200000
00000000
00300000
00000000
00020000
00000000
00030000
00002000
,  // measure 53
00000000
00003020
00000000
00000032
00000000
00001003
00000010
00000100
,  // measure 54
00000000
00000001
00000010
00001000
00000010
00000001
00000010
00000100
,  // measure 55
00001100
00000000
00000010
00000001
00000000
00001000
00000010
00000100
,  // measure 56
00000002
00000000
00000023
00000000
00002030
00000000
00013000
00100000
,  // measure 57
00000000
10100000
00000000
20000000
00000000
30010000
10000000
00010000
,  // measure 58
10000000
01000000
00010000
01000000
10000000
00100000
00010000
00001000
,  // measure 59
00000010
00000001
00000001
00000001
,  // measure 60
00002200
00000000
00000000
00000000
,  // measure 61
00000000
00000000
00000000
00003300
;

//---------------dance-double - ----------------
#NOTES:
     dance-double:
     :
     Challenge:
     15:
     0.729003,1.294979,0.384474,0.209713,0.873805,584.000000,540.000000,44.000000,24.000000,0.000000,0.000000,0.729003,1.294979,0.384474,0.209713,0.873805,584.000000,540.000000,44.000000,24.000000,0.000000,0.000000:
00000000
00000000
00000000
00000000
,
00000000
00000000
00000000
00000000
00000000
00000000
00000000
00000000
00000000
00000000
00000000
00000000
00000000
00010000
00100000
01000000
,
10000000
00000000
00000000
00000000
10000000
01000000
00010000
00001000
00000000
00000000
00000000
00000000
00010000
00001000
00000100
00000001
,
00000020
00000000
00000000
00000000
00001000
00000000
00000000
00000000
00000031
00000100
00000010
00001000
00000100
00000010
00000010
00000010
,
00000011
00000000
00000000
00000000
00000000
00000000
00000001
00001000
00000001
00000000
00000100
00000000
00001000
00000000
00010000
00000000
01000000
00000000
00000000
00000000
00000000
00000000
10000000
00010000
10000000
00000000
01000000
00000000
00010000
00000000
00001000
00000000
,
00000100
00000000
00000001
00001000
00000110
00000000
00001000
00000100
00011000
00000000
00010000
00000000
00100000
00000000
10000000
00000000
,
00010000
00000000
00000000
00000000
00000000
00000000
10000000
00010000
10000000
00000000
01000000
00000000
00010000
00000000
00001000
00000000
00000100
00000000
00000000
00000000
00000000
00000000
00000001
00001000
00000001
00000000
00000100
00000000
00001000
00000000
00010000
00000000
,
02000000
00000000
00000000
00000000
00000000
00000000
00000000
00000000
10000000
00000000
00000000
00000000
00000000
00000000
00000000
00000000
03100000
00010000
00100000
00000000
00010000
00000000
01000000
00000000
00100000
00000000
10000000
00000000
10000000
00000000
10000000
00000000
,
00010000
00000000
00000000
00000000
00000000
00000000
01000000
00100000
01000000
00000000
00100000
00000000
00010000
00000000
00001000
00000000
00000010
00000000
00000000
00000000
00000000
00000000
00000010
00000100
00000010
00000000
00001000
00000000
00010000
00000000
00100000
00000000
,
20000000
00000000
00100000
00000000
31000000
00010000
00001000
00000010
,
00000001
00000000
00000000
00000000
00000000
00000000
00000100
00000010
00000100
00000000
00001000
00000000
00010000
00000000
01000000
00000000
00100000
00000000
00000000
00000000
00000000
00000000
00100000
01000000
00100000
00000000
01000000
00000000
00010000
00000000
00001000
00000000
,
00000020
00000000
00000000
00000000
00000000
00000000
00000000
00000000
00000032
00000000
00000000
00000000
00000000
00000000
00000000
00000000
00001003
00000010
00001000
00000000
00000100
00000000
00000010
00000000
00000001
00000000
00001000
00000000
00001000
00000000
00001000
00000000
,
00000001
00000000
00000000
00000000
00000000
00000000
00001100
00000000
00000000
00000000
00000000
00000000
00000000
00000000
00000000
00000000
00000001
00001000
00000001
00000000
00000000
00000000
00000100
00000000
00001000
00000000
00001000
00000000
00010000
00100000
10000000
00000000
,
01000000
00000000
00000000
00000000
00000000
00000000
00000000
00000000
00000000
00101000
00000000
00000000
00000000
00000000
00000000
00000000
00000000
00000000
00000000
00000000
00000000
00000000
00000000
00000000
01000000
00000000
10000000
00000000
01000000
00000000
10000000
00000000
00010000
00000000
00100000
00000000
00010000
00000000
00000000
01000000
00000000
00000000
10100000
00000000
00000000
00000000
00000000
00000000
,
10010000
00000000
10000000
01000000
10000000
01000000
10000000
01000000
10000000
00000000
00010000
01000000
00010000
01000000
00010000
01000000
00010000
00000000
10000000
01000000
10000000
01000000
10000000
01000000
10000000
00000000
00010000
01000000
00010000
01000000
00010000
01000000
,
00010000
00100000
01000000
10000000
01000000
00010000
00001000
00000000
00000010
00000000
00000001
00000000
00000000
00000000
00000000
00000000
00000000
00000000
00000000
00000000
00000000
00000000
00000000
00000000
,
00001001
00000000
00000101
00000000
00001001
00000000
00000001
00000100
,
00000000
00002000
00000000
00023000
00000000
00130000
10000000
01000000
,
00000000
00010000
01000000
10000000
00100000
00010000
00001000
00000010
,
00000011
00000000
00000100
00000100
00000000
00001010
00000010
00000100
,
00000101
00000000
00001001
00000000
00000101
00000000
00000001
00000100
,
00000000
00002000
00000000
00023000
00000000
01030000
10000000
00100000
,
00000000
00010000
00001000
00000010
00000001
00000010
00001000
00010000
,
00000100
00000010
00000001
00000100
00000010
00001000
00001000
00001000
,
00000001
00000100
00000001
00000000
00000000
00000000
00000000
00000000
00001000
00000010
00001000
00000000
00000010
00000000
00000200
00000000
,
00000000
00002300
00000000
00023000
00000000
00130000
10000000
00100000
,
00000000
00000000
10000000
00010000
10000000
00000000
00100000
00000000
01000000
00000000
00010000
00000000
01000000
00000000
00100000
00000000
,
10100000
00000000
01000000
01000000
00000000
00110000
00010000
10000000
,
11000000
00000000
10010000
00000000
11000000
00000000
01000000
00020000
,
00000000
00032000
00000000
00003010
00000000
00000001
00000100
00000010
,
00001000
00000100
00000010
00000001
00000100
00000010
00001000
00000100
00000010
00000001
00000100
00000010
00001000
00000100
00000010
00000001
,
00000100
00000000
00000000
00000000
,
00011000
00000000
00000000
00000000
00101000
00000000
00100000
01000000
10000000
00010000
00000000
00000000
10010000
00000000
10000000
01000000
,
00100000
00010000
00000000
00000000
01010000
00000000
00100000
00000000
10000000
01000000
00010000
00001000
00010000
00001000
00000100
00000001
,
00001000
00000001
00000000
00000000
00000110
00000000
00000010
00000100
00000001
00001000
00000000
00000000
00001001
00000000
00001000
00000100
,
00000010
00000000
00000001
00000000
00000000
00000000
00000000
00000000
00000101
00000000
00000000
00000000
00000010
00000000
00000000
00000000
00000100
00000001
00000100
00000000
00001000
00000000
00010000
00000000
01000000
00000000
10000000
00000000
10000000
00000000
10000000
00000000
,
00010000
00000000
00000000
00000000
00000000
00000000
10000000
00100000
10000000
00000000
01000000
00000000
00010000
00000000
01000000
00000000
10000000
00000000
00000000
00000000
00000000
00000000
10000000
00100000
00010000
00000000
00001000
00000000
00000010
00000000
00000001
00000000
,
00000100
00000000
00010010
00000000
00000100
00000010
00000001
00001000
,
00001001
00000000
00000000
00000000
00000000
00000000
00000001
00001000
00000001
00000000
00000100
00000000
00001000
00000000
00000100
00000000
00000001
00000000
00000000
00000000
00000000
00000000
00000001
00000100
00001000
00000000
00010000
00000000
01000000
00000000
10000000
00000000
,
00100000
00000000
00000000
00000000
00000000
00000000
00000000
00000000
01001000
00000000
00000000
00000000
00000000
00000000
00000000
00000000
00100000
01000000
00100000
00000000
01000000
00000000
10000000
00000000
00100000
00000000
01000000
00000000
01000000
00000000
01000000
00000000
,
00010000
00000000
00000000
00000000
00000000
00000000
11000000
00000000
00000000
00000000
00000000
00000000
00000000
00000000
00000000
00000000
10000000
00010000
10000000
00000000
00000000
00000000
01000000
00000000
00010000
00000000
00001000
00000100
00000001
00000000
00000000
00000000
,
00001000
00000000
00000000
00000000
00000000
00000000
00000000
00000000
00000000
00000101
00000000
00000000
00000000
00000000
00000000
00000000
00000000
00000000
00000000
00000000
00000000
00000000
00000000
00000000
00000001
00000000
00001000
00000000
00000010
00000000
00000100
00000000
00000001
00000000
00001000
00000000
00000010
00000000
00000000
00000100
00000000
00000000
00000010
00000000
00000000
00000000
00000000
00000000
,
00001001
00000000
00000001
00000100
00000001
00000100
00000001
00000100
00000001
00000000
00001000
00000100
00001000
00000100
00001000
00000100
00001000
00000000
00000001
00000100
00000001
00000100
00000001
00000100
00000001
00000000
00001000
00000100
00001000
00000100
00001000
00000100
,
00001000
00000100
00000010
00000001
00000100
00001000
00010000
00000000
00100000
00000000
10000000
00000000
00000000
00000000
00000000
00000000
00000000
00000000
00000000
00000000
00000000
00000000
00000000
00000000
,
10010000
00000000
01010000
00000000
10100000
00000000
10000000
01000000
,
00000000
00020000
00000000
00032000
00000000
00003010
00000001
00000100
,
00000010
00000000
00001000
00000100
00000010
00000000
00000001
00000000
00000100
00000000
00000010
00000000
00001000
00000000
00000100
00000000
,
00000011
00000000
00000100
00000100
00000000
00001010
00000010
00000100
,
00000110
00000000
00000101
00000000
00001010
00000000
00000001
00000100
,
00000000
00002000
00000000
00023000
00000000
01030000
10000000
00100000
,
01000000
00000000
00010000
00100000
01000000
00000000
10000000
00000000
00100000
00000000
01000000
00000000
00010000
00000000
00100000
01000000
,
10000000
00010000
10000000
00010000
01000000
00100000
00100000
00100000
,
10000000
01000000
10000000
00000000
00000000
00000000
00000000
00000000
00010000
00100000
00010000
00000000
10000000
00000000
02000000
00000000
,
00000000
03020000
00000000
00031000
00000000
00000010
00000001
00000100
,
00000010
00000000
00001000
00000100
00000010
00000000
00000001
00000000
00000100
00000000
00000010
00000000
00001000
00000000
00000001
00000000
,
00000101
00000000
00001000
00001000
00000000
00000101
00000001
00000010
,
00000100
00000000
00000000
00000100
00010000
00000000
00001000
00000000
01000000
00000000
00000000
01000000
00010000
01000000
00010000
00100000
,
01000000
00000000
20000000
00000000
00000000
00000000
30020000
00000000
00000000
00000000
01030000
00000000
00100000
00000000
01000000
00010000
,
00100000
01000000
10000000
00100000
01000000
00010000
00100000
01000000
10000000
00100000
01000000
00010000
00100000
01000000
10000000
00100000
,
01000000
00000000
00000000
00000000
,
02002000
00000000
00000000
00000000
,
00000000
00000000
00000000
03003000
;
