#TITLE:Be My Cowboy;
#SUBTITLE:(Speed Remix);
#ARTIST:Jenny Rom;
#TITLETRANSLIT:;
#SUBTITLETRANSLIT:;
#ARTISTTRANSLIT:;
#GENRE:Hardcore;
#CREDIT:;
#BANNER:bemycowboy-bn.png;
#BACKGROUND:bemycowboy-bg.png;
#LYRICSPATH:;
#CDTITLE:;
#MUSIC:Be My Cowboy (Speed Remix).mp3;
#OFFSET:-0.563000;
#SAMPLESTART:44.579998;
#SAMPLELENGTH:11.999990;
#SELECTABLE:YES;
#BPMS:0.000000=172.000000
;
#STOPS:
;
#BGCHANGES:;
#KEYSOUNDS:;
#ATTACKS:;

//---------------dance-single - ----------------
#NOTES:
     dance-single:
     :
     Hard:
     13:
     0.691711,0.631249,0.288421,0.078660,0.144211,554.000000,521.000000,33.000000,9.000000,0.000000,0.000000,0.691711,0.631249,0.288421,0.078660,0.144211,554.000000,521.000000,33.000000,9.000000,0.000000,0.000000:
0000
0000
0000
0000
,
0000
0000
0000
0000
,
0000
0000
0000
0000
,
0000
0000
0000
0000
0000
0001
0100
0010
,
1000
0010
0100
0010
1000
0010
0100
0020
,
0000
0031
0010
1000
0100
0001
0100
1000
,
0001
1000
0001
1000
0010
0100
1000
0100
,
0001
0100
0001
1000
0010
1000
0010
0100
,
0001
0010
0100
0010
0100
1000
0000
1000
,
0100
0010
0100
0010
0001
1000
0001
1000
,
0001
0000
0000
0001
0100
0000
0000
0100
0001
0000
0000
0001
0010
0000
0000
0010
,
0001
1000
0010
0010
0100
0100
0010
1000
,
0100
0010
0001
1000
0001
1000
0000
1000
,
0001
0100
0010
0100
0010
1000
0001
1000
,
0010
0000
1100
0000
0010
0001
1000
0000
,
0011
0000
0100
0000
1000
0000
0100
1000
,
0010
1000
0001
0100
0001
0000
0100
0001
,
0100
0001
1000
0010
0000
0100
0010
0100
,
0010
0000
0000
0010
1000
0000
0000
1000
0010
0000
0000
0010
1000
0000
0000
1000
,
0100
0010
0001
0100
0001
0010
0100
0000
,
1010
1000
0010
1000
1100
0000
0100
0010
,
0011
0000
1000
0010
0000
0100
0010
0100
,
0110
0000
0101
0000
0010
1000
1010
0000
,
1000
0001
1000
0001
1000
0010
1000
0100
,
1000
0000
0000
1000
0100
0000
0000
1000
0200
0000
0000
0000
0000
0000
0310
0000
,
0100
0000
0000
0010
0100
0000
1000
0000
0001
0000
0000
0000
0000
0000
0001
0000
,
0100
1000
0100
0000
0001
0100
1000
0100
,
0001
0010
1000
0010
0001
0000
1001
0000
,
0001
0000
0000
0001
0100
0000
0000
0001
0200
0000
0000
0000
0310
0000
0100
0000
,
0010
0000
0000
0010
1000
0000
0001
0000
1000
0000
0000
0000
0000
0000
1000
0000
,
0100
0001
0100
0000
1000
0100
0001
0100
,
1000
0010
0001
0010
1000
0001
0010
0001
,
1000
0100
0001
0000
1000
0100
0010
0001
,
0000
0000
0011
0000
0000
0000
0101
0000
0000
0000
0001
0000
1000
0100
0000
0000
,
0101
0000
0000
0000
1000
0100
0000
0000
0101
0000
0000
0000
1000
0000
0020
0000
,
0000
0130
0001
1000
0001
0010
0010
0010
,
0001
0010
1000
0000
0001
0010
0100
1000
,
0000
0000
1010
0000
0000
0000
1100
0000
0000
0000
1000
0000
0001
0100
0000
0000
,
1100
0000
0000
0000
0001
0100
0000
0000
1100
0000
0000
0000
0001
0000
1000
0000
,
0001
0011
0000
1100
0000
0010
1000
0001
,
1000
0100
1000
0010
0100
1000
0100
0001
,
0010
0100
0001
0100
0001
0100
1000
0010
,
1000
0100
0001
0100
1000
0100
0001
0200
,
0000
1300
0001
0010
0100
0010
0001
1000
,
1000
0100
1000
0010
0100
1000
0100
0001
,
0010
0100
0001
0100
0001
0100
1000
0010
,
1000
0100
0001
0100
1000
0100
0001
0100
,
1000
0010
1000
0010
0100
0001
0100
0001
,
0010
0100
1000
0100
0001
0000
0000
0100
,
1000
0100
0010
0001
0000
0010
0100
0000
,
1000
0000
0000
0010
0001
0000
0000
0010
1000
0000
0000
0010
0001
0000
0000
0000
,
0010
0010
1000
0100
0010
0001
0010
0100
,
0010
0001
0100
1000
0100
0000
0000
0001
,
0010
1000
0010
0001
0000
0001
1000
0000
,
0101
0000
1010
0000
1100
0010
0001
0000
,
0110
1000
0001
1000
0000
1000
0100
0001
,
1000
0000
0000
1000
0010
0000
0000
0010
0001
0000
0000
0000
1000
0000
0100
0000
,
0001
0000
0000
0000
1000
0000
0010
0000
0001
0000
0000
0000
0000
0000
0000
0001
,
0100
0000
0001
0000
1000
0000
0000
1000
0100
0000
1000
0000
0001
0000
0000
0001
,
0100
0001
1000
0000
1001
0000
0000
0000
,
0001
0000
0000
0001
0100
0000
0000
0100
1000
0000
0000
0000
0001
0000
0010
0000
,
1000
0000
0000
0000
0010
0000
0100
0000
0010
0000
0000
0000
0000
0000
0000
1000
,
0010
0000
1000
0000
0001
0000
0000
0001
0010
0000
0001
0000
1000
0000
0010
0000
,
0100
0010
0100
0000
1001
0001
1000
0010
,
1000
0100
0010
0100
0010
0001
1000
0000
,
0010
1000
0001
0100
0000
0010
0000
0000
,
0000
0000
0000
0000
1000
0000
1000
0000
1000
0000
0000
0000
0001
0100
0000
0000
,
1100
0000
0001
2000
0000
3020
0100
0030
,
0100
0001
0001
0001
1000
0100
0001
0000
,
1000
0100
0010
0001
0000
0101
0000
0011
,
0000
0000
0001
0000
1000
0100
0000
0000
0101
0000
0000
0000
1000
0100
0000
0000
,
0101
0000
1000
0001
1000
1010
0000
0101
,
0000
1000
0001
1000
0010
1000
0010
0100
,
1000
0100
0001
1000
0001
1000
0100
1000
,
0100
0010
1000
0010
0001
1000
0001
1000
,
0010
1000
0100
2000
0000
3010
0100
0001
,
1000
0010
0100
0010
1000
0100
0001
0100
,
1000
0010
0001
0020
0000
1030
0001
0100
,
0010
1000
0010
0100
0001
0001
1000
1000
,
0010
0100
0010
1000
0010
0010
0000
1001
,
0000
0100
0100
0000
0000
0000
0000
0000
;

//---------------dance-single - ----------------
#NOTES:
     dance-single:
     :
     Medium:
     10:
     0.449488,0.526041,0.174801,0.034960,0.000000,360.000000,340.000000,20.000000,4.000000,0.000000,0.000000,0.449488,0.526041,0.174801,0.034960,0.000000,360.000000,340.000000,20.000000,4.000000,0.000000,0.000000:
0000
0000
0000
0000
,
0000
0000
0000
0000
,
0000
0000
0000
0000
,
0000
0000
0000
0000
,
0001
0010
0001
1000
0100
0000
0100
1000
,
0000
1000
0001
0010
0100
0000
0100
0000
,
0010
0001
0010
0001
0010
0100
0010
0000
,
0001
0001
0001
0001
,
0000
1000
0010
0100
0010
0000
0000
1000
,
0010
0100
0010
1000
0000
0000
0000
0000
,
0001
0100
1000
0100
,
0001
1000
0001
1000
0010
0100
0010
0100
,
0000
0001
0010
0100
0010
0000
0000
0001
,
0010
0100
0010
0001
0000
0000
1000
0000
,
0010
0000
0010
0000
0010
0100
0010
0000
,
1001
0000
0000
0001
,
0010
0100
1000
0100
0010
0000
0000
0010
,
0100
1000
0100
0010
0000
0000
0001
0000
,
0100
0100
0001
0001
,
0010
0010
0000
0000
0100
0000
1000
0000
,
0010
0100
0001
0100
0010
0000
0000
0010
,
0100
0001
0100
0010
0000
1000
1000
0000
,
0001
0000
0001
0000
0001
1000
0001
0000
,
0110
0000
0100
0000
0100
0010
1000
0001
,
1000
0100
0001
0000
,
1000
0010
0001
0000
,
1000
1000
0001
0001
,
1000
0001
1000
0000
0110
0000
0000
0000
,
0001
0100
1000
0000
,
0001
0010
1000
0000
,
0001
0001
1000
1000
,
0010
0100
0001
0000
1001
0000
0000
0000
,
1000
0010
1000
0000
0001
0010
0001
1000
,
0000
0001
0000
1000
0000
0000
0011
0000
,
0101
0000
0011
0000
0101
0000
0000
0010
,
0000
0010
1000
0000
0000
1000
0001
1000
,
0001
0010
0001
0000
1000
0010
1000
0001
,
0000
1000
0000
0001
0000
0000
1010
0000
,
1100
1010
1100
0010
,
0001
0001
0000
1000
0000
0001
0001
0000
,
1000
0000
1000
0000
1000
0100
0010
0002
,
0000
0000
1003
0000
1000
0000
0001
1000
,
0001
0010
0001
0010
0001
0000
0100
0010
,
0000
0010
0100
0000
0001
0000
1000
0000
,
0001
0000
0001
0000
0001
0010
0100
2000
,
0000
0000
3001
0000
0001
0000
1000
0001
,
1000
0100
1000
0000
0001
0100
0001
0000
,
1000
0001
1000
0001
,
1000
0100
0001
0000
,
1000
0100
0010
0000
,
0001
0001
1000
1000
,
0001
0000
0000
0000
,
0001
0010
1000
0000
,
0001
0010
0100
0000
,
1000
0000
1000
0000
0001
1000
0001
0000
,
1001
0000
0000
0000
,
0010
0010
0010
0000
,
0100
0010
0001
0000
,
1000
0100
0001
0100
,
1000
0100
0001
0100
,
1000
1000
1000
0000
,
0010
1000
0001
0000
,
0001
0100
1000
0100
,
0001
0100
1000
0100
,
0002
0000
1003
0000
,
0000
0000
0000
0000
,
0000
0000
0010
0100
0010
0000
1001
0000
,
0110
0000
0000
0100
0000
0100
0001
0000
,
0010
0100
0010
0100
0010
0001
0010
0000
,
0100
1000
0100
0010
0000
0001
0000
1000
,
0000
1100
0011
1100
,
0011
0000
1000
0000
0001
0001
0000
1000
,
0000
0010
0100
0010
1000
0100
1000
0000
,
0001
0000
0001
0010
0000
0010
0001
0000
,
1000
0000
1001
0000
0010
0100
0010
1000
,
0010
0100
0010
2000
0000
3001
1000
0010
,
0100
0000
0000
0000
0100
0001
0100
0000
,
0010
0000
0010
1000
0000
1000
0010
0000
,
0100
0010
0100
0000
0001
0010
0001
0100
,
0001
0010
0001
0000
0100
0100
0000
0010
,
0000
1000
1000
0000
0000
0000
0000
0000
;

//---------------dance-single - ----------------
#NOTES:
     dance-single:
     :
     Beginner:
     3:
     0.182292,0.245486,0.026220,0.017480,0.000000,146.000000,143.000000,3.000000,2.000000,0.000000,0.000000,0.182292,0.245486,0.026220,0.017480,0.000000,146.000000,143.000000,3.000000,2.000000,0.000000,0.000000:
0000
0000
0000
0000
,
0000
0000
0000
0000
,
0000
0000
0000
0000
,
0000
0000
0000
0000
,
0010
0000
0010
0000
,
0100
0100
0100
0000
,
1000
0000
1000
0000
,
0002
0000
0000
0003
,
0000
0001
0001
0000
,
0001
0001
0000
0000
,
0010
0000
0010
0000
,
0010
0000
0000
0000
,
0000
1000
1000
0000
,
1000
1000
0000
0000
,
0010
0010
0010
0010
,
0010
0000
0000
0000
,
0000
0001
0001
0000
,
0001
0001
0000
0000
,
0100
0000
0100
0000
,
0100
0000
0000
0000
,
0000
1000
1000
0000
,
1000
1000
0000
0000
,
0100
0000
0100
0000
,
0100
0000
0000
0000
,
0001
0001
0001
0000
,
1000
0000
0001
0000
,
1000
0000
1000
0000
,
0001
0000
0001
0000
,
0100
0100
0100
0000
,
0010
0000
0100
0000
,
0010
0000
0010
0000
,
0100
0000
0100
0000
,
0001
0000
0001
0000
,
0001
0000
0000
1000
,
1000
1000
1000
0000
,
0010
0000
0000
0000
,
0100
0000
0100
0000
,
0100
0000
0000
0010
,
0010
0010
0010
0000
,
0110
0000
0000
0000
,
0001
0000
0001
0000
,
0100
0100
0100
0000
,
0010
0000
0010
0000
,
1000
0000
0010
0000
,
1000
0000
1000
0000
,
0100
0100
0100
0000
,
0010
0000
0010
0000
,
0002
0000
0000
0003
,
0001
0000
0000
0000
,
1000
0000
0000
0000
,
0100
0000
0000
0000
,
0010
0000
0000
0000
,
0010
0000
0000
0000
,
0100
0000
0000
0000
,
1000
0000
0000
0000
,
0001
0000
0000
0000
,
1000
1000
1000
0000
,
1000
0000
0000
0000
,
0010
0000
0010
0000
,
0100
0000
0100
0000
,
0001
0001
0001
0000
,
0001
0000
0000
0000
,
0100
0000
0100
0000
,
0010
0000
0010
0000
,
0000
0000
0110
0000
,
0000
0000
0000
0000
,
0000
1000
1000
1000
,
1000
0000
0010
0000
,
0000
0000
0100
0000
,
0100
0000
0100
0000
,
0000
0001
0001
0001
,
0001
0000
0000
0000
,
0000
0000
0010
0000
,
0010
0000
0001
0001
,
0001
0000
0100
0000
,
0100
0000
0010
0000
,
0000
0000
1000
0000
,
1000
0000
0010
0010
,
0010
0000
0100
0000
,
0100
0000
0010
0000
,
0000
0110
0000
0000
;

//---------------dance-double - ----------------
#NOTES:
     dance-double:
     :
     Challenge:
     16:
     0.829055,0.911804,0.437002,0.104880,0.445742,664.000000,614.000000,50.000000,12.000000,0.000000,0.000000,0.829055,0.911804,0.437002,0.104880,0.445742,664.000000,614.000000,50.000000,12.000000,0.000000,0.000000:
00000000
00000000
00000000
00000000
,
00000000
00000000
00000000
00000000
,
00000000
00000000
00000000
00000000
,
00000000
00000000
00000000
00000000
00000000
00010000
00000010
00000100
,
00001000
00010000
00000100
00000000
00000010
00000000
00000001
00000000
00000010
00000000
00001000
00000000
00010000
00000000
02000000
00000000
,
00000000
00000000
13000000
00000000
00100000
00010000
00001000
00000000
00010000
00100000
10000000
00000000
01000000
00000000
00010000
00000000
,
00001000
00100000
00010000
00001000
00000010
00000100
00000010
00001000
,
00000001
00000010
00000001
00000010
00000001
00000100
00000001
00000100
00000001
00000010
00000100
00010000
00001000
00100000
01000000
10000000
,
00100000
01000000
00010000
01000000
00100000
00100000
10000000
01000000
,
00010000
00001000
00000010
00000001
00000100
00001000
00010000
00001000
,
00000100
00000000
00000000
00000000
00001100
00000000
00000000
00000000
00011000
00000000
00000000
00001000
00010000
00000000
00000000
00000000
,
00001000
00001000
00100000
01000000
00010000
00001000
00000010
00000001
,
00000100
00000010
00001000
00000010
00000100
00000100
00000001
00000010
,
00001000
00010000
01000000
10000000
00100000
10000000
00010000
10000000
,
01100000
00000000
00010000
00000000
01100000
01000000
00010000
00000000
,
01000000
00100000
00010000
00001000
00000100
00000001
00001000
00000100
,
00000010
00000001
00001000
00000001
00000010
00000000
00000001
00000100
,
00001000
00000000
00010000
00000000
01000000
00000000
10000000
00000000
00100000
00000000
10000000
00010000
10000000
00010000
10000000
00000000
,
01000000
00000000
00000000
00000000
01010000
00000000
00000000
00000000
00011000
00000000
00000000
00001000
00010000
00000000
00000000
00000000
,
00001000
00001000
00000100
00000001
00001000
00000010
00000100
00000001
,
00000101
00000001
00001000
00000100
00001100
00000100
00010000
00001000
,
00011000
00000000
00001000
00000000
00100000
00000000
00010000
00000000
00110000
00000000
01000000
10000000
01000000
10000000
01000000
00000000
,
20000000
00000000
30020000
00000000
00031000
00001000
00001000
00000000
,
00000001
00000000
00000100
00000000
00000010
00000000
00010000
00000000
00010000
00001000
01000000
00100000
10000000
00010000
01000000
00100000
,
10000000
00000000
00000000
00100000
10000000
00000000
00000000
00100000
20000000
00000000
00000000
00000000
30000000
00000000
01000000
00000000
,
00010000
00000000
00001000
00000100
00000001
00000000
00001000
00000000
00000001
00000000
00000000
00000000
00001000
00000000
00000001
00000100
,
00000010
00000100
00000001
00000000
00001000
00000000
00001000
00000100
00010000
00000100
00001000
00000000
00000010
00000000
00000010
00000100
,
00000001
00000100
00000010
00000000
00010000
00000000
00000000
00000000
00011000
00000000
00000000
00000000
00010000
00000000
00000100
00000010
,
00000001
00000000
00000000
00000010
00000001
00000000
00000000
00000010
00000001
00000000
00000000
00000000
00000001
00000000
00000100
00000000
,
00001000
00000000
00000000
00001000
00010000
00000000
01000000
00000000
10000000
00000000
00000000
00000000
10000000
00000000
00100000
01000000
,
00010000
01000000
00100000
00000000
10000000
00000000
10000000
00010000
01000000
00010000
10000000
00000000
00010000
00000000
00010000
00100000
,
00001000
00100000
00010000
00000000
00000100
00000000
00001000
00000000
00000010
00000000
00000100
00000000
00000001
00000000
00000100
00000000
,
00000001
00000000
00000010
00001000
00000010
00000000
00001000
00010000
00001000
00000000
00010000
00000000
00100000
00000000
10000000
00000000
,
00000000
00000000
01010000
00000000
00000000
00000000
00100000
00000000
00000000
00000000
11000000
00000000
10000000
00100000
00000000
00000000
,
01010000
00000000
00000000
00000000
10000000
00100000
00000000
00000000
01010000
00000000
00000000
00000000
00100000
00000000
00020000
00000000
,
00000000
00031000
01000000
00000000
00100000
00100000
00010000
00010000
,
00001000
00000000
00010000
00001000
00010000
00000000
00001000
00000100
00001000
00000000
00000100
00000000
00000001
00000000
00000010
00000000
,
00000000
00000000
00001100
00000000
00000000
00000000
00000010
00000000
00000000
00000000
00000101
00000000
00000001
00000100
00000000
00000000
,
00001010
00000000
00000000
00000000
00000001
00000100
00000000
00000000
00001010
00000000
00000010
00000000
00000100
00000000
00000001
00000000
,
00000101
00000101
00000000
00001001
00000000
00000010
00001000
00000010
,
00001000
00000010
00001000
00000000
00000001
00000000
00000100
00000000
00001000
00000000
00010000
00000000
00000010
00000000
00000200
00000000
,
00000000
00000000
00001300
00000000
00010000
01000000
00010000
00000000
01000000
10000000
01000000
00000000
10000000
00000000
00100000
00000000
,
10000000
01000000
00010000
01000000
10000000
00100000
00010000
00012000
,
00000000
00003010
00000001
00000100
00000100
00000001
00001000
00000001
,
00000100
00000010
00010000
00000000
00001000
00000000
00000100
00000000
00001000
00000000
00010000
00000000
00100000
00000000
20000000
00000000
,
00000000
00000000
31000000
00000000
00100000
00001000
00100000
00000000
01000000
10000000
01000000
00000000
00100000
00000000
00100000
00000000
,
00001000
00010000
01000000
00010000
00001000
00000010
00000001
00000010
,
00001000
00010000
00001000
00010000
00001000
00010000
00001000
00000000
00010000
00000000
00000100
00000000
00010000
00000000
00001000
00000000
,
00100000
01000000
10000000
01000000
00010000
00000000
00000000
00000000
,
00000001
00000100
00001000
00010000
00000000
00001000
00000100
00000001
,
00001001
00010010
00011000
01001000
,
00010000
00000010
00000100
00001000
00010000
00100000
10000000
01000000
,
00010000
00001000
00000100
00000001
00000010
00000000
00000000
00000000
,
00100000
10000000
00100000
00010000
00000000
01000000
00100000
00010000
,
00011000
00000000
00001100
00000000
00000101
00000001
00001000
00000000
,
00000110
00000010
00000100
00000010
00000000
00000001
00000100
00000001
,
00000010
00000000
00000000
00000010
00001000
00000000
00000000
00001000
00010000
00000000
00000000
00000000
00011000
00000000
00001000
00000000
,
00100000
00000000
01000000
10000000
00100000
00000000
00010000
00000000
00011000
00000000
00000000
00000000
00000000
00000000
00000010
00001000
,
00000010
00000000
00000100
00000001
00000100
00000000
00000000
00000010
00001000
00000000
00000001
00000100
00000001
00000000
00000010
00001000
,
00000010
00000100
00001000
00000000
00011000
00000000
00100000
10000000
,
01000000
00000000
00000000
01000000
00010000
00000000
00000000
00010000
00001000
00000000
00000000
00000000
00011000
00000000
00010000
00000000
,
00000100
00000000
00000010
00000001
00000100
00000000
00001000
00000000
00011000
00000000
00000000
00000000
00000000
00000000
00100000
00010000
,
00100000
00000000
01000000
10000000
01000000
00000000
00000000
00100000
00010000
00000000
01000000
00010000
01000000
00000000
00100000
10000000
,
00100000
00000000
10000000
00000000
01000000
00000000
00000000
00000000
00010000
00001000
00010000
00000010
00000100
00000001
00001000
00000100
,
00000010
00000100
00000010
00000100
00001000
00000001
00001000
00000001
00000100
00000000
00000010
00010000
00001000
00000000
00010000
00000010
,
00000100
00000010
00010000
00001000
00000000
01000000
00000000
00000000
,
00000000
00000000
00000000
00000000
00000100
00000000
00000100
00000000
00000100
00000000
00000000
00000000
00001000
00000001
00000000
00000000
,
00000110
00000000
00000010
00000200
00000000
00001300
00010000
00000000
,
00100000
10000000
00100000
10000000
00100000
01000000
00100000
01000000
00100000
00000000
10000000
01000000
00100000
00000000
01000000
00100000
,
00010000
01000000
00100000
00110000
00000000
00011000
00000000
00001100
,
00000000
00000000
00000100
00000000
00000001
00000010
00000000
00000000
00001100
00000000
00000000
00000000
00000001
00000010
00000000
00000000
,
00001100
00000100
00010000
00001000
00011000
00011000
00000000
01001000
,
00000000
00000000
00001000
00000000
01000000
00000000
00100000
00000000
00010000
00001000
00010000
00000000
00001000
00000000
00000010
00000000
,
00000001
00000000
00001000
00000000
00000001
00000000
00000200
00000000
00000000
00000000
00001300
00000000
00000010
00000100
00001000
00000000
,
00000100
00001000
00010000
00000000
00100000
00000000
00100000
00000000
10000000
00010000
10000000
00010000
10000000
00000000
00010000
00000000
,
01000000
00100000
00010000
00002000
00000000
00003100
00000001
00001000
,
00000001
00000000
00000010
00000000
00000100
00000000
00010000
00000000
00001000
00010000
00001000
00000000
00100000
00000000
01000000
00000000
,
10000000
00000000
00100000
00000000
00010000
00000000
00002000
00000000
00000000
00000000
00013000
00000000
00001000
00000100
00001000
00000000
,
00000100
00000001
00000100
00000000
00000001
00000000
00001000
00000000
00000010
00000100
00000010
00000100
00000010
00000000
00000100
00000000
,
00000001
00001000
00000010
00001000
00001100
00001100
00000000
00000011
,
00000000
00001100
00001100
00000000
00000000
00000000
00000000
00000000
;

//---------------dance-single - ----------------
#NOTES:
     dance-single:
     :
     Challenge:
     15:
     0.846535,0.876735,0.550622,0.122361,0.471962,678.000000,615.000000,63.000000,14.000000,0.000000,0.000000,0.846535,0.876735,0.550622,0.122361,0.471962,678.000000,615.000000,63.000000,14.000000,0.000000,0.000000:
0000
0000
0000
0000
,
0000
0000
0000
0000
,
0000
0000
0000
0000
,
0000
0000
0000
0000
0000
0010
0100
0010
,
1000
0100
0010
0000
0001
0000
0100
0000
1000
0000
0100
0000
0001
0000
0021
0000
,
0000
0000
0031
0000
0100
0010
0100
0000
0010
1000
0010
0000
0100
0000
0001
0000
,
1000
0100
0001
0100
0010
0100
0001
0100
,
1000
0010
1000
0010
0100
0001
0100
0001
1000
0100
0010
0001
1000
0100
0010
0001
,
1000
0001
0100
1000
0100
0002
0000
1003
,
0001
0010
1000
0010
0001
0100
0010
1000
,
1010
0000
0000
1000
0100
0000
0000
0100
0001
0000
0000
0001
0100
0000
0000
0100
,
1000
0001
0010
0010
0100
1000
0010
0100
,
0001
1000
0100
0001
0100
2000
0000
3001
,
1000
0010
0001
0010
1000
0001
0100
0010
,
1010
0000
0100
0000
0011
0001
0100
0000
,
0010
1000
0100
0010
0001
0100
0010
0010
,
0100
0001
0010
0100
0001
0100
1000
0001
,
1000
0010
0100
1000
0100
0010
1000
0010
,
1010
0000
0000
1000
0010
0000
0000
0010
0001
0000
0000
0001
0010
0000
0000
0010
,
1000
0001
0100
0100
0001
1000
0010
0100
,
0110
0010
1000
0100
0110
0010
0001
0100
,
0101
0001
1000
0010
0000
0100
0001
0010
,
0011
0000
1100
0000
1010
1000
0001
0000
,
0001
0000
0100
0000
1000
0000
0100
0000
0001
1000
0010
0100
0010
1000
0001
0100
,
0001
0000
0000
0100
1000
0000
0000
0100
0001
0000
0000
0000
0001
0000
0010
0100
,
1000
0000
0000
0000
1000
0000
0100
0010
0001
0000
0000
0000
0000
0000
0100
0001
,
1000
0010
1000
0010
1000
0000
0000
0000
0001
0010
0001
0010
0001
0000
0000
0000
,
1000
0010
1000
0010
1000
0000
0000
0000
1001
0000
0000
0000
0010
0000
0010
0000
,
1000
0000
0000
0100
0001
0000
0000
0100
1000
0000
0000
0000
1000
0000
0100
0010
,
0001
0000
0000
0000
0001
0000
0010
0100
1000
0000
0000
0000
0000
0000
0010
1000
,
0001
0100
0001
0100
0001
0000
0000
0000
1000
0100
1000
0100
1000
0000
0000
0000
,
0001
0100
0001
0100
0001
0000
1000
0000
1001
0000
0010
0000
0100
0000
0010
0000
,
1000
0000
0100
0010
0001
0000
0100
0010
1000
0000
0100
0010
0001
0000
0011
0000
,
0000
0000
0101
0000
0000
0000
1010
0000
0000
0000
1000
0000
0001
1000
0000
0000
,
0110
0000
0000
0000
1000
0001
0000
0000
0110
0000
0000
0000
0010
0000
2010
0000
,
0000
0000
0001
0000
3001
0000
0000
0000
0100
0000
0010
0100
0010
0100
0010
0000
,
1000
0000
0001
0010
0100
0000
1000
0010
0100
0000
0001
0010
0100
0000
1100
0000
,
0000
0000
1010
0000
0000
0000
0101
0000
0000
0000
0010
0000
1000
0001
0000
0000
,
0110
0000
0000
0000
0001
1000
0000
0000
0110
0000
1000
0000
0001
0000
1000
0000
,
1010
1010
0000
1001
0000
0011
0001
0100
,
0010
1000
0010
0000
0100
0000
0001
0000
1000
0000
0100
0000
0001
0000
0200
0000
,
0000
0000
1300
0000
0001
0010
0001
0000
1000
0100
1000
0000
0010
0000
0100
0000
,
0001
0010
1000
0010
0100
0010
0001
2000
,
0000
3001
0100
1000
0100
0001
1000
0010
,
0100
0001
0100
0000
0010
0000
1000
0000
0001
0000
0010
0000
1000
0000
0020
0000
,
0000
0000
0031
0000
1000
0100
1000
0000
0001
0010
0001
0000
0100
0000
0010
0000
,
1000
0100
0001
0100
1000
0100
0001
0100
,
1000
1000
0010
0010
0100
0001
1000
0100
,
1001
0010
1000
0100
1001
0010
0001
0100
,
1001
0010
1000
0100
1001
0010
0100
0010
,
1000
0000
0000
1000
0100
0000
0000
0100
0001
0000
0000
0001
0100
0000
0000
0100
,
1000
1000
0001
0001
0100
0100
0010
0100
,
1001
0010
0001
0100
1001
0010
1000
0100
,
1001
0010
0001
0100
1001
1000
0001
0100
,
0101
0001
1000
0100
1100
1000
0001
0100
,
0101
0000
0000
0000
0000
0010
0100
0010
,
1000
0000
0000
0100
0001
0000
0000
0100
2000
0000
0000
0000
3000
0000
0001
0000
,
0100
0000
0000
1000
0100
0000
0001
0000
1000
0000
0000
0000
0000
0000
0001
0100
,
0010
1000
0100
1000
0010
0000
0000
0010
0100
0001
0010
0001
0100
0000
0000
0100
,
0010
1000
0100
1000
0010
0000
0000
0000
1001
0000
0000
0000
0000
0000
0000
0000
,
0001
0000
0000
0010
1000
0000
0000
0010
0002
0000
0000
0000
1003
0000
0010
0000
,
0001
0000
0000
0010
1000
0000
0001
0000
1001
0000
0000
0000
0000
0000
0010
0100
,
0001
0010
0100
0010
0001
0000
0000
0001
1000
0100
0010
0100
1000
0000
0000
1000
,
0001
0010
0100
0010
0001
0000
0000
0000
1001
0000
0010
0000
0100
0000
0010
0000
,
1000
0100
0010
0001
0100
0010
1000
0001
0100
0000
0010
1000
0010
0000
1000
0100
,
1000
0100
0001
0100
0000
1100
0000
1001
,
0000
0000
0011
0000
0100
0000
0100
0000
0100
0000
0000
0000
1000
0001
0000
0000
,
0110
0000
1000
0020
0000
0031
0020
0000
,
1030
0000
1000
0000
0001
0000
0001
0000
0100
0000
0010
1000
0010
0000
0100
0001
,
0100
0001
0010
0011
0000
0101
0000
1010
,
0000
0000
1000
0000
0010
1000
0000
0000
0101
0000
0000
0000
0010
0001
0000
0000
,
1100
0010
0100
0001
0011
0011
0000
1001
,
0000
0000
1010
0000
1000
0000
0001
0000
1000
0100
0010
0000
0001
0000
0100
0000
,
0010
0000
0001
0000
0010
0000
2000
0000
0000
0000
3001
0000
0010
0100
1000
0000
,
0100
0010
0001
0000
0100
0000
0010
0000
1000
0000
0010
0000
0001
0000
0010
0000
,
0100
0010
1000
1002
0000
0013
1000
0010
,
0011
0000
0001
0000
0100
0000
1000
0000
0100
0001
0100
0000
0001
0000
0010
0000
,
0100
0000
0001
0000
0100
0000
2100
0000
0000
0000
3010
0000
0100
1000
0100
0000
,
0001
0010
0001
0000
0100
0000
0010
0000
0001
0000
0010
0000
1000
0000
0010
0000
,
0100
0010
1000
0001
0101
0101
0000
1001
,
0000
1100
1100
0000
0000
0000
0000
0000
;

//---------------dance-single - ----------------
#NOTES:
     dance-single:
     :
     Easy:
     6:
     0.302156,0.350694,0.139841,0.078660,0.000000,242.000000,226.000000,16.000000,9.000000,0.000000,0.000000,0.302156,0.350694,0.139841,0.078660,0.000000,242.000000,226.000000,16.000000,9.000000,0.000000,0.000000:
0000
0000
0000
0000
,
0000
0000
0000
0000
,
0000
0000
0000
0000
,
0000
0000
0000
0000
0000
0010
0100
0010
,
0100
0000
0100
0000
0001
0000
0000
0100
,
0000
0100
0001
0000
0010
0000
0010
0000
,
0100
0100
1000
0010
,
2020
0000
0000
3030
,
0000
1000
0100
0000
0010
0000
0000
0000
,
1000
0100
0010
0002
,
0103
0100
0010
0010
,
0110
0000
0000
0000
,
0000
0001
0010
0000
0100
0000
0000
0000
,
0001
0010
0100
1000
,
0010
0010
0100
0100
,
0110
0000
0000
0000
0000
0000
0010
0100
,
0001
0000
1001
0000
,
0110
0000
1000
0010
,
1000
1000
0001
0001
,
1001
0000
0000
0000
,
0101
0000
1010
0000
,
0100
0000
0010
0100
,
0001
0001
1000
1000
,
2002
0000
0000
3003
,
0010
0010
0010
0000
,
1000
0100
0001
0000
,
1000
0010
0001
0010
,
1000
0001
1000
0000
,
0100
0100
0100
0000
,
0001
0100
1000
0000
,
0001
0010
1000
0010
,
0001
1000
0001
0000
,
1000
0010
1000
0100
,
1100
0000
0000
0010
,
0010
0000
0100
0000
0100
0000
0000
0001
,
0000
1000
0001
0000
0000
0000
0100
0000
,
0001
0010
0001
0100
,
0101
0000
0000
0100
,
0100
0010
0010
1000
,
0001
0000
0000
0000
,
0100
0010
1000
0000
,
0010
0100
0001
0000
,
1000
0100
0001
0100
,
1000
0000
0001
0000
,
0100
0010
1000
0000
,
0010
0100
0001
0000
,
0001
0010
1000
0010
,
0001
0001
1000
1000
,
1001
0000
0000
0000
,
0010
0000
0000
0000
,
0100
0000
1000
0000
,
0010
0000
0000
0000
,
0110
0000
0000
0000
,
0100
0000
0000
0000
,
0010
0000
0100
0000
,
0001
0000
0000
0000
,
1000
0100
0001
0000
,
1000
0100
0001
0000
,
1000
0001
1000
1000
,
0001
1000
0001
0000
,
0001
0010
1000
0000
,
0001
0010
1000
0000
,
0001
1000
0001
0001
,
1000
0001
1000
0000
,
2002
3003
0010
0000
,
0100
0000
1000
0000
,
0000
0010
0010
0100
,
0100
0000
0000
0001
0000
1000
0001
0000
,
0000
1000
0010
0100
,
0010
1000
1010
0000
,
0000
1000
1000
0001
,
0001
0000
0220
0000
,
0000
0330
0001
0010
,
0100
0000
0001
0100
,
0010
1000
0100
0010
,
0100
0010
0100
1000
,
0010
0000
1000
0100
,
0010
0000
1000
0100
,
0010
0001
0100
0010
,
0100
0000
0010
0000
0100
0100
0000
0010
,
0000
0100
0100
0000
0000
0000
0000
0000
;

//---------------dance-double - ----------------
#NOTES:
     dance-double:
     :
     Hard:
     12:
     0.591825,0.596180,0.192281,0.104880,0.043700,474.000000,452.000000,22.000000,12.000000,0.000000,0.000000,0.591825,0.596180,0.192281,0.104880,0.043700,474.000000,452.000000,22.000000,12.000000,0.000000,0.000000:
00000000
00000000
00000000
00000000
,
00000000
00000000
00000000
00000000
,
00000000
00000000
00000000
00000000
,
00000000
00000000
00000000
00000000
00000000
01000000
00100000
10000000
,
00010000
00100000
00010000
01000000
00010000
00100000
01000000
00020000
,
00000000
00031000
00000100
00000001
00000100
00000001
00000010
00000100
,
00001000
00000100
00000010
00000001
00000100
00000010
00000100
00000001
,
00001000
00000100
00010000
00001000
00100000
00001000
00010000
00000100
,
00010000
00001000
00100000
01000000
10000000
00000000
00000000
10000000
,
01000000
00100000
00001000
00010000
00000000
00000010
00000100
00000010
,
00000110
00000101
00000110
00001000
,
00000001
00000010
00000001
00000100
00000001
00001000
00000100
00010000
,
00000000
00010000
00000100
00000010
00000001
00000000
00000000
00000001
,
00000100
00000010
00010000
00001000
00000000
00100000
00010000
00100000
,
01000000
00000000
01000000
00000000
01000000
10000000
00100000
00000000
,
10100000
00000000
01000000
00000000
00010000
00000000
00100000
00100000
,
00100000
00001000
00010000
00000010
00000100
00000000
00000000
00000100
,
00000010
00010000
00001000
00010000
00000000
00001000
00010000
00001000
,
00100000
00110000
01100000
00110000
,
00010000
10000000
00100000
01000000
00100000
10000000
00100000
10000000
,
00000000
00100000
01000000
00001000
00010000
00000000
00000000
00010000
,
00001000
01000000
00100000
01000000
00000000
00100000
01000000
00001000
,
00010000
00000000
00010000
00000000
00010000
00000010
00000100
00000000
,
00000002
00000000
00000023
00000000
00000031
00000010
00000001
00000010
,
00000001
00000000
00000010
00000000
00001000
00000000
00000000
00010000
,
00100000
00000000
10000000
00010000
10000000
00000000
00000000
00100000
,
01000000
00010000
00100000
00000000
01000000
10000000
00100000
00000000
,
01000000
00010000
00100000
00000000
10010000
00000000
00000000
00000000
,
10000000
00000000
01000000
00000000
00010000
00000000
00000000
00001000
,
00000100
00000000
00000001
00001000
00000001
00000000
00000000
00000010
,
00000100
00000001
00000010
00000000
00000100
00001000
00000010
00000000
,
00000100
00000001
00000010
00000000
00001001
00000000
00000000
00000000
,
00000001
00000010
00001000
00000000
00010000
00100000
10000000
00010000
,
00000000
00000000
10010000
00000000
00000000
00000000
00100000
00000000
00000000
00000000
10000000
00000000
01000000
00000000
00000000
00100000
,
01000000
00000000
00000000
00000000
00100000
00000000
00000000
01000000
00100000
00000000
00000000
00000000
00010000
00000000
10000000
00000000
,
00000000
10000000
00010000
00000000
01000000
00100000
01000000
00100000
,
10000000
01000000
00010000
00000000
00001000
00000100
00000001
00001000
,
00000000
00000000
00001001
00000000
00000000
00000000
00000010
00000000
00000000
00000000
00000100
00000000
00000001
00000000
00000000
00001000
,
00000001
00000000
00000000
00000000
00001000
00000000
00000000
00000001
00001000
00000000
00000010
00000000
00000100
00000000
00000010
00000000
,
00001000
00001000
00000000
00000110
00000000
00000001
00000001
00000100
,
00000010
00010000
00001000
00010000
00000010
00000100
00001000
00020000
,
00000000
01030000
10000000
01000000
10000000
01000000
10000000
00100000
,
01000000
00010000
00100000
00010000
01000000
00100000
10000000
00020000
,
00000000
01030000
00100000
00010000
00001000
00000100
00000001
00001000
,
00000001
00000010
00000100
00000010
00000001
00001000
00000100
00002000
,
00000000
00003010
00000100
00001000
00010000
00001000
00010000
00001000
,
00010000
01000000
10000000
01000000
00000000
10000000
00010000
10000000
,
00100000
00100000
00100000
00100000
,
01000000
00010000
10000000
00010000
10000000
00000000
00000000
00100000
,
10000000
00010000
10000000
00010000
00000000
00000000
01000000
00000000
,
00100000
10000000
01000000
00010000
,
00001000
00000100
00000001
00000000
00000000
00000000
00000000
00000000
,
00000100
00000001
00001000
00000001
00001000
00000000
00000000
00000010
,
00001000
00000001
00001000
00000001
00000000
00000000
00000100
00000000
,
00000001
00000000
00000010
00000000
00001000
00010000
00100000
00000000
,
10100000
00000000
00000000
00000000
,
10000000
00000000
00000000
10000000
01000000
00000000
00000000
01000000
00100000
00000000
00000000
00000000
00000000
00000000
10000000
00000000
,
01000000
00000000
10000000
01000000
00100000
00000000
00000000
00010000
,
01000000
00001000
00010000
00000000
00001000
01000000
00010000
00000000
,
01000000
00001000
00010000
00000000
00011000
00000000
00010100
00000000
,
00001000
00000000
00000000
00001000
00000010
00000000
00000000
00000010
00000100
00000000
00000000
00000000
00000000
00000000
00001000
00000000
,
00000010
00000000
00001000
00000010
00000100
00000000
00000000
00000000
,
00000010
00010000
00001000
00000000
00010000
00000010
00001000
00000000
,
00000010
00010000
00001000
00000000
00022000
00000000
00030000
00000000
,
00200000
00000000
00303000
00000000
00100000
01000000
10000000
00000000
,
01000000
00100000
00001000
00010000
00000000
00010010
00000000
00000000
,
00000000
00000001
00001001
00000100
,
00000110
00000000
00010000
00001000
00000000
00001000
00010000
00000000
,
00001000
00100000
00001000
00100000
00010000
01000000
00100000
00000000
,
00010000
00001000
00000100
00000001
00000000
00001001
00000000
00000010
,
00000000
00000000
00000001
00000000
00000100
00000000
00000000
00000001
00000100
00000000
00000000
00000000
00000010
00000000
00000000
00001000
,
00000010
00000100
00000010
00000000
00010000
00010000
00000000
00011000
,
00000000
00001000
00001000
01000000
00100000
10000000
00100000
10000000
,
01000000
00010000
00001000
00000200
00000000
00000301
00001000
00000010
,
00001000
00000010
00000100
00001000
00010000
01000000
00010000
01000000
,
10000000
00010000
10000000
00020000
00000000
01030000
00001000
00010000
,
00000100
00000010
00000001
00000010
00000001
00000100
00000001
00000100
,
00001000
00010000
01000000
00200000
00000000
00310000
10000000
01000000
,
10000000
01000000
00100000
00010000
10000000
00010000
10000000
00010000
,
01000000
00100000
00010000
00001000
00000100
00000100
00000000
00001001
,
00000000
00000010
00000010
00000000
00000000
00000000
00000000
00000000
;

//---------------dance-double - ----------------
#NOTES:
     dance-double:
     :
     Medium:
     10:
     0.443245,0.490972,0.227241,0.034960,0.000000,355.000000,329.000000,26.000000,4.000000,0.000000,0.000000,0.443245,0.490972,0.227241,0.034960,0.000000,355.000000,329.000000,26.000000,4.000000,0.000000,0.000000:
00000000
00000000
00000000
00000000
,
00000000
00000000
00000000
00000000
,
00000000
00000000
00000000
00000000
,
00000000
00000000
00000000
00000000
00000000
00100000
10000000
00100000
,
01000000
00000000
00100000
00000000
00010000
00000000
00001000
00000200
,
00000000
00000301
00001000
00000000
00000010
00000000
00001010
00000000
,
00000001
00000100
00000001
00000100
00000001
00000010
00000001
00000010
,
00000001
00001000
00010000
10000000
,
00000000
00100000
01000000
00010000
10000000
00000000
00000000
00100000
,
01000000
00010000
10000000
00000000
00000000
01000000
00100000
00000000
,
00001000
00010000
00000010
00000100
,
00000001
00001000
00000001
00000000
00000100
00000000
00000100
00000000
,
00000000
00000100
00000010
00001000
00000001
00000000
00000000
00000100
,
00000010
00001000
00000001
00000000
00000000
00000010
00000100
00000000
,
00010000
00000000
00010000
00000000
00001000
00010000
00001000
00000000
,
00101000
00000000
00000000
00000000
00000000
00000000
00100000
01000000
,
10000000
00010000
00100000
01000000
10000000
00000000
00000000
00010000
,
00100000
01000000
10000000
00000000
00000000
01000000
00100000
00000000
,
00001000
00010000
00000010
00000100
,
00000001
00001000
00000001
00000000
00000000
00000000
00000000
00000000
,
00000000
00001000
00000100
00000010
00000001
00000000
00000000
00001000
,
00000100
00000010
00000001
00000000
00000000
00000100
00000010
00000000
,
00010000
00000000
00010000
00000000
00001000
01000000
00001000
00000000
,
01001000
00000000
00000000
00000000
00000000
00100000
10000000
00100000
,
10000000
00000000
01000000
00000000
00010000
00000000
00000000
00001000
,
00000010
00000000
00000001
00001000
00000001
00000000
00000000
00000000
,
00000100
00000101
00000010
00001010
,
00000100
00000101
00001001
00000000
,
00000001
00000000
00000100
00000000
00001000
00000000
00000000
00010000
,
01000000
00000000
10000000
00010000
10000000
00000000
00000000
00000000
,
00100000
10100000
01000000
01010000
,
00100000
10100000
10010000
00000000
,
10000000
01000000
00010000
00000000
00001000
00000100
00000001
00001000
,
00000000
00001000
00000000
00000000
00000000
00000000
00000001
00000000
,
00001001
00000000
00001000
00000000
00001001
00000000
00000000
00000010
,
00000000
00000100
00000010
00000000
00000000
00000000
00000000
00000000
,
00000001
00000100
00001000
00000000
00010000
01000000
10000000
00010000
,
00000000
00010000
00000000
00000000
00000000
00000000
01000000
00000000
,
01100000
10000000
10010000
00000000
,
10000000
01000000
00000000
00100000
00000000
01000000
10000000
01000000
,
10000000
00010000
00010000
01000000
,
00100000
00000000
00010000
00000000
00001000
00000000
00000100
00000001
,
00000100
00000000
00000001
00000000
00000100
00000000
00000001
00002000
,
00000000
00003010
00000100
00000000
00000010
00001000
00000001
00001000
,
00000001
00000100
00000010
00001000
,
00000010
00000100
00001000
00010000
,
01000000
10000000
01000000
10000000
00000000
10000000
01000000
10000000
,
00010000
00010000
10000000
10000000
,
00000000
00100000
10000000
00100000
10000000
00000000
00000000
00010000
,
01000000
00010000
01000000
00010000
00000000
00000000
00000000
00000000
,
10000000
01000000
00010000
00001000
,
00000010
00000001
00000000
00000000
00000000
00000000
00000000
00000000
,
00000000
00001000
00000010
00001000
00000010
00000000
00000000
00000100
,
00000001
00000100
00000001
00000100
00000000
00000000
00000000
00000000
,
00000001
00000100
00001000
00010000
,
01000000
00000000
00000000
00000000
,
10000000
00000000
00100000
00000000
00010000
00000000
00000000
00001000
,
00000010
00000000
00000001
00001000
00000001
00000000
00000000
00000000
,
00000001
00000101
00001000
00001100
,
00000001
00000011
00001001
00000000
,
00000001
00000000
00000100
00000000
00001000
00000000
00000000
00010000
,
01000000
00000000
10000000
00010000
10000000
00000000
00000000
00000000
,
10000000
10100000
00010000
00110000
,
10000000
11000000
10010000
00000000
,
02200000
00000000
03300000
00000000
00001000
00010000
00001000
00000000
,
00010000
00001000
00010000
00000010
00000000
00000100
00000000
00000000
,
00000000
00000010
00000010
00000100
,
00000100
00000000
00000001
00001000
00000000
00001000
00000010
00000000
,
00000000
00000100
00001000
00010000
,
01000000
00000000
10000000
00010000
00000000
10010000
00000000
00000000
,
00000000
10000000
10000000
00010000
,
00010000
01000000
00100000
01000000
00000000
00000000
00000000
00000000
,
00000000
00100000
10000000
00100000
10000000
00000000
01000000
00000000
,
00010000
00001000
00000010
00000010
,
00000001
00000000
00000001
00000000
00001000
00000001
00001000
00000001
,
00001000
00000000
00000000
00000010
00000100
00000000
00000010
00000000
,
00000100
00000000
00001000
00000000
00010000
01000000
00010000
00000000
,
01000000
10000000
00100000
00010000
,
00001000
00000010
00000001
00000001
,
00001000
00000000
00001000
00000000
00000010
00000010
00000000
00001001
,
00000000
00000010
00000010
00000000
00000000
00000000
00000000
00000000
;

//---------------dance-double - ----------------
#NOTES:
     dance-double:
     :
     Easy:
     6:
     0.308398,0.350694,0.131101,0.034960,0.000000,247.000000,232.000000,15.000000,4.000000,0.000000,0.000000,0.308398,0.350694,0.131101,0.034960,0.000000,247.000000,232.000000,15.000000,4.000000,0.000000,0.000000:
00000000
00000000
00000000
00000000
,
00000000
00000000
00000000
00000000
,
00000000
00000000
00000000
00000000
,
00000000
00000000
00000000
00100000
,
01000000
00000000
00010000
00000000
,
00100000
00100000
00001000
00001000
,
00010000
00000100
00010000
00000010
,
00000100
00000100
00000100
00000100
,
00000000
00000001
00000010
00000000
,
00000001
00000100
00000000
00000001
,
00000100
00001000
00001000
00010000
,
00010000
01000000
10000000
01000000
,
00000000
10000000
00100000
00000000
,
10000000
01000000
10000000
00100000
,
00010000
00010000
00001000
00001000
,
00000010
00000001
00001000
00000000
,
00000000
00000001
00001000
00000000
,
00000001
00000100
00000010
00000100
,
00001000
00001000
00010000
00010000
,
01000000
10000000
01000000
10000000
,
10010000
00000000
01001000
00000000
,
00011000
00000000
00010010
00000000
,
00000010
00000010
00000100
00000100
,
00000010
00000000
00000000
00000000
,
00000001
00000100
00001000
00000000
,
00010000
01000000
10000000
00000000
,
00100000
01000000
00100000
00100000
,
01000000
00100000
01000000
00000000
,
10000000
01000000
00010000
00000000
,
00001000
00000100
00000001
00000000
,
00000100
00000010
00000100
00000100
,
00000010
00000100
00000010
00000000
,
00000100
00000010
00010000
00001000
,
01000000
00000000
00000000
00100000
,
01100000
00100000
01100000
00000000
,
00100000
10000000
00000000
00010000
,
01000000
00001000
00010000
00000010
,
00000100
00000000
00000000
00000001
,
00001001
00000001
00001001
00000000
,
00000000
00000000
00000000
00000010
,
00000100
00000010
00000001
00000000
,
00001000
00000100
00010000
00001000
,
01000000
01000000
00100000
00100000
,
10000000
00010000
10000000
00000000
,
00100000
01000000
00001000
00010000
,
00000010
00000010
00000100
00000100
,
00000000
00001001
00000000
00000110
,
00000000
00000010
00000010
00000010
,
00000000
00001000
00000100
00000000
,
00010000
00001000
00000000
00000000
,
01000000
01000000
00100000
00100000
,
01100000
00000000
00000000
00000000
,
00000000
01000000
00010000
00000000
,
00100000
00001000
00000000
00000000
,
00010000
00010000
00001000
00001000
,
00011000
00000000
00000000
00000000
,
00000010
00000100
00000010
00000000
,
00000100
00000010
00000100
00000000
,
00000001
00000100
00001000
00001000
,
00010000
01000000
10000000
00000000
,
01000000
00100000
01000000
00000000
,
00100000
01000000
00100000
00000000
,
10000000
00100000
00010000
00010000
,
00001000
00000010
00000001
00000000
,
00002002
00003003
00000010
00000000
,
00000000
00000000
00000000
00000000
,
00000000
00100000
00100000
01000000
,
01000000
00000000
10000000
00010000
,
00000000
10000000
01000000
00100000
,
00001000
00010000
00000010
00000100
,
00000000
00000001
00000001
00001000
,
00001000
00001001
00000000
00000000
,
00000000
00000000
00000100
00000010
,
00010000
00010000
00001000
00001000
,
01000000
00100000
10000000
10000000
,
00010000
00010000
01000000
00100000
,
01000000
00010000
00100000
00001000
,
00010000
00010000
00001000
00001000
,
00010000
00000010
00000100
00000100
,
00000001
00000001
00002002
00000000
,
00000000
00003003
00000000
00000000
;
