#TITLE:Back Spin Sweeper;
#SUBTITLE:;
#ARTIST:DJ TOTTO;
#TITLETRANSLIT:;
#SUBTITLETRANSLIT:;
#ARTISTTRANSLIT:;
#GENRE:Trance;
#CREDIT:;
#BANNER:backspinsweeper-bn.png;
#BACKGROUND:backspinsweeper-bg.png;
#LYRICSPATH:;
#CDTITLE:;
#MUSIC:Back Spin Sweeper.mp3;
#OFFSET:-0.040500;
#SAMPLESTART:73.579506;
#SAMPLELENGTH:11.999990;
#SELECTABLE:YES;
#BPMS:0.000000=155.000000
;
#STOPS:
;
#BGCHANGES:;
#KEYSOUNDS:;
#ATTACKS:;

//---------------dance-single - ----------------
#NOTES:
     dance-single:
     :
     Challenge:
     15:
     0.749246,0.846823,0.287502,0.182956,0.718754,602.000000,569.000000,33.000000,21.000000,0.000000,0.000000,0.749246,0.846823,0.287502,0.182956,0.718754,602.000000,569.000000,33.000000,21.000000,0.000000,0.000000:
0000
0000
0000
0000
,
0000
0000
0000
0000
,
0000
0000
0000
0000
,
0000
0000
0000
0000
,
0010
0100
0010
1000
0100
1000
0100
1000
,
0001
0010
0001
0100
0010
0100
0010
0100
,
1000
0100
0001
0010
0100
0010
0100
0010
,
0001
0100
1000
0001
0010
0001
0010
0100
,
1000
0100
0010
0100
0000
0000
1000
0000
0001
0000
0010
0000
0010
0000
0100
0000
,
0010
0001
0010
0000
0000
0000
0001
0000
0100
0000
0100
0000
0001
0000
0001
0000
,
0000
1000
0000
0010
0000
0000
0100
0000
1000
0000
1000
0000
0100
0000
0100
0000
,
0001
1000
0001
0000
0000
0000
0100
0000
0010
0000
0010
0000
0001
0000
0001
0000
,
0010
1000
0000
0010
0000
0000
1000
0000
0100
0000
0001
0000
0100
0000
1000
0000
,
0001
0100
0010
0100
0001
0000
1000
0000
0001
0000
0010
0000
0001
0000
0010
0100
,
0010
0001
0000
0010
0000
0000
0100
0000
0010
0000
0001
0000
1000
0000
0100
0000
,
0010
0100
0010
0001
1000
0100
1000
0100
0020
0000
0000
0000
1000
0000
1030
0000
,
0011
0000
0000
0000
1100
0000
0000
0000
0001
0000
0001
1000
0010
0100
0001
0000
,
0100
0010
0100
0010
1000
0000
0001
0000
0010
0000
0100
0000
1100
0000
0000
0000
,
1000
0100
1000
0000
0001
0000
0100
0010
0100
0000
0010
1000
0001
0100
0001
0000
,
0010
0001
0010
0001
0000
0000
0010
0000
0100
1000
0100
0010
0001
0000
0001
0000
,
2000
0000
0000
0000
0010
0000
0010
0000
3010
0100
0001
0000
0100
0001
1000
0010
,
1000
0000
0100
0000
0010
0000
0010
0100
1000
0000
1000
0010
0200
0000
0000
0000
,
0302
0000
0000
0000
0103
0000
0001
1000
0010
0000
0100
0000
0010
0000
1000
0000
,
0100
0000
0010
0000
0001
1000
0001
0000
0100
0000
0002
0000
1000
0000
0103
0000
,
0011
0000
0000
0000
1100
0000
0000
0000
0010
1000
0001
0000
1000
0000
0001
0000
,
1000
0100
1000
0100
1000
0000
0010
0000
1000
0001
0100
0010
1000
0000
0000
0000
,
0001
0000
0000
0000
0100
0001
0100
0000
0010
1000
0010
0000
1000
0000
0001
0000
,
1000
0100
0010
0001
1000
0000
0000
0000
1001
0000
0001
0010
0100
0000
1001
0000
,
1001
0010
0100
0010
0001
1000
0100
0010
,
0110
0000
1000
0000
0001
0000
0100
0000
0010
0100
0010
0000
1000
0000
0001
0000
,
0010
0100
1000
0001
0010
0000
0000
0000
0010
0001
1000
0100
0010
0000
0000
0000
,
0120
1000
0000
1000
0000
0001
0000
0031
,
0110
0000
0000
0000
0010
0100
1000
0000
0000
0000
0000
0000
0000
0000
0000
0000
,
0001
0010
0100
0000
0000
0000
0020
0000
0000
0000
0000
0000
0032
0000
0000
0000
,
2003
0000
0000
3020
0000
0000
0030
0000
,
0000
0000
0000
0220
0000
0330
0001
0000
,
1000
0000
0000
0000
0100
0010
0001
0000
0000
0000
0000
0000
0000
0000
0000
0000
,
1000
0001
0100
0000
0000
0000
0200
0000
0000
0000
0000
0000
0302
0000
0000
0000
,
2003
0000
3000
0200
0000
0000
0300
0000
,
0000
0000
0000
0110
0000
0000
1001
0000
,
2000
0000
0000
0000
3001
0100
1000
0000
0100
0000
1000
0000
0100
0000
1000
0000
,
0100
0000
1000
0000
0100
0000
1000
0100
0001
0000
0000
0000
0011
0000
0000
0000
,
0110
1000
0010
1000
0010
1000
0010
1000
,
0010
0000
1000
0000
0010
0000
1000
0010
0001
0000
0000
1100
0000
0000
0110
0000
,
0011
0100
0010
0100
0010
0100
1100
0000
,
0101
0000
0010
0000
0001
0000
0010
0000
0001
0000
0010
0000
1000
0010
1000
0010
,
2000
0000
0000
3200
0000
0000
0000
0000
,
0310
0000
0001
0000
0010
0000
0100
0000
1000
0100
0010
0001
0100
0010
1000
0001
,
0100
0010
0000
0100
0000
0010
1000
0000
1000
0000
0100
0010
0100
1000
0001
0100
,
0000
0000
0010
0000
1000
0100
0000
1000
0000
0000
0001
0000
0010
0100
0010
0001
,
1000
0010
0000
0100
0000
0001
0100
0000
0010
0000
1000
0000
0100
0010
0001
0010
,
0001
0000
0100
0000
0010
0100
0000
1000
0000
0001
0000
0000
1000
0010
1000
0010
,
0100
0001
0000
0100
0000
0010
1000
0000
0001
0000
0100
0000
0010
1000
0010
0100
,
0010
0000
0100
0000
0001
1000
0000
0001
0000
0000
0010
0100
1000
0100
0010
0001
,
0000
1000
0000
0010
0000
0100
0010
0100
0000
0001
0000
1000
0001
1000
0001
1000
,
0001
0100
0010
1000
0001
0000
1000
0000
0100
1000
0010
0000
0100
0000
0001
1000
,
0010
0100
0000
0010
0000
1000
0100
0000
0010
0000
0001
0000
0100
0001
0100
0010
,
0100
0000
0010
0000
0100
0001
0000
1000
0000
0000
0001
0000
1000
0100
0010
0001
,
0100
0010
0000
1000
0000
0010
0000
0100
0010
0000
1000
0000
0010
0100
0001
0100
,
0010
0020
1000
0000
0100
0000
0031
0000
,
1000
0001
0000
0100
0000
0001
1000
0000
0010
1000
0001
0100
0001
1000
0010
0000
,
0100
0000
0000
0110
0000
0000
0110
0000
0100
0001
1000
0010
1000
0001
0100
0000
,
0101
0000
1010
0000
,
1001
0000
0010
0100
0010
0000
1001
0000
0100
0010
0100
0000
1001
0000
0010
0100
,
0010
0000
1000
0010
0000
1000
0010
0000
0100
0001
0000
0100
0001
0000
0010
0000
,
0100
1000
0000
0100
1000
0000
0010
0000
1000
0100
0010
0001
0010
0100
1000
0000
,
0010
0000
1000
0100
0000
1000
0100
0000
0010
0001
0000
0010
0001
0000
0100
0000
,
0001
0010
0100
1000
0010
0000
0000
0000
1000
0100
0010
0001
0100
0000
0010
0000
,
0100
0000
0001
1000
0000
0001
1000
0000
0010
1000
0000
0010
1000
0000
0100
0000
,
0011
0000
0011
0000
0000
1100
0000
0000
1100
0000
0000
0000
0110
0000
0000
0000
,
0001
0100
0010
1000
0010
0100
0001
0100
0010
1000
0010
0100
0001
0100
0010
1000
,
0020
0000
0000
0000
,
0030
0000
0000
0000
;

//---------------dance-single - ----------------
#NOTES:
     dance-single:
     :
     Hard:
     11:
     0.461745,0.525779,0.252653,0.418184,0.056629,371.000000,342.000000,29.000000,48.000000,0.000000,0.000000,0.461745,0.525779,0.252653,0.418184,0.056629,371.000000,342.000000,29.000000,48.000000,0.000000,0.000000:
0000
0000
0000
0000
,
0000
0000
0000
0000
,
0000
0000
0000
0000
,
0000
0000
0000
0000
,
0100
0001
0100
0010
1000
0010
1000
0010
,
1000
0100
1000
0001
0010
0001
0010
0001
,
1000
0100
0001
0000
0000
0001
0100
1000
,
0001
0010
1000
0010
0000
0000
0001
0100
,
0001
0000
0000
0100
0000
0000
0001
0000
0001
0000
0100
0000
0000
0000
0010
0000
,
1000
0100
0010
0001
1000
0000
0001
0000
,
2000
0000
3000
0010
1000
0001
0100
0001
,
0010
0100
0010
0001
1000
0001
1000
0001
,
1000
0000
0000
0100
0000
0000
1000
0000
1000
0000
0100
0000
0000
0000
0010
0000
,
0001
0000
1000
0000
0010
0100
0010
1000
,
0100
0000
0010
0000
0001
1000
0010
0100
,
0020
0000
1030
0100
,
1100
0000
0011
0000
1000
0100
0001
0000
,
1100
0000
0011
0000
0001
1000
0001
0000
,
0101
0000
1010
0000
0001
0010
1000
0000
,
0101
0000
1010
0000
0001
1000
0001
1000
,
0020
0000
1030
1000
0100
0010
0002
0000
,
0203
0000
0310
0010
0100
0001
2000
0000
,
3010
1000
0010
1000
0100
0010
0002
0000
,
1003
0000
0001
0001
0100
0000
0120
0000
,
2030
3100
0200
0301
,
0100
1000
0001
0000
1000
0100
0001
0000
,
2000
3010
0020
0031
,
0010
1000
0001
0000
0010
0010
0001
1000
,
0002
0103
0200
1300
,
1000
0100
0001
0000
0001
1000
1001
0000
,
1000
0100
0001
0000
1000
0010
0001
0000
,
2002
0000
0000
3003
,
0110
0000
0010
0100
0000
0000
0000
0000
,
1000
0001
0000
0002
0000
0000
2003
0000
,
3020
0000
0000
0230
0000
0000
0300
0000
,
0000
0000
0000
0200
0000
0000
0302
0000
,
2003
0000
3010
1000
0000
0000
0000
0000
,
1000
0100
0000
2200
0000
3300
0110
0000
,
0022
0000
0033
2002
0000
0000
0000
0000
,
0000
0000
3003
0020
0000
0000
0130
0000
,
0102
1000
0100
1000
,
0100
1003
0110
1001
,
2010
0001
0010
0001
,
0010
0000
0000
0000
3001
0000
0000
0000
1000
0000
0000
0100
0000
0000
0010
0000
,
0002
0100
0013
0101
,
0210
0001
0010
1300
,
2002
0000
0000
0000
,
0000
3003
0000
0000
,
0001
0000
0000
0010
0000
0000
0001
0000
0100
0000
0001
0000
0010
0000
0001
0000
,
1000
0100
0010
0000
0100
1000
0010
0000
,
0100
0001
0100
0010
0100
1000
0100
0000
,
0001
1000
0001
0000
0001
1000
0100
0100
,
1000
0000
0000
0100
0000
0000
1000
0000
0010
0000
1000
0000
0100
0000
1000
0000
,
0001
0100
0010
0000
0100
0001
1000
0000
,
0010
1000
0010
0100
0010
0001
0010
0000
,
2002
0000
0000
0000
3003
2002
0000
3003
,
1001
0000
0000
1000
0000
0000
0010
0000
0100
0000
0001
0000
0100
0000
0010
0000
,
1000
0000
0001
0000
0100
0010
1000
0000
,
0001
0100
1000
0100
0001
1000
0001
0000
,
0100
0200
0000
0000
0000
0000
0310
0000
,
1000
0000
0000
0001
0000
0000
0100
0000
0010
0000
1000
0000
0001
0100
0000
0000
,
0100
0000
0000
0100
0000
0000
0100
0000
0020
0000
0000
0000
0000
0000
0000
0000
,
1030
0200
0000
0300
0001
0200
0000
0300
,
1000
0000
0000
1000
0001
0000
1000
0000
0000
1000
0001
0000
1000
0000
0000
1000
,
0001
0100
0010
0100
0001
0100
1000
0000
,
0001
0010
0100
0010
0001
0010
0001
0000
,
1000
0100
0010
0100
0001
0100
1000
0000
,
0001
0020
0100
0030
1000
0020
0100
0030
,
0001
1000
0100
1000
0001
1000
0100
1000
,
0010
0000
0010
0000
0000
0010
0000
0000
0010
0000
0000
0000
1100
0000
0000
0000
,
0022
0000
0000
0033
,
0110
0000
0000
0000
;

//---------------dance-double - ----------------
#NOTES:
     dance-double:
     :
     Challenge:
     15:
     0.714398,0.843882,0.287502,0.209092,0.692617,574.000000,541.000000,33.000000,24.000000,0.000000,0.000000,0.714398,0.843882,0.287502,0.209092,0.692617,574.000000,541.000000,33.000000,24.000000,0.000000,0.000000:
00000000
00000000
00000000
00000000
,
00000000
00000000
00000000
00000000
,
00000000
00000000
00000000
00000000
,
00000000
00000000
00000000
00000000
,
00000010
00000100
00000010
00000100
00001000
00000100
00001000
00000100
,
00001000
00010000
00001000
00010000
01000000
00010000
01000000
00010000
,
01000000
10000000
01000000
10000000
01000000
00000000
00000000
00000000
00000000
00000000
00000000
10000000
00100000
00000000
01000000
00000000
,
00100000
00010000
00100000
00010000
00100000
00010000
00001000
00000000
00000000
00000000
00000000
00000000
00000100
00000001
00000100
00000001
,
00000100
00000000
00000001
00001000
00000000
00000000
00000010
00000000
00001000
00000000
00000000
00010000
00000000
00000000
01000000
00000000
,
10000000
00000000
00100000
00000000
10100000
00000000
01000000
00000000
00010000
10000000
00010000
10000000
00010000
00000000
00000000
00000000
,
01000000
00001000
00000000
00010000
00000000
00000000
00001000
00000000
00000100
00000000
00000001
00000000
00000100
00001000
00000100
00001000
,
00010000
00000010
00000000
00000100
00000001
00000001
00001000
00001000
,
00000010
00010000
00000000
00001000
00000000
00000000
00010000
00000000
00100000
00000000
10000000
00000000
01000000
00000000
00100000
00000000
,
01000000
10000000
01000000
10000000
00100000
00000000
00010000
00000000
00001000
00000000
00001000
00000000
00000100
00000000
00000100
00000000
,
00000001
00000010
00000000
00001000
00000000
00000000
00010000
00000000
00100000
00000000
00100000
00000000
10000000
00000000
10000000
00000000
,
00010000
00100000
00010000
01000000
00010000
00000000
10000000
01000000
20000000
00000000
00000000
00000000
30020000
00000000
00000000
00000000
,
00031000
00000000
00000000
00000000
00000100
00000000
00000000
00000000
00000010
00000000
00000100
00000010
00000100
00000000
00000000
00000001
,
00001000
00000000
00000010
00010000
00000010
00000000
00000100
00000000
00001000
00000000
00010000
00000000
00011000
00000000
00000000
00000000
,
00100000
00000000
01000000
10000000
00010000
00000000
01000000
00010000
10000000
00000000
00100000
00010000
00100000
00000000
00000000
00000000
,
00010000
00001000
00010000
00001000
00010000
00000000
00000010
00000000
00000100
00000001
00001000
00000010
00000100
00000000
00000100
00000000
,
00000002
00000000
00000000
00000000
00001003
00000000
00000100
00000000
00000010
00000000
00000000
00000000
00001000
00010000
00001000
00010000
,
00001000
00000000
01000000
00000000
00100000
00000000
10000000
00010000
10000000
00000000
00000000
00000000
01100000
00000000
00000000
00000000
,
20000000
00000000
00000000
00000000
30010000
00000000
00010000
00100000
00010000
00000000
00000000
00000000
01000000
00000000
00100000
00000000
,
00010000
00000000
00001000
00000000
00000100
00000010
00000100
00000000
00000001
00000000
00001000
00000000
00001002
00000000
00000000
00000000
,
00000203
00000000
00002300
00000000
00023000
00000000
01030000
10000000
,
00100000
10000000
00010000
00000000
01000000
00000000
00010000
00000000
10000000
01000000
00100000
00010000
10000000
00000000
00000000
00000000
,
10010000
00000000
00000000
00000000
01000000
00000000
00001000
00010000
00001000
00000000
00010000
00000000
00000010
00000000
00000100
00000000
,
00000001
00000100
00000010
00001000
00000001
00000000
00000000
00000000
00001001
00000000
00000001
00000100
00000010
00001000
00000001
00000000
,
00001001
00000000
00000000
00000000
00000010
00000000
00000100
00000000
00001000
00000000
00000000
00000000
00010000
00000000
01000000
10000000
,
01000000
00000000
00000000
00000000
10000000
00100000
10000000
00000000
00010000
01000000
00010000
00000000
01000000
00000000
00100000
00000000
,
01000000
00100000
10000000
00010000
01000000
00000000
00000000
00000000
01000000
00100000
10000000
00010000
01000000
00000000
00000000
00000000
,
00120000
00000000
00000000
00030020
00000000
00000000
00000030
00000000
,
00001001
00000000
00000000
00000000
00000001
00000100
00001000
00000000
00000000
00000000
00000000
00000000
00000000
00000000
00000000
00000000
,
00010000
10000000
00010000
00000000
00000000
00000000
20000000
00000000
00000000
00000000
00000000
00000000
32000000
00000000
00000000
00000000
,
00020000
03000000
00000000
00032000
00000000
00000000
00003000
00000000
,
00000000
00000000
00000000
00000002
00000000
00000000
00000023
00000000
,
00002000
00000000
00000030
00000000
00013000
00001000
00010000
00000000
00000000
00000000
00000000
00000000
00000000
00000000
00000000
00000000
,
00100000
10000000
00100000
00000000
00000000
00000000
02000000
00000000
00000000
00000000
00000000
00000000
03200000
00000000
00000000
00000000
,
00020000
00000000
00300000
00002000
00030000
00000000
00000000
00000000
,
00003000
00000000
00000000
00000011
00000000
00000000
00001100
00000000
,
00001001
00000000
00000000
00000000
00000010
00000100
00000001
00000000
00000100
00000000
00000001
00000000
00000100
00000000
00000001
00000000
,
00000100
00000001
00000100
00000001
00000101
00000000
00001100
00000000
,
00011000
00010000
01000000
00010000
01000000
00010000
01000000
00010000
,
01000000
00000000
00010000
00000000
01000000
00000000
00010000
00000000
01010000
00000000
00000000
11000000
00000000
00000000
01010000
00000000
,
11000000
10000000
00100000
10000000
00100000
10000000
10100000
00000000
,
00110000
00000000
00010000
00000000
00001000
00000000
00010000
00000000
00001000
00000000
00010000
00000000
00001000
00000010
00001000
00000010
,
00002000
00000000
00000000
00003020
00000000
00000000
00000000
00000000
,
00000031
00000010
00000001
00000010
00000001
00000010
00000001
00000000
00001001
00000000
00000000
00000000
00000000
00000000
00000000
00000000
,
00001000
00010000
00000000
00001000
00000000
00000000
00010000
00000000
00100000
00000000
10000000
00000000
01000000
00100000
01000000
10000000
,
00000000
00000000
00010000
00000000
00100000
01000000
10000000
01000000
00100000
00000000
00010000
00000000
00001000
00000100
00000001
00001000
,
00000001
00000010
00000000
00000100
00000000
00010000
00000000
00000000
00000010
00000000
00010000
00000000
00001000
00100000
01000000
00100000
,
00010000
00000000
10000000
00000000
00100000
01000000
00000000
00001000
00000000
00010000
00000000
00000000
00000010
00000100
00000010
00001000
,
00000001
00000100
00000000
00000010
00000000
00000000
00001000
00000000
00010000
00000000
00100000
00000000
10000000
00010000
01000000
00010000
,
00100000
00000000
01000000
00000000
00010000
00001000
00000000
00000010
00000000
00000000
00000001
00000000
00000100
00000001
00000010
00000001
,
00001000
00000010
00000000
00000100
00000000
00000010
00000000
00000000
00000000
00000100
00000000
00001000
00010000
00000000
01000000
00000000
,
10000000
01000000
00100000
00001000
00010000
00000100
00000010
00000001
00000100
00000000
00001010
00000000
00000010
00010000
00001000
01000000
,
00100000
10000000
00000000
00010000
00000000
00000000
01000000
00000000
00010000
00000000
00100000
00000000
01000000
10000000
00000000
00010000
,
00000000
00000000
00100000
00000000
00010000
00000000
00001000
00000010
00000000
00000010
00000001
00000000
00000100
00000010
00000100
00000001
,
00000010
00000100
00000000
00001000
00000000
00000010
00000000
00000000
00000100
00000000
00001000
00000000
00010000
01000000
10000000
01000000
,
10000000
10010000
00000000
00000000
00000000
00000000
00001001
00000000
,
00000001
00000010
00000000
00000001
00000000
00000100
00001000
00000000
00010000
01000000
00010000
01000000
00010000
00000000
00000000
00000000
,
10000000
00000000
00000000
10100000
00000000
00000000
01001000
00000000
00001000
00010000
00001000
00010000
00001000
00000000
00000000
00000000
,
00010000
00000000
00000010
00010000
00000010
00010000
00000010
00000000
00010000
00000000
00001000
01000000
00001000
01000000
00001000
00000000
,
00011000
00000000
00000000
00000010
00000100
00000000
00000101
00000000
00000000
00000010
00001000
00000000
00000100
00010000
00001000
01000000
,
00100000
00000000
10000000
00000000
00100000
00000000
10000000
00000000
01000000
00100000
00000000
00100000
00001000
00100000
00001000
00000000
,
00010000
00000000
00000010
00010000
00000000
00000000
00000010
00000000
00000100
00000001
00001000
00000010
00000100
00000000
00000000
00000000
,
00000001
00000000
00000010
00000001
00000000
00000000
00000010
00000000
00000100
00010000
00000000
00010000
00001000
00010000
00001000
00000000
,
01000000
00100000
10000000
00010000
01000000
00000000
00000000
00000000
00001000
00010000
00000010
00000100
00000010
00000000
00000000
00000000
,
00000100
00000000
00000001
00000100
00000000
00000000
00000001
00000000
00000100
00000010
00000000
00000010
00010000
00000010
00010000
00000000
,
00011000
00000000
01001000
00000000
00000000
01100000
00000000
00000000
10010000
00000000
00000000
00000000
10000000
00000000
01000000
00000000
,
10000000
00100000
01000000
00001000
00010000
00000010
00000100
00000001
00000010
00000100
00010000
00001000
01000000
00100000
10000000
00010000
,
02000000
00000000
00000000
03000000
;

//---------------dance-single - ----------------
#NOTES:
     dance-single:
     :
     Beginner:
     3:
     0.180466,0.309282,0.243941,0.069697,0.000000,145.000000,117.000000,28.000000,8.000000,0.000000,0.000000,0.180466,0.309282,0.243941,0.069697,0.000000,145.000000,117.000000,28.000000,8.000000,0.000000,0.000000:
0000
0000
0000
0000
,
0000
0000
0000
0000
,
0000
0000
0000
0000
,
0000
0000
0000
0000
,
0020
0000
0030
0000
,
0200
0000
0300
0000
,
1001
0000
0000
0000
,
0110
0000
0000
0000
,
0001
0000
1000
0000
,
0001
0000
0001
0000
,
0100
0000
0010
0000
,
0100
0000
0100
0000
,
0010
0000
1000
0000
,
0010
0000
0010
0000
,
1000
0000
0001
0000
,
1001
0000
0000
0000
,
1000
1000
1000
0000
,
1000
1000
1000
0000
,
0001
0001
0001
0000
,
0001
0001
0001
0000
,
0100
0000
0100
0000
,
0010
0000
0010
0000
,
0100
0100
0100
0000
,
0100
0100
0100
0000
,
0000
1000
0000
0010
,
0000
1000
0000
0000
,
0000
0001
0000
0100
,
0000
0000
1001
0000
,
1001
0000
0000
0010
,
0000
0100
0000
0010
,
0000
0110
0000
0110
,
0110
0000
0000
0000
,
1000
1000
0000
0000
,
0000
0000
0000
0001
,
0001
0000
0000
0000
,
0000
0000
0000
0100
,
0100
0000
0000
0000
,
0000
0000
0000
0010
,
0010
0000
0000
0000
,
0000
0000
0000
0000
,
1001
0000
0000
0000
,
0000
0000
0110
0110
,
0110
0000
0000
0000
,
0000
0000
1001
0000
,
1001
0000
0000
0110
,
0110
0000
0000
1001
,
1001
0000
0000
0000
,
0000
0000
0220
0330
,
0110
0000
1000
1000
,
1000
0000
0100
0100
,
0100
0000
0000
0010
,
0010
0000
0000
0001
,
0001
0000
1000
1000
,
1000
0000
0000
0010
,
0010
0000
0100
0000
,
0110
0000
0000
0000
,
0001
0000
0010
0010
,
0010
0000
0000
0100
,
0100
0000
1000
1000
,
1000
0000
0000
0010
,
0010
0000
0000
0000
,
0220
0000
0330
0000
,
0110
0000
0110
0000
,
0020
0000
0000
0030
,
0010
0000
0000
0000
,
1000
0000
0100
0000
,
0001
0000
0000
0000
,
0000
0110
0000
0110
,
0110
0000
0000
0000
,
0010
0000
0010
0000
,
0020
0000
0030
0000
,
0110
0000
0000
0000
;

//---------------dance-single - ----------------
#NOTES:
     dance-single:
     :
     Easy:
     5:
     0.266343,0.371138,0.130683,0.357199,0.000000,214.000000,199.000000,15.000000,41.000000,0.000000,0.000000,0.266343,0.371138,0.130683,0.357199,0.000000,214.000000,199.000000,15.000000,41.000000,0.000000,0.000000:
0000
0000
0000
0000
,
0000
0000
0000
0000
,
0000
0000
0000
0000
,
0000
0000
0000
0000
,
2000
0000
0000
0020
0000
0000
3000
0000
,
0200
0000
0030
0002
0000
0000
0000
0303
,
0001
0010
0100
0000
0000
0000
0000
0010
,
0100
1000
0000
0000
0000
0000
0000
0000
,
2002
3003
0010
0100
,
1000
0000
0001
0001
,
0001
0000
1000
0100
,
0010
0000
1000
1000
,
1000
0010
0001
1000
,
0001
0100
0010
0100
,
0100
0001
1000
0010
,
2020
0000
0000
3030
,
1000
1000
1000
0101
,
1000
1000
1000
1001
,
0001
0001
0001
1010
,
0001
0001
0002
2003
,
3010
0010
0010
0101
,
0010
0010
0010
0020
,
0130
0100
0100
0100
,
0001
0010
0100
2000
,
3010
1000
0000
1000
,
0100
0010
0200
0310
,
0001
0100
0000
0100
,
0002
0000
0003
0000
1000
0002
0000
1003
,
0001
0010
0000
0100
,
0010
0010
0000
0001
,
2000
3100
2000
3100
,
0110
0000
0000
0000
,
0001
1000
0000
0000
,
0000
0000
0000
0020
0000
0000
0230
0000
,
0302
0000
0000
2003
0000
0000
3000
0000
,
0000
0000
0000
2000
0000
0000
3002
0000
,
0203
0310
0000
0000
,
0000
0000
0000
0002
0000
0000
0023
0000
,
0230
0000
0000
2300
0000
0000
3000
0000
,
0000
0000
0000
2000
0000
0000
3001
0000
,
1001
0000
0000
0000
,
0000
0000
0010
0010
,
0010
0000
0000
0000
,
0000
0000
0200
0300
,
0110
0000
0000
0001
,
1001
0000
0000
1000
,
1100
0000
0000
0000
,
0000
0000
0020
0000
,
0031
1000
0010
0010
,
1000
0100
0010
0001
,
1000
0001
0100
0100
,
0010
1000
0010
1000
,
0001
0100
0010
0010
,
1000
0001
0100
0010
,
1000
0100
0010
0010
,
0002
0000
0000
0000
0000
2000
0000
3003
,
0010
1000
0100
0010
,
0100
1000
0010
0100
,
0001
0010
0001
0010
,
0011
0000
0000
1100
,
1000
0001
0020
0000
,
0031
0000
2000
0000
,
3010
0200
0310
0200
,
0310
0000
0000
0110
0000
0000
0100
0000
,
0001
0010
0001
0010
,
0001
0010
0200
0000
,
1300
0010
1000
0010
,
2000
3001
2000
3001
,
1001
1000
0100
0010
,
0001
0000
1000
0001
,
0200
0000
0000
0000
,
0310
0000
0000
0000
;

//---------------dance-single - ----------------
#NOTES:
     dance-single:
     :
     Medium:
     9:
     0.365911,0.402067,0.252653,0.400760,0.013068,294.000000,265.000000,29.000000,46.000000,0.000000,0.000000,0.365911,0.402067,0.252653,0.400760,0.013068,294.000000,265.000000,29.000000,46.000000,0.000000,0.000000:
0000
0000
0000
0000
,
0000
0000
0000
0000
,
0000
0000
0000
0000
,
0000
0000
0000
0000
,
2000
0000
0000
0002
0000
0000
0000
3000
,
0200
0000
0003
0020
0000
0000
0300
0031
,
0010
1000
0000
0000
0000
0000
0000
1000
,
0100
0001
0100
0000
0000
0000
1000
0001
,
1000
0000
0000
0000
0010
0100
1000
0001
,
0000
0000
0100
0100
,
0001
0010
0000
0000
0010
0001
1000
0100
,
0000
0000
0000
0010
0100
0010
0100
0010
,
0000
0000
0000
0000
0001
1000
0100
0010
,
0000
0000
0000
0000
0100
1000
0010
0100
,
0000
0000
0000
0000
0001
1000
0001
1000
,
1001
0000
0010
0010
,
1000
1000
1000
0101
,
1000
1000
1000
0011
,
0001
0001
0001
1100
,
0001
0000
0001
0000
0001
0100
0010
1000
,
0010
0010
0010
1100
,
0010
0010
0010
0102
,
0103
0100
0100
0100
,
0010
1000
0001
0000
2000
0000
3200
0000
,
0310
0000
1100
0000
0010
0100
1000
0000
,
0010
0101
0020
0030
,
1000
0000
0101
0000
1000
0100
0010
0000
,
0002
0000
0003
0001
2000
0000
3000
0010
,
0010
0000
1001
0000
0100
0010
0001
0000
,
0100
0000
1001
0000
0010
0100
1000
0000
,
0020
1030
0020
0031
,
0020
1000
0000
1000
0000
0001
0000
0001
,
0130
0110
0000
0000
,
1000
0000
0000
0020
0000
0000
0230
0000
,
0002
0300
0000
2003
0000
0000
3000
0000
,
0000
0000
0000
0020
0000
0000
2030
0000
,
3002
0000
0103
0010
0000
0000
0000
0000
,
0000
0000
0000
2000
0000
0000
3200
0000
,
0320
0000
0000
0032
0000
0000
0003
0000
,
0000
0000
0000
1001
0000
0000
0110
0000
,
0002
0100
0100
0100
,
0100
0103
0101
1010
,
1002
1000
1000
1000
,
1000
0000
0000
0000
1003
0000
0000
0000
0010
0000
0000
0010
0000
0000
0010
0000
,
0200
0010
0310
1001
,
0120
0000
0100
0000
0100
0000
0130
0001
,
2000
0000
0000
0002
0000
0000
0000
0000
,
0000
3003
0000
0000
,
0010
0000
1000
0000
0100
0010
0001
0100
,
0010
0000
1000
0000
0001
0100
1000
0000
,
0001
0000
1000
0000
0100
0010
0100
1000
,
0001
0001
0001
0001
,
1000
0100
0010
0000
0100
1000
0100
0010
,
0100
0000
1000
0000
0001
1000
0001
0000
,
1000
0010
0100
0000
0001
0100
0010
0000
,
2002
0000
0000
0000
3003
0220
0000
0330
,
1001
0000
1000
0000
0100
0010
0001
0000
,
1000
0000
0100
0010
0001
0010
0100
0000
,
1000
0001
1000
0001
,
0100
0200
0000
0000
0000
0000
0310
0000
,
1000
0000
0001
0100
0020
0000
0000
0000
,
1030
0000
0000
1000
0000
0000
2000
0000
0000
0000
0000
0000
0000
0000
3000
0000
,
1001
0000
1100
0000
,
0021
0000
0000
0032
0000
0000
0023
0000
,
0031
0100
0001
0000
0100
1000
0100
0000
,
0001
0010
0001
0000
2002
0000
3003
0000
,
1000
0010
1000
0000
0010
0001
0010
0000
,
2000
3001
0002
1003
,
1001
0010
0100
0010
,
0001
0000
0001
0000
0000
0001
0000
0000
0001
0000
0000
0000
1000
0000
0000
0000
,
0220
0000
0000
0330
,
1001
0000
0000
0000
;

//---------------dance-double - ----------------
#NOTES:
     dance-double:
     :
     Hard:
     11:
     0.433119,0.525779,0.217804,0.270077,0.056629,348.000000,323.000000,25.000000,31.000000,0.000000,0.000000,0.433119,0.525779,0.217804,0.270077,0.056629,348.000000,323.000000,25.000000,31.000000,0.000000,0.000000:
00000000
00000000
00000000
00000000
,
00000000
00000000
00000000
00000000
,
00000000
00000000
00000000
00000000
,
00000000
00000000
00000000
00000000
,
00000010
00000001
00000010
00000100
00001000
00000100
00001000
00000100
,
00010000
00001000
00010000
00100000
10000000
00100000
10000000
00100000
,
10000000
01000000
00010000
00000000
00000000
00000000
00000000
00000000
,
00000001
00000100
00001000
00000000
00000000
00000000
00010000
00100000
,
10000000
00000000
00000000
01000000
00000000
00000000
10000000
00000000
00010000
00000000
01000000
00000000
00010000
00000000
00000000
00000000
,
00100000
01000000
00000000
00010000
00001000
00000100
00000001
00000000
,
00001000
00000000
00000000
00000100
00000000
00000000
00001000
00000000
00000001
00000000
00000100
00000000
00000001
00000000
00000020
00000000
,
00000000
00001030
00000000
00010000
00001000
00000000
01001000
00000000
,
00100000
00000000
00000000
01000000
00000000
00000000
00100000
00000000
10000000
00000000
00010000
00000000
10000000
00000000
00000000
00000000
,
01000000
00010000
00000000
00001000
00000100
00000010
00001000
00000000
,
00000001
00000000
00000000
00000010
00000000
00000000
00000001
00000000
00000100
00000000
00000001
00000000
00001000
00000000
00000000
00000000
,
00002002
00000000
00003003
00000110
,
00000100
00000000
00000100
00000000
00000100
00001000
00010000
00000000
,
00100000
00000000
00100000
00000000
00100000
10000000
01000000
00000000
,
00010000
00000000
00010000
00000000
00010000
00001000
00000010
00000000
,
00000001
00001000
00000001
00000100
00002000
00000000
00023000
00000000
,
00230000
00000000
10300000
00010000
10000000
00000000
01000000
00010000
,
00001000
00000000
00000100
00000001
00000100
00000000
00001010
00000000
,
00000001
00000000
00000010
00000100
00001000
00000100
00000010
00000000
,
00000001
00000100
00001000
00011000
,
00100000
00000000
11000000
00000000
00100000
01000000
10000000
00000000
,
01000000
00010000
01000000
00000000
00010000
00001000
00000010
00000000
,
00000001
00000000
00000110
00000000
00000001
00000100
00000010
00000000
,
00001000
00010000
00100000
00000000
00010000
00010000
00001000
00000100
,
00000100
00000000
00010000
00001000
01000000
00000000
01010000
00000000
,
10100000
00000000
10000000
00010000
10000000
00100000
10000000
00000000
,
02000000
03010000
00002000
00003010
,
00000002
00000100
00000000
00000100
00000000
00001000
00000000
00001003
,
00001001
00000000
00000010
00000100
00000000
00000000
00000000
00000000
,
00000000
00000000
00000000
00200000
00000000
00000000
02300000
00000000
,
03020000
00000000
00000000
20030000
00000000
00000000
30000000
00000000
,
00000000
00000000
00000000
20000000
00000000
00000000
30020000
00000000
,
02030000
00000000
03100000
01000000
00000000
00000000
00000000
00000000
,
00000000
00000000
00000000
00000020
00000000
00000000
00000230
00000000
,
00000302
00000000
00000000
00002003
00000000
00000000
00003000
00000000
,
00000000
00000000
00000000
00010010
00000000
00000000
00011000
00000000
,
01001000
00100000
00100000
00100000
,
00100000
00100000
11000000
01010000
,
00011000
00000010
00000010
00000010
,
00000010
00000000
00000000
00000000
00000010
00000000
00000000
00000000
00000100
00000000
00000000
00001000
00000000
00000000
00010000
00000000
,
01000000
01000000
01000000
10100000
,
11000000
00000000
00010000
00000000
00010000
00000000
00001000
00000100
,
00000002
00000000
00000000
00002000
00000000
00000000
00000000
00000000
,
00000000
00000000
00003003
00000000
,
00000010
00000000
00000000
00000100
00000000
00000000
00000010
00000000
00000100
00000000
00001000
00000000
00010000
00000000
02000000
00000000
,
00000000
13000000
00100000
10000000
01000000
00000000
00010000
00000000
,
00001000
00000010
00000001
00000000
00000100
00001000
00000100
00000000
,
00000001
00000000
00000010
00000000
00000100
00000000
00010000
00000000
00001000
00000000
00000000
00100000
00000000
00000000
01000000
00000000
,
00100000
00000000
00000000
00010000
00000000
00000000
10000000
00000000
01000000
00000000
00100000
00000000
01000000
00000000
00010000
00000000
,
00000000
00001000
00000100
00000000
00000001
00001000
00000001
00000010
,
00000001
00000100
00001000
00010000
,
00022000
00000000
00000000
00000000
00033000
02200000
00000000
03300000
,
10000000
00000000
00000000
01000000
00000000
00000000
10000000
00000000
00100000
00000000
01000000
00000000
10000000
00000000
01000000
00000000
,
00000000
00010000
00100000
00000000
01000000
00100000
01000000
00000000
,
00010000
00000000
00001000
00000000
00000100
00000001
00000100
00000000
,
00000002
00002000
00000000
00000000
00000000
00000000
00003003
00000000
,
00000001
00000100
00000000
00001000
00010000
01000000
00000000
00000000
,
10000000
00000000
00000000
10000000
00000000
00000000
10000000
00000000
01000000
00000000
00010000
00000000
00001000
00000000
00000000
00000000
,
00000010
00000001
00000011
00000000
00000100
00001000
00001100
00000000
,
00000100
00000000
00000000
00010000
00001000
00000000
00100000
00000000
00000000
00001000
00010000
00000000
00000100
00000000
00000000
00000000
,
00010000
00001000
00000100
00001000
00010000
00001000
00000100
00000000
,
00001000
00010000
00100000
00010000
00001000
00000100
00000001
00000000
,
00000010
00000100
00010000
00001000
01000000
00100000
10000000
00000000
,
01000000
00010000
00001000
00000000
00010000
00001000
00000100
00000000
,
00000001
00000100
00000010
00001000
,
00000001
00000000
00000001
00000000
00000000
00001000
00000000
00000000
00001000
00000000
00000000
00000000
00001100
00000000
00000000
00000000
,
00020200
00000000
00000000
00030300
,
00000110
00000000
00000000
00000000
;

//---------------dance-double - ----------------
#NOTES:
     dance-double:
     :
     Easy:
     4:
     0.151841,0.216497,0.000000,0.121970,0.000000,122.000000,122.000000,0.000000,14.000000,0.000000,0.000000,0.151841,0.216497,0.000000,0.121970,0.000000,122.000000,122.000000,0.000000,14.000000,0.000000,0.000000:
// measure 0
00000000
00000000
00000000
00000000
,  // measure 1
00000000
00000000
00000000
00000000
,  // measure 2
01000000
00000000
00000000
00000000
,  // measure 3
00001000
00000000
00000000
00000000
,  // measure 4
00010000
00000000
00000000
00000000
,  // measure 5
00000010
00000000
00000000
00000000
,  // measure 6
00000200
00000000
00000300
00000000
,  // measure 7
00000020
00000000
00000030
00000000
,  // measure 8
00010000
00000000
00001000
01000000
,  // measure 9
00001000
00000000
00100000
00000000
,  // measure 10
01000000
00000000
00100000
10000000
,  // measure 11
01000000
00000000
00000000
00000000
,  // measure 12
00100000
00000000
00001000
00010000
,  // measure 13
00000000
00000000
00000010
00000000
,  // measure 14
00000100
00000000
00000001
00001000
,  // measure 15
00000001
00000000
00000000
00000000
,  // measure 16
00001000
00001000
00001000
00000000
,  // measure 17
00000100
00000100
00000100
00000000
,  // measure 18
00010000
00010000
00010000
00000000
,  // measure 19
00001000
00001000
00001000
00000000
,  // measure 20
01000000
01000000
01000000
00000000
,  // measure 21
00100000
00100000
00100000
00000000
,  // measure 22
10000000
10000000
10000000
00000000
,  // measure 23
00000000
01000000
00000000
00100000
,  // measure 24
00001000
00010000
00000000
00010000
,  // measure 25
00000000
00000010
00000000
00000000
,  // measure 26
00000000
00000100
00000000
00000100
,  // measure 27
00000010
00000000
00000010
00000000
,  // measure 28
00000010
00000000
00000000
00000000
,  // measure 29
00010000
00000000
00000000
00000000
,  // measure 30
00002000
00003000
00200000
00300000
,  // measure 31
02000000
00000000
00000000
00000000
,  // measure 32
13000000
00100000
00000000
00000000
,  // measure 33
00000000
00000000
00000000
01000000
,  // measure 34
00001000
00000000
00000000
00000000
,  // measure 35
00000000
00000000
00000000
00010000
,  // measure 36
00000010
00000100
00000000
00000000
,  // measure 37
00000000
00000000
00000000
00000001
,  // measure 38
00000100
00000000
00000000
00000000
,  // measure 39
00000000
00000000
00000000
00000010
,  // measure 40
00020000
00000000
00000000
00000000
,  // measure 41
00000000
00030000
00001000
00001000
,  // measure 42
00002000
00000000
00000000
00000000
,  // measure 43
00000000
00003000
02000000
00000000
,  // measure 44
03200000
00000000
00300000
10000000
,  // measure 45
20000000
00000000
00000000
30010000
,  // measure 46
00020000
00000000
00000000
00000000
,  // measure 47
00000000
00000000
00030000
00000000
,  // measure 48
01000000
00000000
00001000
00010000
,  // measure 49
00000100
00000000
00000010
00000000
,  // measure 50
00000001
00000100
00000000
00000000
,  // measure 51
00000010
00000000
00000010
00000000
,  // measure 52
00010000
00000000
00000000
00001000
,  // measure 53
01000000
00000000
00000000
00100000
,  // measure 54
00000000
00000000
10000000
10000000
,  // measure 55
20000000
00000000
30000000
00000000
,  // measure 56
10000000
00000000
01000000
00100000
,  // measure 57
01000000
00000000
00100000
00000000
,  // measure 58
00001000
00000000
00010000
00000000
,  // measure 59
00000020
00000030
00000000
00000100
,  // measure 60
00000001
00001000
00000001
00000000
,  // measure 61
00001000
00000000
00000100
00000000
,  // measure 62
00010000
00000000
00010000
00000000
,  // measure 63
00001000
00000000
00000000
00001000
,  // measure 64
00001000
00000000
00000000
00000000
,  // measure 65
01000000
00000000
00000000
00000000
,  // measure 66
00100000
00000000
00000000
00000000
,  // measure 67
10000000
00000000
10000000
00000000
,  // measure 68
10000000
00000000
00000000
00000000
,  // measure 69
01000000
00000000
00000000
00000000
,  // measure 70
00200000
00000000
00000000
00000000
,  // measure 71
00301000
00000000
00000000
00000000
;

//---------------dance-double - ----------------
#NOTES:
     dance-double:
     :
     Medium:
     9:
     0.362177,0.402067,0.165531,0.313638,0.013068,291.000000,272.000000,19.000000,36.000000,0.000000,0.000000,0.362177,0.402067,0.165531,0.313638,0.013068,291.000000,272.000000,19.000000,36.000000,0.000000,0.000000:
00000000
00000000
00000000
00000000
,
00000000
00000000
00000000
00000000
,
00000000
00000000
00000000
00000000
,
00000000
00000000
00000000
00000000
,
10000000
01000000
10000000
00010000
00100000
00000000
00100000
00000000
,
00001000
00010000
00001000
00000010
00000001
00000000
00000001
00000000
,
00000100
00001000
00000100
00000000
00000000
00000000
00000000
00001000
,
00010000
01000000
00010000
00000000
00000000
00000000
01000000
10000000
,
00010000
00000000
00000000
10000000
01000000
00100000
00010000
00000000
,
00000000
01100000
00000000
00001000
00010000
00000010
00000100
00000000
,
00000001
00000000
00000000
00000010
00000100
00001000
00000010
00000000
,
00000000
00000100
00000000
00000010
00010000
00001000
00010000
00000000
,
00001000
00100000
00001000
00000000
01000000
10000000
01000000
00100000
,
00000000
01000000
00000000
01000000
10000000
00000000
01000000
00000000
,
00010000
00001000
00010000
00000000
00000010
00000000
00000100
00000000
,
00000110
00000000
00001000
00000001
,
00000100
00000100
00000100
00002000
,
00013000
00010000
00010000
00100000
,
10000000
10000000
10000000
02000000
,
03010000
00010000
00002000
00003010
,
00000001
00000000
00000100
00000010
00000100
00000000
00002000
00000000
,
00013000
00000000
00100000
01000000
00100000
00000000
20000000
00000000
,
31000000
00000000
00100000
00001000
00010000
00000000
00000100
00010000
,
00001000
00000010
00000001
00000200
,
00000310
00001010
00000010
00001010
,
00000100
00010000
00002000
01003000
,
00100000
10100000
00100000
10100000
,
20000000
00000000
30000000
00000000
01000000
00200000
00000000
00310000
,
00010000
01010000
00010000
01010000
,
01000000
00001000
00010000
00000000
00010000
00000010
00000100
00000000
,
00000002
00001003
00000002
00001003
,
00000020
00000100
00000000
00000100
00000000
00000100
00000000
00000130
,
00000110
00000000
00000001
00001000
00000000
00000000
00000000
00000000
,
00000000
00000000
00000000
00000020
00000000
00000000
00000230
00000000
,
00002300
00000000
00000000
00023000
00000000
00030000
00000000
00000000
,
00000000
00000000
00000000
00200000
00000000
00000000
20300000
00000000
,
32000000
00000000
13000000
00100000
00000000
00000000
00000000
00000000
,
00000000
00000000
00000000
00020000
00000000
00000000
00032000
00000000
,
00003020
00000000
00000000
00000032
00000000
00000000
00000003
00000000
,
00000000
00000000
00000000
00000202
00000000
00000303
00001001
00000000
,
00010100
00000000
00010000
00001000
00010000
00000000
00010000
00000000
,
00010000
00010000
00200000
20300000
,
31000000
01000000
01000000
01000000
,
01000000
00000000
00000000
00000000
01000000
00000000
00000000
00000000
00100000
00000000
00000000
00100000
00000000
00000000
00100000
00000000
,
00001000
00001000
00001000
00010000
,
00000010
00000000
00000010
00000000
00000010
00000000
00000010
00000100
,
00000002
00000000
00000000
00002000
00000000
00000000
00000000
00000000
,
00000000
00000000
00003003
00000000
,
00000001
00000100
00001000
00000000
00000001
00000000
00001000
00000000
,
00010000
00000000
00001000
01000000
00000000
00000000
00001000
00100000
,
00000000
00000000
01000000
00000000
10000000
00000000
00100000
01000000
,
00010000
00000000
01000000
00100000
00010000
00000000
00001000
00000000
,
00000010
00000000
00000001
00000000
00000100
00000010
00001000
00000010
,
00000100
00000000
00001000
00010000
01000000
00000000
10000000
00000000
,
00010000
00000000
00000000
00000000
10000000
00010000
10000000
00000000
,
01200000
00000000
00000000
00000000
00000000
10000000
00000000
00000000
,
01300000
00000000
00100000
00000000
00010000
00001000
00010000
00000000
,
00000010
00000000
00000100
00000010
00000100
00000000
00000001
00001000
,
00000001
00000010
00001000
00010000
,
00100000
00200000
00000000
00000000
00000000
00000000
10300000
00000000
,
01000000
00000000
00010000
00000000
01000000
10000000
01000000
00000000
,
10000000
00000000
00000000
10000000
00000000
00000000
10000000
00000000
00010000
00000000
00000000
00000000
00000000
00000000
00000000
00000000
,
00001000
00000000
00000001
00000000
,
00001001
00000000
00000000
00000110
00000000
00000000
00001001
00000000
,
00000001
00000100
00000001
00000100
,
00001000
00010000
00002000
00000000
,
00103000
01000000
00100000
01000000
,
00020000
00130000
20000000
30100000
,
00010000
01000000
00001000
00010000
,
00000010
00000000
00000010
00000000
00000000
00000010
00000000
00000000
00000010
00000000
00000000
00000000
00000110
00000000
00000000
00000000
,
00022000
00000000
00000000
00033000
,
01100000
00000000
00000000
00000000
;
