#TITLE:B S X;
#SUBTITLE:;
#ARTIST:Anamanaguchi feat. Hatsune Miku;
#TITLETRANSLIT:;
#SUBTITLETRANSLIT:;
#ARTISTTRANSLIT:;
#GENRE:Rock;
#CREDIT:;
#BANNER:bsx-bn.png;
#BACKGROUND:bsx-bg.png;
#LYRICSPATH:;
#CDTITLE:;
#MUSIC:B S X.mp3;
#OFFSET:-0.040000;
#SAMPLESTART:43.319996;
#SAMPLELENGTH:11.999990;
#SELECTABLE:YES;
#BPMS:0.000000=200.000000
;
#STOPS:
;
#BGCHANGES:;
#KEYSOUNDS:;
#ATTACKS:;

//---------------dance-single - ----------------
#NOTES:
     dance-single:
     :
     Challenge:
     17:
     0.951310,1.347884,1.027212,0.425053,0.385205,752.000000,636.000000,116.000000,48.000000,0.000000,0.000000,0.951310,1.347884,1.027212,0.425053,0.385205,752.000000,636.000000,116.000000,48.000000,0.000000,0.000000:
0000
0000
0000
0000
,
0000
0000
0000
0000
,
0000
0000
0000
0000
,
0000
0000
0000
0000
,
0101
0000
1010
1000
0000
0100
0010
0001
,
0101
0000
0110
0010
0000
1000
0001
0100
,
0110
0101
1010
0000
0110
1010
0101
0000
,
1001
0000
1010
0000
1100
0000
0000
0000
1001
0000
0011
0000
0001
0100
0010
0000
,
0110
0110
0110
0000
0000
0000
0000
0000
,
0000
0000
0000
0000
0000
0000
0000
0000
0001
1000
0000
0000
0000
0000
0110
0000
,
1000
0001
1000
0000
0100
0001
0100
0000
,
1000
0000
0001
0000
1000
0000
0000
0000
0010
0000
0001
0000
0010
0000
1000
0001
,
0100
0010
1000
0000
0001
0010
1000
0001
,
0100
1000
0010
0100
0001
1000
0100
0001
,
0010
1000
0010
0000
0001
1000
0001
0000
,
0010
0000
1000
0000
0010
0000
0000
0000
1001
0000
0010
0100
0010
0000
0100
0001
,
0100
0000
0110
0000
1000
0100
0001
1000
,
0010
0000
0002
0000
0000
0000
2003
0000
0000
0000
3010
0100
0010
0000
1000
0000
,
0001
1000
0001
1000
0001
1000
0001
1000
0001
1000
0001
1000
0001
1000
0001
1000
,
0001
1000
0001
1000
0001
1000
0001
1000
0001
1000
0001
1000
0001
1000
0001
1000
,
0001
0000
1100
0000
0001
0100
1000
0001
,
0010
2000
0000
3002
0000
0000
0103
0010
,
0110
0010
1000
0000
1010
0010
0100
0000
,
0101
0000
0100
0000
0001
0000
0010
0000
0001
0010
0100
1000
0001
0000
1000
0100
,
0010
0001
0110
0000
0010
1000
0110
0000
,
0001
1000
0110
0010
1000
0000
2002
0000
,
3003
0000
1010
0010
0010
0000
0101
0110
,
0000
0000
1010
0000
1001
0000
0000
0000
0110
0000
0100
0000
0100
0000
0010
1000
,
0001
0100
0101
0000
0001
0010
1100
0000
,
1000
0010
1010
0100
0001
0000
2002
0000
,
3003
0000
0110
0100
0010
0000
1100
1000
,
0000
0000
0101
0000
0001
0000
1000
0000
0000
0000
1000
0000
0010
0000
0100
0010
,
0200
0000
0010
0010
0010
0010
0310
1000
,
0002
0100
0100
0103
0010
1010
0000
1001
,
0000
0000
0020
0000
0100
0000
0100
0000
0100
0000
0130
0000
0010
1000
0010
1000
,
0010
0000
0000
0000
0100
0001
0100
0000
0000
0000
0001
0010
0001
1000
0001
1000
,
0001
0010
0100
2100
3000
2010
3000
2001
,
0000
0010
0100
3010
0001
1000
0000
1002
,
0000
0000
0103
0120
0000
0031
0010
1000
,
0100
0000
0001
0000
0010
1010
0000
1001
,
0000
0100
0010
0012
0003
0102
0003
1002
,
0000
0100
0010
0103
0001
1000
0000
2001
,
0000
0000
3010
0210
0000
1300
0100
0001
,
0010
0000
0100
0010
0100
0000
1000
0100
1000
0100
1000
0100
1000
0100
1000
0100
,
1000
0001
0101
0000
1010
1000
0001
0201
,
0000
0310
0002
0000
0013
1000
0001
0100
,
0110
0000
1001
0000
1000
0100
0001
0200
,
0000
0000
2300
0000
0000
0000
3002
0000
0000
0000
0023
0000
0000
0000
1030
0010
,
0001
0100
0010
0000
1100
0010
0001
0000
,
0101
0000
0010
0000
1000
0000
0001
0100
1000
0000
0100
0000
0001
0000
0001
0000
,
0000
0110
1000
1000
0000
0110
0001
0001
,
0000
0000
0100
0010
0100
0000
0010
1000
0100
0010
0100
0010
0100
0010
0100
0010
,
0001
0000
1000
0000
0100
0010
0000
0000
0001
0000
0012
0000
0000
0000
1003
0000
,
2010
0000
3001
0201
0000
0310
0100
0001
,
1100
0010
0100
0010
0101
0010
0100
0010
,
1100
0000
0010
0000
0100
0000
0010
0000
0101
0000
0010
0000
0100
0000
0010
1000
,
0001
0000
1001
0000
1000
0100
0001
1000
,
0010
0002
0000
0023
0000
0000
0130
1000
,
1010
0100
0010
0100
0011
0100
0010
0100
,
1010
0000
0100
0000
0010
0000
0100
0000
0011
0000
0100
0000
0010
1000
0001
0100
,
0010
0000
1000
0000
0001
0010
0000
0000
0100
0000
2100
0000
0000
0000
3001
0000
,
0102
0000
0103
0210
0000
0310
1000
0001
,
1001
0010
0100
0010
1001
0100
0010
0100
,
1001
0000
0010
0000
0100
0000
0010
0000
1001
0000
0100
0000
0010
0000
0001
1000
,
0100
0000
1001
0000
0001
0010
1000
0001
,
0100
2000
0000
3020
0000
0000
0130
0001
,
0110
0001
1000
0001
0110
1000
0001
1000
,
0110
0000
1000
0000
0001
0010
0001
0010
0001
0000
1000
0100
1000
0001
1000
0001
,
1000
0000
1000
0000
1000
0100
0001
1000
,
0010
0002
0003
0002
0000
0003
0001
0001
,
1000
1000
1000
1000
,
1000
0000
0000
0000
1000
0000
0000
0000
1000
0000
0000
0000
1000
0000
0001
1000
,
0001
0000
0001
0000
0001
0010
1000
0001
,
0100
1000
0001
0100
0010
1000
0100
0010
,
0001
0001
0001
0001
,
0000
0000
0000
0000
,
1001
1000
0010
1020
0030
0120
0030
0021
,
0000
0000
1000
0000
0001
0000
1030
0000
0100
0000
0010
0000
0000
0000
0001
1000
,
0000
0000
1000
0001
0000
0000
0100
0010
0100
0010
0100
0000
0001
1000
0000
0000
,
1000
0001
1000
0001
1000
0001
1000
0000
0010
1000
0010
1000
0010
0000
1000
0000
,
0001
0100
0001
0201
0300
0210
0300
1200
,
0000
0001
1000
0301
0100
0010
0000
1001
,
0010
0100
1000
0010
0100
0001
0010
0100
1000
0010
0100
0001
1000
0000
1001
0000
,
0000
0000
0010
0100
0010
0000
0001
0100
0010
1000
0100
0010
0001
0100
0010
0000
,
0000
0010
1010
0000
1001
0001
1000
1010
,
0000
0100
0101
0000
0001
1000
0010
0100
,
0101
0001
1000
0000
1000
0100
0010
0021
,
0030
0000
2001
0000
3000
0000
0201
0000
0300
0000
1001
0000
0001
0010
0001
0010
,
0001
1000
0110
0001
0110
1000
0110
0001
,
0110
0000
1000
0000
0010
0100
0010
0000
1000
0000
1010
0000
0001
0000
0001
0000
,
0000
0011
1000
1000
0000
1010
0001
0001
,
0000
0000
0100
0010
1000
0000
0010
0100
0001
0000
1000
0100
0001
0100
1000
0000
,
1010
0110
0101
0000
0000
0000
0000
0000
;

//---------------dance-single - ----------------
#NOTES:
     dance-single:
     :
     Hard:
     13:
     0.697037,0.857744,0.487040,0.513606,0.088553,551.000000,496.000000,55.000000,58.000000,0.000000,0.000000,0.697037,0.857744,0.487040,0.513606,0.088553,551.000000,496.000000,55.000000,58.000000,0.000000,0.000000:
0000
0000
0000
0000
,
0000
0000
0000
0000
,
0000
0000
0000
0000
,
0000
0000
0000
0000
,
0000
0000
1000
0100
0000
0010
0100
1000
,
0001
0000
0010
0100
0000
0010
0001
1000
,
0100
0010
0100
1000
0100
0010
0100
1000
,
0100
0010
0100
1000
0100
0010
0100
1000
,
0001
0001
0001
0000
0000
0000
0000
0000
,
0000
0000
0000
0000
1001
0000
0000
0010
,
0100
0001
0100
0000
0010
1000
0010
0000
,
1000
0100
1000
0000
0001
0010
0001
0100
,
0100
0000
0110
0000
0001
0100
1000
0100
,
0001
1000
0010
0001
0010
1000
0001
0100
,
0010
0000
1100
0000
1000
0001
1000
0000
,
0100
0000
0011
0000
0001
1000
0001
1000
,
0001
0000
1100
0000
1000
0100
0001
0100
,
1000
0020
0000
0230
0000
0000
0310
0010
,
1000
0001
1000
0001
1000
0001
1000
0001
,
1000
0001
1000
0001
1000
0001
1000
0001
,
1001
0000
0100
0000
0001
0100
1000
0100
,
0001
2000
0000
3020
0000
0000
0130
0100
,
0001
0010
0100
0000
1000
0100
0010
0000
,
0001
1000
0001
0000
1000
0100
0010
0100
,
1000
1100
0010
0101
,
0010
1010
1001
0022
,
0033
0220
0330
2020
,
3030
0022
0033
2002
,
0000
3003
0000
0000
,
0000
1010
1100
0220
,
0330
0022
0033
2002
,
0000
0000
3003
0000
0000
0001
1000
0020
,
0100
0000
0100
0000
0100
0000
0130
0010
,
2000
0000
0001
0000
3001
1000
0000
1001
,
0000
0000
0202
0000
0000
0000
0000
0000
0000
0000
0303
0000
0100
0010
0100
0010
,
0100
0000
0000
0000
0010
0100
0010
0100
0010
0000
0100
0010
0100
0010
0100
0000
,
0000
0001
1000
2001
3000
2010
3000
2100
,
0000
3001
0100
1000
0100
0001
0000
2002
,
0000
3003
0010
0100
0000
0001
0100
1000
,
0100
0000
0001
0000
1000
0001
0000
0110
,
0000
1000
0001
1002
0003
0102
0003
0012
,
0000
1003
0100
0001
0100
1000
0000
2002
,
0000
3003
0010
0100
0000
0001
0100
1000
,
0100
0001
1000
0001
1000
0001
1000
0001
,
1000
0010
0100
0000
0001
0001
0010
0200
,
0000
1000
1300
0000
1000
0010
0100
0010
,
1000
0000
0110
0000
0001
0010
0100
1000
,
0000
1010
0000
0101
0000
0011
0000
1000
,
0010
1000
0010
0000
0100
0001
0100
0000
,
0010
1000
0010
0000
0100
0001
1000
1000
,
0000
1000
0001
0001
0000
0001
1000
1000
,
0000
0000
1000
0010
0000
0000
0100
0001
0000
0000
1000
0000
0010
0000
0100
0000
,
0001
0000
0010
0200
0000
1000
0000
0310
,
0010
0000
0001
1000
0000
0100
0010
0001
,
1000
0100
1000
0000
0001
0010
0001
0000
,
1000
0100
1000
0000
0001
0010
0001
0100
,
0010
0000
1001
0000
0100
0010
1000
0010
,
0100
0002
0000
2003
0000
3000
0100
0000
,
0010
0001
0010
0000
0001
0100
0001
0000
,
1000
0100
1000
0000
0010
1000
0010
0000
,
1100
0000
0010
0002
0000
1000
0000
0103
,
0100
0000
0010
1000
0000
0100
1000
0100
,
1000
0000
1000
0001
1000
0000
0010
0100
,
0010
0000
0100
0001
0100
0000
0001
0010
,
0001
0000
0101
0000
0010
1000
0100
0010
,
0001
0200
0000
0320
0000
0030
1000
1000
,
0001
0010
0100
0010
0001
0010
0100
0010
,
0001
0000
0010
0000
0100
1000
0100
1000
0100
0000
0010
0001
0010
0001
0010
0000
,
0001
0000
1000
0000
0001
1000
0010
0100
,
0001
2000
0000
3020
0000
0030
0100
0001
,
1000
0001
1000
0001
,
1000
0001
1000
0001
,
1000
0000
0110
0000
1000
0001
0100
0010
,
1000
0001
0010
0100
1000
0100
0010
0001
,
0200
0000
0000
0320
0000
0000
2030
0000
,
0000
0002
0000
3003
0100
0010
0100
0000
,
0000
0010
1000
1020
0030
0120
0030
0021
,
0000
1030
0001
1000
0010
0100
0000
1001
,
0000
0000
1000
0001
0000
0000
0001
1000
0001
1000
0001
0000
0100
0010
0000
0000
,
0010
0100
0010
0100
0010
0000
0000
0000
1000
0001
1000
0001
1000
0000
0000
0000
,
0000
0001
0100
0201
0300
0210
0300
1200
,
0000
0301
1000
0001
0100
0010
0000
2002
,
0000
3003
1000
0000
0001
0000
0100
0000
,
0010
0100
0001
1000
,
0000
0010
0010
0000
1000
0100
0001
0200
,
0000
1000
1300
0000
0001
1000
0001
2002
,
0000
0000
0000
3003
0000
1000
0100
0010
,
0000
0101
0000
1010
0000
1001
0000
0000
,
0100
0010
0001
0010
0100
1000
0100
0010
,
0001
0010
0100
1000
0100
0010
0001
0001
,
0000
0100
0010
0010
0000
1000
0100
0100
,
0000
1001
0000
0110
0000
1001
0000
0010
,
1000
0001
0110
0000
0000
0000
0000
0000
;

//---------------dance-single - ----------------
#NOTES:
     dance-single:
     :
     Medium:
     11:
     0.535112,0.735209,0.389632,0.425053,0.000000,423.000000,379.000000,44.000000,48.000000,0.000000,0.000000,0.535112,0.735209,0.389632,0.425053,0.000000,423.000000,379.000000,44.000000,48.000000,0.000000,0.000000:
0000
0000
0000
0000
,
0000
0000
0000
0000
,
0000
0000
0000
0000
,
0000
0000
0000
0000
,
0000
0000
0001
0010
0000
0100
0000
0010
,
0001
0000
1000
0100
0000
0010
0000
0100
,
1000
1000
0001
0001
,
1000
1000
0001
0001
,
0100
0100
0100
0000
0000
0000
0000
0000
,
0000
0000
0000
0000
0011
0000
0000
0001
,
1000
0100
0001
0100
,
1000
0000
0010
0000
0001
0000
0010
1000
,
0001
0101
0200
0320
,
2030
0000
3002
0000
0013
0100
1000
0100
,
0010
0001
0100
1000
,
0100
0000
0001
0000
0010
0000
0001
1000
,
0100
0010
0002
2003
,
3200
0000
0000
2300
0000
3000
0010
0100
,
0001
1000
0001
1000
0001
1000
0001
1000
,
0001
1000
0001
1000
0001
1000
0001
1000
,
1001
0000
0200
0302
,
0023
0000
0000
0032
0000
0003
0100
0010
,
0100
0010
1000
0010
,
0100
0010
0001
0010
,
1000
0100
1000
0000
0001
0100
0001
0000
,
1000
0100
1000
0000
0001
0000
0200
0000
,
0300
0220
0330
0202
,
0303
2002
3003
1010
,
0001
0010
0001
0000
1000
0010
1000
0000
,
0001
0010
0001
0000
0100
0000
0220
0000
,
0330
2020
3030
0202
,
0000
0000
0303
0000
0000
0010
0100
0001
,
1000
1000
1000
1000
,
0001
0000
0001
0000
0010
0100
0000
0010
,
0000
0001
0000
0000
0000
0000
1000
0001
,
2000
0000
3020
0000
,
0030
1000
0100
1000
0000
1010
0000
1001
,
0000
1000
0100
1000
0100
1000
0000
2020
,
0000
3030
1000
0001
0000
0001
1000
0000
,
0001
0000
1000
0000
0000
0110
0000
0101
,
0000
0001
0010
0001
0000
0101
0000
1001
,
0000
0001
0010
0001
0010
0001
0000
0202
,
0000
0303
0001
1000
0000
1000
0001
0000
,
0100
0010
1000
0000
0010
0100
0001
0000
,
0000
1000
0100
0000
1000
0010
1000
0010
,
0000
0100
0001
1000
,
0010
0000
0100
0000
0001
0000
0100
0002
,
0000
0023
0000
0230
0000
2300
0000
3000
,
0001
1000
0001
1000
,
0001
0000
1000
0000
1000
0010
0100
0100
,
0000
0100
0010
0010
0000
0010
0100
0100
,
0000
1001
0110
1001
,
0000
0000
0001
0010
0000
0100
0000
0010
,
0001
0000
1000
0100
0000
0010
0000
0100
,
1000
1010
0001
0101
,
1000
1010
0001
0101
,
0000
0000
0000
0000
0010
0100
0010
1000
,
0010
0200
0000
0302
0000
0000
1003
0001
,
1000
1100
0001
0011
,
1000
1100
0001
0011
,
0000
0000
0100
0001
0000
0010
0000
0001
,
0100
0000
0010
1000
0000
0100
0000
1000
,
0010
0110
1000
1001
,
0010
0110
1000
1001
,
0000
0000
0000
0000
0100
0001
0100
0010
,
0100
0002
0000
2000
0003
0000
3010
0100
,
0010
1010
1000
1100
,
0010
0000
0001
1000
0000
1000
0001
1000
,
0001
0000
0000
0000
1000
0100
0010
0001
,
1000
0001
0000
0002
0000
0003
0001
1000
,
0000
0000
0000
0000
,
0000
0000
0000
0000
,
0000
0000
0000
0000
0001
0010
0100
1000
,
0100
0010
0001
1000
0001
0010
0100
1000
,
0000
0000
0000
0000
,
0000
0000
0000
0000
,
0000
0100
0001
0100
0000
0101
0000
0110
,
0000
0100
0010
0100
0010
0100
0000
1001
,
0000
0200
0000
0320
,
2030
0000
3002
0000
,
0003
1000
0100
1000
0000
1100
0000
1010
,
0000
1000
0001
1000
0001
1000
0000
1001
,
0000
0010
0100
0010
,
0100
0000
0001
1000
0001
1000
0001
0100
,
0000
0100
0001
0000
1000
0010
0000
0100
,
0000
0010
0100
0000
0001
1000
0001
1000
,
0000
0000
0000
0000
0000
1000
0001
2000
,
0000
3020
0000
0230
0000
0302
0000
0003
,
0100
0011
0100
1010
,
0100
0000
0011
0000
0100
0000
0001
1000
,
0000
1000
0001
0001
0000
0001
1000
1000
,
0000
1000
0010
0100
0000
0001
0100
0001
,
1000
1000
1000
0000
0000
0000
0000
0000
;

//---------------dance-double - ----------------
#NOTES:
     dance-double:
     :
     Challenge:
     17:
     0.909564,1.347884,0.619869,0.363066,0.509178,719.000000,649.000000,70.000000,41.000000,0.000000,0.000000,0.909564,1.347884,0.619869,0.363066,0.509178,719.000000,649.000000,70.000000,41.000000,0.000000,0.000000:
00000000
00000000
00000000
00000000
,
00000000
00000000
00000000
00000000
,
00000000
00000000
00000000
00000000
,
00000000
00000000
00000000
00000000
,
00001000
00000000
00000010
00000100
00000001
00000000
00000010
00000000
00000000
00000000
00001100
00000000
00000100
00000000
00010000
00001000
,
00100000
00000000
01000000
10000000
00010000
00000000
00100000
00000000
00000000
00000000
01010000
00000000
00010000
00000000
10000000
00100000
,
01000000
00100000
01010000
00000000
01000000
00010000
01010000
00000000
,
01000000
00000000
00001000
00000000
01010000
00000000
00000000
00000000
00001000
00000000
00010000
00000010
00010000
00000010
00010000
00000010
,
00000100
00000001
00001010
00000000
00000000
00000000
00000000
00000000
,
00000000
00000000
00000000
00000000
00000000
00000000
00000000
00000000
00010000
00001000
00000000
00000000
00000000
00000000
00100000
00000000
,
01000000
00000000
10000000
01000000
10000000
00000000
00000000
00000000
00010000
00000000
00100000
00010000
00100000
00000000
00000000
00000000
,
00001000
00000000
00010000
00000010
00010000
00000000
00000000
00000000
00000010
00000000
00000100
00000001
00000100
00000000
00000010
00001000
,
00000010
00000000
00001001
00000000
00000001
00000100
00001000
00010000
,
00100000
01000000
00010000
00001000
00100000
01000000
10000000
01000000
,
00010000
00000000
00001000
00100000
00001000
00000000
00000000
00000000
00010000
00000000
00000010
00000100
00000010
00000000
00000000
00000000
,
00001000
00000000
00000100
00000001
00000100
00000000
00000000
00000000
00010000
00000000
00001000
00100000
00010000
01000000
00100000
10000000
,
00010000
00000000
10100000
00000000
10000000
01000000
00010000
00001000
,
00100000
02000000
00000000
03020000
00000000
00030000
00001000
00001000
,
00010000
00001000
00010000
00001000
00010000
00001000
00010000
00001000
00010000
00001000
00010000
00001000
00010000
00001000
00010000
00001000
,
00010000
00001000
00010000
00001000
00010000
00001000
00010000
00001000
00010000
00001000
00010000
00001000
00010000
00001000
00010000
00001000
,
00010000
00000000
00010010
00000000
00000001
00000010
00001000
00010000
,
00000100
00000020
00000000
00002030
00000000
00000000
00013000
00100000
,
10000000
01000000
00110000
00000000
00001000
00010000
00001100
00000000
,
00000010
00000000
00000001
00000000
00000110
00000000
00000000
00000000
00000100
00000010
00000100
00000010
00001000
00000001
00001000
00000001
,
00001000
00000000
00000010
00000100
00000001
00000000
00000000
00000000
00000010
00000000
00000100
00010000
00001000
00000000
00000000
00000000
,
00100000
00000000
00001000
01000000
00100000
00000000
00000000
00000000
11000000
00000000
00000000
00000000
01020000
00000000
00000000
00000000
,
00000000
00032000
00000000
00003020
,
00000000
00000032
00000000
00000203
,
00001300
00000000
00010000
01000000
10000000
00000000
00000000
00000000
00100000
00000000
01000000
00001000
00010000
00000000
00000000
00000000
,
00000100
00000000
00010000
00000010
00000100
00000000
00000000
00000000
00000102
00000000
00000000
00000000
00000023
00000000
00000000
00000000
,
00000000
00002030
00000000
00203000
,
00000000
00000000
00000000
00000000
10300000
00000000
00000000
00000000
00000000
00000000
00010000
00000000
01000000
00000000
00100000
10000000
,
00010000
01000000
00010000
01000000
00010000
01000000
00010000
01000000
,
00100000
00010000
00001000
00010000
00001000
00000010
00000001
00001000
,
00000010
00000000
00000100
00000000
00000001
00000000
00001000
00000000
00000001
00000000
00001000
00000000
00000001
00000010
00000100
00000010
,
00000100
00000000
00000000
00000000
00010000
00001000
00010000
00001000
00010000
00000000
00000010
00000100
00000010
00000100
00000010
00000100
,
00000001
00000100
00000010
00001010
00000000
00011000
00000000
00110000
,
00000000
00100000
10000000
00100000
10000000
01000000
00000000
02020000
,
00000000
03030000
00010000
00012000
00000000
00003010
00000001
00000100
,
00000110
00000000
00010000
00000000
00001000
00011000
00000000
00101000
,
00000000
00100000
01000000
11000000
00000000
01010000
00000000
00011000
,
00000000
00001000
00000010
00001000
00000010
00000001
00000000
00000202
,
00000000
00000303
00000010
00001000
00000000
00000100
00000010
00000001
,
00000100
00000010
00000100
00000010
00000100
00000010
00000100
00000010
00000100
00000010
00000100
00000010
00000100
00000010
00000100
00000010
,
00000100
00000010
00010010
00000000
00001000
00100000
01000000
11000000
,
00000000
00100000
01100000
00000000
00001000
00010000
00001000
00000010
,
00000001
00000000
00000101
00000000
00000001
00000100
00001000
00011000
,
00000000
00000000
00110000
00000000
00000000
00000000
10100000
00000000
00000000
00000000
10010000
00000000
00010000
10000000
00010000
10000000
,
00010000
01000000
01100000
00100000
10000000
01000000
01100000
00001000
,
00010000
00000100
00010100
00001000
00000010
00000100
00000001
00000001
,
00000000
00000100
00001000
00001000
00000000
00010000
00100000
00100000
,
00000000
00000000
10000000
00010000
10000000
00000000
00100000
01000000
00100000
00000000
10000000
00010000
10000000
00010000
10000000
00010000
,
10000000
00000000
00000000
00000000
01000000
00000000
00001000
00010000
00000100
00000000
00000020
00000000
00000000
00000000
00000031
00000000
,
00000100
00000000
00000000
00000000
00000010
00001000
00000100
00000000
00000000
00000000
00000100
00000000
00010000
00000000
00000100
00000000
,
00010000
00001000
00101000
00000000
00100000
01000000
11000000
00000000
,
01000000
00000000
00100000
00000000
00011000
00000000
00000000
00000000
00000100
00000000
00010000
00000000
00011000
00000000
00001000
01000000
,
00100000
00000000
10010000
00000000
10000000
01000000
00010000
00001000
,
00000010
00000002
00000003
00000102
00000000
00000000
00001000
00001003
,
00000010
00000100
00000101
00000000
00000100
00000010
00011000
00000000
,
00100000
00000000
01000000
00000000
00011000
00000000
00000000
00000000
01000000
00000000
00100000
01000000
00001000
00100000
00010000
00100000
,
00001000
00000000
00000000
00000000
00010000
00000000
00001000
00010000
00000010
00000000
00000100
00000000
00000000
00000000
00000001
00000010
,
00000100
00000000
00000000
00000000
00000010
00000001
00001000
00000000
00000000
00000000
00000010
00000000
00000100
00000000
00000010
00000000
,
00010000
00001000
00110000
00000000
00001000
00010000
00001100
00000000
,
00010000
00000000
00001000
00000000
01010000
00000000
00000000
00000000
00001000
00000000
00010000
00000000
00001010
00000000
00000100
00000001
,
00001000
00000000
00001001
00000000
00000001
00000100
00001000
00010000
,
00100000
20000000
30000000
20100000
00000000
00000000
00010000
30010000
,
01000000
00100000
00011000
00000000
00000010
00000100
00011000
00000000
,
00010000
00000000
00000010
00000000
00000100
00000001
00000100
00000001
00000100
00000000
00000010
00010000
00000010
00010000
00000010
00010000
,
00000010
00000000
00011000
00000000
00100000
01000000
10000000
00100000
,
00010000
00002000
00000000
00003020
00000000
00000000
00000031
00001000
,
00000001
00000001
00001000
00001000
,
00010000
00000000
00000000
00000000
00010000
00000000
00000000
00000000
10000000
00000000
00000000
00000000
10000000
00000000
00100000
01000000
,
00010000
00000000
00110000
00000000
00001000
00010000
00100000
01000000
,
00010000
00001000
00000010
00000100
00000001
00000001
00000010
00002000
,
00020000
00003000
00000000
00230000
00000000
00000000
20300000
00000000
,
30000000
20020000
00000000
30030000
10000000
00010000
10000000
00000000
,
00010000
00100000
01000000
00020000
00000000
00032000
00000000
00003020
,
00000000
00000000
00000031
00000000
00001000
00000000
00000001
00000000
00001000
00000000
00001010
00000000
00000000
00000000
00000010
00000100
,
00000001
00000000
00000100
00000010
00010000
00000000
00001000
01000000
00100000
10000000
01000000
00100000
00001000
00000000
00010000
00000100
,
00000010
00000001
00000100
00000010
00010000
00000000
00000100
00010000
00001000
00100000
01000000
10000000
00010000
00000000
00000000
00000000
,
00001000
00010000
00100000
20000000
00000000
32000000
00000000
03020000
,
00000000
00031000
00000010
00001000
00000010
00000001
00000000
00000101
,
00000000
00000000
00000010
00000100
00000010
00001000
00000010
00000100
00000010
00001000
00000010
00000100
00000010
00000000
00010000
00000000
,
00001000
00000000
01000000
00010000
01000000
00010000
01000000
00100000
01000000
00100000
01000000
10000000
01000000
10000000
01000000
00000000
,
00000000
00100000
01100000
00000000
01000000
00001000
00010000
00010200
,
00000000
00000010
00000310
00000000
00000001
00000100
00001000
00010000
,
00110000
00000000
11000000
00000000
10000000
01000000
00010000
00012000
,
00003000
00000000
00000120
00000000
00000030
00000000
00000012
00000000
00000000
00000000
00001003
00000000
00000010
00000100
00000010
00000100
,
00000010
00010000
00011000
00001000
00100000
01000000
11000000
00100000
,
01000000
00000000
00010000
00000000
01010000
00000000
00100000
00001000
00010000
00000010
00000100
00000000
00000001
00000000
00000001
00000000
,
00000000
00000100
00001000
00001000
00000000
00010000
00100000
00100000
,
00000000
00000000
10000000
01000000
00010000
00000000
00001000
00000100
00000001
00000100
00000001
00000100
00001000
00000000
00010000
01000000
,
10000000
10000000
10000000
00000000
00000000
00000000
00000000
00000000
;

//---------------dance-single - ----------------
#NOTES:
     dance-single:
     :
     Beginner:
     2:
     0.140419,0.245070,0.026566,0.008855,0.000000,111.000000,108.000000,3.000000,1.000000,0.000000,0.000000,0.140419,0.245070,0.026566,0.008855,0.000000,111.000000,108.000000,3.000000,1.000000,0.000000,0.000000:
0000
0000
0000
0000
,
0000
0000
0000
0000
,
0000
0000
0000
0000
,
0000
0000
0000
0000
,
0000
0100
0000
0000
,
1000
0000
0000
0000
,
0001
0000
0001
0000
,
0001
0000
0001
0000
,
0001
0000
0000
0000
,
0000
0000
0110
0000
,
0010
0000
0000
0000
,
0000
0000
0000
0000
,
0000
0000
1000
0000
,
0000
0000
0001
0000
,
0000
0000
0000
0000
,
0000
0000
0000
0010
,
0010
0000
0100
0000
,
0000
0000
0000
2000
,
0000
0000
0000
0000
,
0000
0000
0000
3000
,
1000
0000
0001
0000
,
0000
0000
0000
0010
,
0000
0100
0000
0100
,
0000
0000
1000
1000
,
1000
0000
0000
0000
,
0000
0001
0001
0001
,
0000
0100
0000
0100
,
0000
0100
0000
0100
,
0000
0000
0000
0000
,
0000
0010
0010
0010
,
0000
1000
0000
0001
,
0000
0000
0000
0100
,
0100
0000
0000
0000
,
0010
0000
1000
0000
,
0010
0000
0000
0000
,
0000
0000
0000
0000
,
0001
0001
0000
0000
,
0000
0001
0001
0000
,
0000
0001
0000
0000
,
0001
0000
0000
0000
,
1000
1000
0000
0000
,
0000
1000
1000
0000
,
0000
1000
0000
0000
,
1000
0000
0000
0000
,
0000
0100
0000
0000
,
0010
0000
0100
0000
,
0000
0000
0000
1000
,
1000
0000
0000
0000
,
0001
0000
0001
0000
,
0001
0000
0000
0100
,
0000
0100
0000
0100
,
0000
0000
0000
0000
,
0000
0010
0000
0000
,
0000
1000
0000
0000
,
0010
0000
0010
0000
,
0010
0000
0010
0000
,
0000
0000
0100
0000
,
0000
0000
0000
0000
,
0001
0000
0001
0000
,
0001
0000
0001
0000
,
0000
0100
0000
0000
,
0001
0000
0000
0000
,
0000
1000
0000
1000
,
0000
1000
0000
0000
,
0000
0000
0010
0000
,
0000
0000
0000
0000
,
0100
0000
0100
0000
,
0100
0000
0000
0000
,
0000
0000
1001
0000
,
0000
0000
0000
0000
,
0000
0000
0000
0000
,
0000
0000
0000
0000
,
0000
0000
0110
0000
,
0000
0000
0000
0000
,
0000
0000
0000
1000
,
0000
0000
0000
0000
,
0010
0010
0000
0000
,
0000
0010
0010
0000
,
0010
0000
0000
0000
,
0000
0000
0000
0000
,
0100
0100
0000
0000
,
0000
0100
0100
0000
,
0100
0000
0000
0000
,
0000
0000
0000
0000
,
0000
1000
0000
0000
,
0000
0000
0001
0001
,
0000
0000
0000
0100
,
0000
0000
0000
0000
,
0010
0000
0010
0000
,
0010
0000
0000
0100
,
0000
0100
0000
0100
,
0000
0000
0000
0000
,
1000
1000
0000
0000
;

//---------------dance-single - ----------------
#NOTES:
     dance-single:
     :
     Easy:
     8:
     0.403548,0.490140,0.017711,0.132829,0.000000,319.000000,317.000000,2.000000,15.000000,0.000000,0.000000,0.403548,0.490140,0.017711,0.132829,0.000000,319.000000,317.000000,2.000000,15.000000,0.000000,0.000000:
0000
0000
0000
0000
,
0000
0000
0000
0000
,
0000
0000
0000
0000
,
0000
0000
0000
0000
,
0000
0000
0100
1000
0000
0000
0000
1000
,
0001
0000
0001
0100
0000
0000
0000
0100
,
0010
0010
1000
1000
,
0001
0001
0010
0010
,
0001
1000
1001
0000
0000
0000
0000
0000
,
0000
0000
0000
0000
0110
0000
0010
0100
,
0000
1000
0100
0010
,
0100
1000
0100
0010
,
0001
0000
1000
0001
,
1000
0000
0010
0000
0100
0001
0100
0001
,
0000
0001
0100
0010
,
0100
0001
0100
0010
,
1000
0000
0010
1000
,
0001
0000
0000
0100
0000
0000
0002
2000
,
0000
0000
0000
0000
,
0000
0000
0000
3003
,
0000
0000
0100
0001
,
1000
0000
0000
0010
0000
0000
0100
0010
,
0000
1000
0000
0001
,
0000
0100
0010
0010
,
0010
1000
0010
1000
,
0010
0100
0001
2000
,
0000
3020
0000
0230
,
0000
0302
0000
0023
,
0130
1000
0000
0001
,
0000
0100
0001
0020
,
0000
0230
0000
2300
,
0000
0000
3000
0000
0000
1000
0001
1000
,
0001
0000
0001
0000
0001
0000
0001
0010
,
0001
0000
0000
0000
1000
0100
0000
0010
,
0000
0100
0000
0000
0000
0000
1000
0001
,
0020
0030
0020
0030
,
0000
0001
0100
0001
0000
1000
0000
1000
,
0000
0001
0100
0001
0100
0001
0000
1000
,
0000
0000
0001
0100
0000
0001
0100
0001
,
0000
0000
0000
0000
,
0000
1000
0010
1000
0000
0001
0000
0001
,
0000
1000
0010
1000
0010
1000
0000
0001
,
0000
0000
1000
0010
0000
1000
0010
1000
,
0020
0000
0000
0000
,
0030
0100
0001
0000
1000
0000
0001
0000
,
0100
0001
1000
0001
,
1000
0000
0000
0000
0000
0010
0100
0010
,
0000
1000
0000
0001
0000
0010
0000
0000
,
0100
1000
0100
0001
,
0100
0000
1000
0000
0100
0010
0001
0001
,
0000
0001
1000
1000
0000
1000
0100
0100
,
0000
0010
0000
0010
0000
0010
0000
0000
,
0000
0000
0100
1000
0000
0100
0000
1000
,
0100
0000
0000
0010
0000
0000
0001
0000
,
1000
1000
0001
0001
,
1000
1000
0001
0001
,
1000
0000
0001
1000
,
0010
0000
0000
0100
0000
0000
0010
1000
,
0010
0010
0100
0100
,
0010
0010
0100
0100
,
0010
0000
0100
0001
0000
0100
0000
0001
,
0100
0000
0000
0010
0000
0000
1000
0000
,
0001
0001
0010
0010
,
0001
0001
0010
0010
,
0001
0000
0100
0010
,
1000
0000
0000
0010
0000
0000
1000
0000
,
0100
0100
1000
1000
,
0100
1000
0000
0001
,
0010
0000
0000
0000
0010
0001
0010
0001
,
0010
0100
0000
2000
0000
3000
0100
1000
,
0000
0000
0000
0000
,
0000
0000
0000
0000
,
0000
0000
0000
0000
0100
0001
0100
0001
,
1000
0010
1000
0100
1000
0100
0010
0001
,
0000
0000
0000
0000
,
0000
0000
0000
0000
,
0000
0100
1000
0100
0000
0010
0000
0010
,
0000
0100
1000
0100
1000
0100
0000
0010
,
0000
0001
0000
0000
1000
0000
0001
0000
,
1000
0000
0001
0000
,
0000
0010
0001
0010
0000
0100
0000
0100
,
0000
0010
0001
0010
0001
0010
0000
0100
,
0000
0010
0001
0100
,
0010
2000
0000
0000
,
3000
0001
1000
0000
0010
0000
0100
0000
,
0010
0000
1000
0000
0100
0000
0010
0001
,
0000
0000
0000
0000
0000
0001
1000
0001
,
0000
0100
0000
0010
0000
1000
0000
0000
,
1000
1000
0001
0001
,
0100
0000
0100
0000
0010
1000
0100
0100
,
0000
0100
0010
0010
0000
0010
0001
0001
,
0000
1000
0000
0001
0000
1000
0000
0001
,
0100
0010
0100
0000
0000
0000
0000
0000
;

//---------------dance-double - ----------------
#NOTES:
     dance-double:
     :
     Hard:
     13:
     0.679326,0.898589,0.318790,0.309935,0.079698,537.000000,501.000000,36.000000,35.000000,0.000000,0.000000,0.679326,0.898589,0.318790,0.309935,0.079698,537.000000,501.000000,36.000000,35.000000,0.000000,0.000000:
00000000
00000000
00000000
00000000
,
00000000
00000000
00000000
00000000
,
00000000
00000000
00000000
00000000
,
00000000
00000000
00000000
00000000
,
10010000
00000000
00010000
01000000
00000000
00010000
00100000
00010000
,
01000000
00000000
00001000
00010000
00000000
00010000
00000100
00001000
,
00000100
00000010
00000011
00000000
00000001
00001000
00001100
00000000
,
00000010
00000100
00000110
00000000
00010000
00001000
00011000
00000000
,
00001000
00100000
01000000
00000000
00000000
00000000
00000000
00000000
,
00000000
00000000
00000000
00000000
00000000
00000000
00000000
00000000
10000000
00010000
00000000
00000000
00000000
00000000
00010000
00000000
,
10000000
01000000
00010000
00000000
01000000
00010000
00001000
00000000
,
00010000
00001000
00000100
00000000
00001000
00000100
00000001
00000000
,
00001001
00000000
00000110
00000000
00000001
00000100
00000010
00000100
,
00001000
00000100
00000001
00000010
00001000
00000010
00000001
00001000
,
00000001
00000100
00001000
00000000
00000100
00001000
00010000
00000000
,
00001000
00010000
01000000
00000000
00010000
01000000
10000000
00010000
,
10010000
00000000
01100000
00000000
10000000
00100000
00010000
00100000
,
10000000
02000000
00000000
03200000
00000000
00000000
00301000
00010000
,
00001000
00010000
00001000
00010000
00001000
00010000
00001000
00010000
,
00001000
00010000
00001000
00010000
00001000
00010000
00001000
00010000
,
00011000
00000000
00010100
00000000
00000010
00000001
00000100
00000001
,
00001000
00000020
00000000
00020030
00000000
00000000
00031000
00100000
,
01000000
10000000
00010000
00000000
01000000
00001000
00010000
00000000
,
00100000
01000000
10000000
00000000
01000000
00100000
00001000
00010000
,
00011000
00000000
00010100
00000000
00000010
00000001
00000010
00000000
,
00000001
00000100
00000020
00000000
00002030
00000000
00003002
00000000
,
00000003
00000200
00000300
00002000
,
00003000
00020000
00030000
02000000
,
13000000
00010000
10000000
00000000
00010000
10000000
00010000
00000000
,
01000000
00010000
20000000
00000000
30200000
00000000
00320000
00000000
,
00030000
00002000
00003000
00000020
,
00000030
00000000
00000001
00000000
00001000
00000001
00000100
00000001
,
00001000
00000100
00001000
00000100
00001000
00000100
00001000
00000100
,
00000020
00000000
00000000
00000000
00000031
00000100
00000000
00001010
,
00000000
00000000
00020200
00000000
00000000
00000000
00030300
00000000
00000000
00000000
00000000
00000000
00010000
00001000
00010000
00001000
,
00010000
00000000
00000000
00000000
00001000
00010000
00001000
00010000
00001000
00000000
00010000
00001000
00010000
00001000
00010000
00000000
,
00001000
00100000
01000000
11000000
00000000
00110000
00000000
11000000
,
00000000
00100000
00010000
00100000
01000000
10000000
00000000
11000000
,
00000000
00000000
00010000
20000000
00000000
30010000
10000000
00100000
,
01000000
00000000
00001000
00000000
00010000
00000010
00000000
00000010
,
00000100
00000001
00000010
00000011
00000000
00001100
00000000
00000011
,
00000000
00000100
00001000
00000100
00000010
00000011
00000000
00001100
,
00000000
00000000
00000010
00000100
00000000
00000010
00010000
00001000
,
00010000
00000100
00010000
00000100
00010000
00000100
00010000
00000100
,
00010000
00001000
01000000
00000000
00100000
10000000
00100000
02000000
,
00000000
00010000
03010000
00000000
10000000
01000000
00010000
00001000
,
00010000
00000000
00001000
00000000
00010000
00001000
00000010
00000001
,
00000000
00001001
00000000
00000101
00000000
00001100
00000000
00000000
,
00000001
00001000
00000001
00000000
00001000
00000100
00001000
00000000
,
00000100
00010000
00000100
00000000
00010000
00001000
00001000
00001000
,
00000000
00100000
00100000
00100000
00000000
01000000
01000000
01000000
,
00000000
00000000
10000000
00010000
00000000
00000000
00010000
10000000
00000000
00000000
10000000
00010000
10000000
00010000
10000000
00000000
,
00000000
00000000
00010000
01000000
00000000
01000000
00001000
00010000
,
00000100
00000000
00000100
00001000
00000000
00001000
00000010
00000100
,
00000001
00000010
00000001
00000000
00001000
00000010
00001000
00000000
,
00000100
00010000
00000100
00000000
00010000
00001000
00010000
00100000
,
10000000
00000000
00000000
00000000
10000000
01000000
00010000
00001000
,
00000100
00000002
00000000
00002003
00000000
00000000
00003010
00000010
,
00001000
00000100
00001000
00000000
00000100
00010000
00000100
00000000
,
00010000
00001000
00010000
00000000
00001000
00100000
00001000
00100000
,
01000000
10000000
00010000
10000000
00000000
00010000
00000000
01000000
,
00010000
00000000
00010000
00100000
00000000
00000000
01000000
10000000
,
00010000
00100000
00010000
00000000
01000000
00001000
01000000
00000000
,
00001000
00010000
00001000
00000000
00010000
00000100
00010000
00000010
,
00000100
00000000
00000000
00000000
00000001
00000100
00001000
00010000
,
01000000
20000000
00000000
30020000
00000000
00000000
01000000
01030000
,
00010000
00100000
00010000
00000000
00100000
00001000
00100000
00000000
,
00001000
00010000
00001000
00010000
00001000
00000000
00010000
00001000
,
00010000
00000000
00000000
00000000
00000010
00000100
00000001
00001000
,
00000001
00000200
00000000
00000320
00000000
00000000
00000100
00000130
,
00000000
00000000
00000000
00000000
,
00000000
00000000
00000000
00000000
00000100
00010000
00001000
00000000
,
01000000
00000000
00000000
00000000
00100000
10000000
01000000
00010000
,
01000000
10000000
00010000
00100000
01000000
10000000
01000000
00100000
,
00002000
00000000
00003000
00020000
00000000
00030000
00000020
00000000
,
00000030
00000200
00000000
00000300
00000001
00001000
00000001
00000000
,
00001000
00000100
00000010
00000011
00000000
00001100
00000000
00000011
,
00000000
00000100
00001000
00000100
00000010
00000001
00000000
00000011
,
00000000
00000000
00000100
00010000
00000000
00000000
00000100
00010000
00000000
00000000
00000000
00000000
00000000
00000000
00001000
01000000
,
00000000
00000000
00001000
01000000
00000000
00000000
00000000
00000000
00000000
00000000
00100000
00000000
10000000
00000000
00000000
00000000
,
00100000
10000000
01000000
11000000
00000000
00110000
00000000
11000000
,
00000000
00100000
00010000
00100000
01000000
11000000
00000000
00110000
,
00000000
00000000
01000000
00100000
00000000
01000000
00001000
00010000
,
00001000
00100000
00001000
00100000
00001000
00100000
00001000
00100000
,
00000000
00001000
00010000
00000000
00000100
00001000
00000100
00000010
,
00000000
00000001
00000001
00000000
00001000
00000100
00000010
00000001
,
00000000
00000000
00000000
00000000
00000010
00001000
00010000
00200000
,
00000000
20300000
00000000
30020000
00000000
20030000
00000000
30010000
,
10000000
01000000
00010000
00000000
00001000
00000100
00000001
00000000
,
00001000
00000010
00001000
00000010
00001000
00000001
00000001
00000001
,
00000000
00000100
00000100
00000100
00000000
00000010
00000010
00000010
,
00000000
00000000
00010000
00001000
00000000
00000000
00001000
00010000
00000000
00000000
00010000
00001000
00000000
00000000
01000000
00000000
,
00100000
00100000
00100000
00000000
00000000
00000000
00000000
00000000
;

//---------------dance-double - ----------------
#NOTES:
     dance-double:
     :
     Easy:
     8:
     0.422523,0.490140,0.053132,0.292224,0.000000,334.000000,328.000000,6.000000,33.000000,0.000000,0.000000,0.422523,0.490140,0.053132,0.292224,0.000000,334.000000,328.000000,6.000000,33.000000,0.000000,0.000000:
00000000
00000000
00000000
00000000
,
00000000
00000000
00000000
00000000
,
00000000
00000000
00000000
00000000
,
00000000
00000000
00000000
00000000
,
00000000
00000000
00000100
00001000
00000000
00000100
00000000
00001000
,
00000100
00000000
00010000
00001000
00000000
00010000
00000000
00001000
,
00010000
00010000
00001000
00001000
,
00100000
00100000
01000000
01000000
,
10000000
00010000
10000000
00000000
00000000
00000000
00000000
00000000
,
00000000
00000000
01100000
00000000
,
10000000
01000000
00010000
00001000
,
00010000
00001000
00000100
00000001
,
00001000
00001001
00000001
00000010
,
00000001
00000100
00000010
00000100
,
00000001
00000010
00001000
00010000
,
00001000
00010000
00100000
10000000
,
00010000
10000000
00100000
01000000
,
00200000
00000000
00000000
02300000
00000000
00000000
03002000
00020000
,
00000000
00000000
00000000
00000000
,
00000000
00000000
00000000
00033000
,
00011000
00000000
00010000
00000100
,
00000010
00000001
00001000
00000001
,
00000200
00000310
00000020
00010030
,
00020000
00031000
00002000
01003000
,
00100000
10000000
00000000
00010000
,
00000000
01000000
00010000
01010000
,
00000000
00100000
00000000
00001000
,
00000000
00010000
00000000
00000100
,
00000000
00000000
00000000
00000000
,
00000000
00001000
00000010
00001010
,
00000000
00000100
00000000
00010000
,
00000000
00000000
00000000
00000000
00000000
00001000
00010000
00001000
,
00010000
00010000
00001000
00001000
,
01000000
00000000
01000000
00000000
00100000
10000000
00000000
00010000
,
00000000
00010000
00000000
00000000
00000000
00000000
01000000
00200000
,
00000000
00000000
20300000
00000000
,
30000000
00010000
01000000
00010000
00000000
10000000
00000000
00010000
,
00000000
00010000
01000000
00010000
01000000
00010000
00000000
10000000
,
00000000
00000000
00010000
01000000
00000000
00010000
01000000
00010000
,
01000000
00000000
00001000
00000000
00000000
00010000
00000000
00000100
,
00000000
00001000
00000010
00001000
00000000
00000001
00000000
00001000
,
00000000
00001000
00000010
00001000
00000010
00001000
00000000
00000001
,
00000000
00000000
00001000
00000010
00000000
00001000
00000010
00001000
,
00000020
00000000
00000000
00000000
,
00000030
00000010
00000100
00000000
00000001
00000000
00001000
00000000
,
00000100
00000000
00010000
00000000
00001000
00010000
00001000
00010000
,
00000000
00000000
00000000
00000000
00000000
00100000
01000000
10000000
,
00000000
01000000
00000000
00100000
00000000
00010000
00000000
00000000
,
20000000
31000000
00020000
00031000
,
00000200
00000000
00000301
00000000
00001000
00000000
00000001
00001000
,
00000000
00000000
00000100
00010000
00000000
00000000
00001000
01000000
,
00000000
00100000
00100000
00100000
,
00000000
10000000
01000000
00100000
,
00010000
00100000
01000000
10000000
,
00020000
01030000
00020000
00130000
,
00020000
01030000
00001000
00010000
,
00000100
00000000
00000100
00001000
,
00000010
00000100
00000001
00001000
,
00000200
00000310
00000200
00001300
,
00000200
00000310
00000200
00001300
,
00000000
00000001
00000010
00000100
,
00001000
00000100
00000010
00000001
,
00002000
00003100
00002000
00003010
,
00002000
00003100
00010000
00001000
,
01000000
00000000
00100000
10000000
,
00010000
10000000
00100000
01000000
,
00200000
10300000
00200000
01300000
,
00200000
00000000
10300000
00010000
00000000
10000000
00010000
00000000
,
00000000
00000000
10000000
01000000
,
00020000
00000000
00000000
00032000
00000000
00000000
00003100
00000000
,
00000001
00000000
00000000
00000000
,
00000000
00000000
00000000
00000000
,
00001001
00000000
00000001
00000100
,
00001000
00010000
01000000
10000000
,
00020000
00000000
00000000
00230000
00000000
00000000
02300000
00000000
,
00000000
23000000
00000000
00000000
30010000
00100000
00010000
00000000
,
00000000
01000000
00010000
01000000
00000000
00100000
00000000
01000000
,
00000000
01000000
00010000
01000000
00010000
01000000
00000000
00100000
,
00000000
00001000
00010000
00000000
00001000
00010000
00000000
00001000
,
00010000
00000000
00001000
00010000
00000000
00001000
00010000
00000000
,
00000000
00000010
00000100
00000010
00000000
00001000
00000000
00000010
,
00000000
00000010
00000100
00000010
00000100
00000010
00000000
00001000
,
00000000
00000100
00010000
00001000
,
01000000
00100000
00100000
00100000
,
00000000
10000000
01000000
00000000
00100000
00000000
00010000
00000000
,
01000000
00001000
00010000
00010000
,
00000100
00000000
00000010
00000000
00000000
00000001
00001000
00000001
,
00000000
00000100
00000000
00001000
00000000
00010000
00000000
01000000
,
10000000
00010000
01000000
00100000
,
00010000
00000000
00001000
00000000
00010000
00000100
00001000
00001000
,
00000000
00000010
00000100
00000100
00000000
00000001
00001000
00001000
,
00000000
00000100
00000000
00000100
00000000
00000100
00010000
00000000
,
00001000
00100000
00001000
00000000
00000000
00000000
00000000
00000000
;

//---------------dance-double - ----------------
#NOTES:
     dance-double:
     :
     Medium:
     10:
     0.476920,0.571830,0.008855,0.345356,0.000000,377.000000,376.000000,1.000000,39.000000,0.000000,0.000000,0.476920,0.571830,0.008855,0.345356,0.000000,377.000000,376.000000,1.000000,39.000000,0.000000,0.000000:
// measure 0
00000000
00000000
00000000
00000000
,  // measure 1
00000000
00000000
00000000
00000000
,  // measure 2
00000000
00000000
00000000
00000000
,  // measure 3
00000000
00000000
00000000
00000000
,  // measure 4
00000000
00000000
10000000
01000000
00000000
00100000
01000000
10000000
,  // measure 5
00010000
00000000
01000000
00001000
00000000
00010000
00001000
01000000
,  // measure 6
00100000
00010000
00001000
00000100
,  // measure 7
00000001
00000000
00000010
00000000
00001000
00010000
00100000
00000000
,  // measure 8
10000000
10000000
10000000
00000000
00000000
00000000
00000000
00000000
,  // measure 9
00000000
00000000
00000000
00000000
00000001
00000000
00000000
00001000
,  // measure 10
00000100
00000000
00001000
00000000
00000010
00001000
00000010
00000000
,  // measure 11
00001000
00000000
00000100
00000000
00001000
00000010
00001000
00000000
,  // measure 12
00000010
00000000
00000100
00000000
00000001
00000010
00000001
00000000
,  // measure 13
00000100
00001000
00010000
01000000
,  // measure 14
10000000
00000000
00100000
00000000
10000000
00100000
10000000
00000000
,  // measure 15
00100000
00000000
10000000
00000000
00100000
10000000
00100000
00000000
,  // measure 16
01000000
00000000
00010000
00000000
00100000
00001000
00100000
00000000
,  // measure 17
00001000
00020000
00000000
00030200
00000000
00000000
00000310
00000001
,  // measure 18
00001000
00000001
00001000
00000001
,  // measure 19
00001000
00000001
00001000
00000001
,  // measure 20
00001001
00000100
00000010
00001000
,  // measure 21
00000001
00000010
00000000
00000200
00000000
00000000
00010300
00001000
,  // measure 22
00100000
01000000
00100000
01000000
,  // measure 23
10000000
00100000
10000000
00100000
,  // measure 24
00010000
00001000
00000000
00000010
,  // measure 25
00000000
00000001
00000200
00002300
,  // measure 26
00000000
00003200
00000000
00002300
,  // measure 27
00000000
00023000
00000000
02030000
,  // measure 28
13000000
00010000
00000000
01000000
,  // measure 29
00000000
00200000
00320000
00032000
,  // measure 30
00000000
00003020
00000000
00000032
,  // measure 31
00000000
00000000
00000003
00000000
00000000
00000001
00000100
00000001
,  // measure 32
00001000
00000000
00001000
00000000
00001000
00000000
00001000
00000100
,  // measure 33
00001000
00000000
00001000
00000000
00000100
00010000
00000000
00001000
,  // measure 34
00000000
00100000
00000000
00000000
00000000
00000000
01000000
10000000
,  // measure 35
02000000
00000000
03200000
00000000
,  // measure 36
00300000
00010000
01000000
00010000
00000000
10000000
00000000
00010000
,  // measure 37
00000000
00010000
01000000
00010000
01000000
00010000
00000000
10000000
,  // measure 38
00000000
00000000
00010000
01000000
00000000
00100000
10000000
00100000
,  // measure 39
10000000
00000000
01000000
00000000
00010000
00001000
00000000
00000100
,  // measure 40
00000000
00000001
00000010
00000001
00000000
00001000
00000000
00000001
,  // measure 41
00000000
00000001
00000010
00000001
00000010
00000001
00000000
00001000
,  // measure 42
00000000
00000000
00000001
00000100
00000000
00000010
00001000
00000010
,  // measure 43
00001000
00000100
00001000
00000000
00000100
00010000
00000100
00000000
,  // measure 44
00000000
00010000
00001000
00000000
01000000
00100000
01000000
00010000
,  // measure 45
00000000
00010000
10000000
00000000
10000000
01000000
00100000
00001000
,  // measure 46
00000000
00000000
00000000
00000000
00000000
00001000
00010000
00002000
,  // measure 47
00000000
00023000
00000000
00030020
00000000
00000230
00000000
00000000
,  // measure 48
00000301
00000001
00000100
00000100
,  // measure 49
00001000
00000000
00001000
00000000
00010000
01000000
10000000
01000000
,  // measure 50
00000000
10000000
00100000
10000000
00000000
00100000
00010000
00100000
,  // measure 51
00000000
00010000
00000000
00001000
00000000
00000010
00000000
00000000
,  // measure 52
00000000
00000000
00000001
00000100
00000000
00000001
00000000
00001000
,  // measure 53
00000010
00000000
00000000
00000100
00000000
00000000
00001000
00000000
,  // measure 54
00010000
00100000
00010000
00100000
,  // measure 55
10000000
01000000
10000000
01000000
,  // measure 56
00010000
00000000
00001000
00000000
00100000
01000000
10000000
01000000
,  // measure 57
00100000
00020000
00000000
02030000
00000000
00000000
03010000
01000000
,  // measure 58
00100000
00010000
00100000
00010000
,  // measure 59
00001000
00000010
00001000
00000010
,  // measure 60
00000000
00000000
00000001
00001000
00000000
00000100
00000000
00000010
,  // measure 61
00000001
00000000
00000000
00000020
00000000
00000000
00000130
00001000
,  // measure 62
00000000
00000000
00000100
00010000
00000000
00000000
00001000
00010000
,  // measure 63
00000000
00001000
01000000
00100000
,  // measure 64
10000000
00000000
00000000
00000000
00010000
00100000
01000000
10000000
,  // measure 65
01000000
00200000
00000000
00320000
00000000
00030000
10000000
00010000
,  // measure 66
10000000
01000000
10000000
01000000
,  // measure 67
00010000
00001000
00000100
00000001
,  // measure 68
00000000
00000000
00000000
00000000
00000001
00000010
00000100
00001000
,  // measure 69
00000100
00000010
00000000
00000200
00000000
00000300
00001000
00000010
,  // measure 70
00000000
00000000
00000000
00000000
,  // measure 71
00000000
00000000
00000000
00000000
,  // measure 72
00000000
00000000
00000000
00000000
10000000
00010000
00100000
00010000
,  // measure 73
01000000
00100000
01000000
00100000
10000000
01000000
00100000
00010000
,  // measure 74
02000000
00000000
00000000
03002000
00000000
00000000
00023000
00000000
,  // measure 75
00000000
00030020
00000000
00000000
00000130
00000001
00001000
00000000
,  // measure 76
00000000
00000010
00001000
00000010
00000000
00000100
00000000
00000010
,  // measure 77
00000000
00000010
00001000
00000010
00001000
00000010
00000000
00000100
,  // measure 78
00000000
00000020
00000000
00000000
00020030
00000000
00000000
00032000
,  // measure 79
00000000
02003000
00000000
00000000
03200000
00000000
00000000
00300000
,  // measure 80
00000000
01000000
00010000
01000000
00000000
00100000
00000000
01000000
,  // measure 81
00000000
01000000
00010000
01000000
00010000
01000000
00000000
00100000
,  // measure 82
10000000
01000000
00010000
00001000
,  // measure 83
00000100
00000001
00000100
00000001
,  // measure 84
00000000
00001000
00000010
00000000
00001000
00000100
00001000
00000100
,  // measure 85
00000000
00000100
00010000
00000000
00001000
00100000
01000000
10000000
,  // measure 86
00000000
00000000
00000000
00000000
00000000
10000000
00010000
20000000
,  // measure 87
00000000
30200000
00000000
00320000
00000000
00032000
00000000
00000000
,  // measure 88
00003010
00000001
00000010
00000001
,  // measure 89
00000100
00000000
00000010
00000000
00000100
00000001
00001000
00000001
,  // measure 90
00000000
00000100
00001000
00000100
00000000
00001000
00010000
00001000
,  // measure 91
00000000
01000000
00000000
10000000
00000000
00010000
00000000
10000000
,  // measure 92
01000000
00010000
00001000
00000000
00000000
00000000
00000000
00000000
;
