#TITLE:Around the World;
#SUBTITLE:;
#ARTIST:Aqua;
#TITLETRANSLIT:;
#SUBTITLETRANSLIT:;
#ARTISTTRANSLIT:;
#GENRE:Pop;
#CREDIT:;
#BANNER:aroundtheworld-bn.png;
#BACKGROUND:aroundtheworld-bg.png;
#LYRICSPATH:;
#CDTITLE:;
#MUSIC:Around the World.mp3;
#OFFSET:-0.045000;
#SAMPLESTART:48.285000;
#SAMPLELENGTH:11.999990;
#SELECTABLE:YES;
#BPMS:0.000000=130.000000
;
#STOPS:
;
#BGCHANGES:;
#KEYSOUNDS:;
#ATTACKS:;

//---------------dance-single - ----------------
#NOTES:
     dance-single:
     :
     Hard:
     13:
     0.535906,0.575839,0.194035,0.032339,0.291053,464.000000,440.000000,24.000000,4.000000,0.000000,0.000000,0.535906,0.575839,0.194035,0.032339,0.291053,464.000000,440.000000,24.000000,4.000000,0.000000,0.000000:
0000
0000
0000
0000
,
0000
0000
0000
0000
,
0000
0000
0000
0000
,
0000
0000
0000
0000
,
0000
0000
0100
0000
0001
0000
1000
0000
0002
0000
0000
0000
0013
0100
0010
0001
,
0100
0000
0010
0000
1000
0010
0000
0000
,
0101
0000
0001
1000
0000
0100
0010
0100
,
1000
0000
1001
0000
0010
1000
0000
0000
,
1010
0000
0000
0000
1000
0000
0001
0000
0100
0000
0000
0000
0100
0000
0001
1000
,
0001
0000
0010
0000
0001
0000
0010
0001
0010
0000
0100
0000
1000
0000
0100
1000
,
0100
0000
1000
0000
0010
0000
1000
0010
1000
0000
0001
0000
0100
0000
0001
0100
,
0001
0000
0100
0000
0010
0000
0100
0010
0100
0000
0001
0000
1000
0000
0001
1000
,
0001
0000
0010
0000
0100
0000
1000
0001
1000
0000
0001
0000
0100
0010
1000
0001
,
1000
0000
0100
0000
1000
0000
0100
1000
0100
0000
0010
0000
0001
0000
0010
0001
,
0010
0000
0001
0000
0100
0000
0001
0100
0001
0000
1000
0000
0010
0000
1000
0010
,
1000
0000
0010
0000
0100
0000
0010
0100
0010
0000
1000
0000
0001
0000
1000
0001
,
1000
0000
0100
0000
0010
0000
0100
0010
0001
0000
0010
0000
0100
0000
1000
0000
,
0000
0010
0100
0010
0001
0010
1000
0001
,
0100
0100
0000
1001
0000
0001
0010
0001
,
0000
0010
0001
0100
0110
0000
0010
1000
,
0100
0000
0000
1000
0000
0000
0010
0000
0000
0000
1000
0000
0100
0000
0001
0000
,
0000
0100
1000
0100
0010
0100
0001
0100
,
1000
0001
0000
1001
0000
1000
0010
1000
,
0001
0011
0000
0001
0100
1000
0100
0001
,
1000
1100
0000
1000
0010
0001
0010
1000
,
0001
0011
0000
0001
0010
1000
0010
0001
,
0000
0000
1000
0000
0001
0000
0100
0000
0110
0000
0000
0000
0001
0000
1000
0001
,
1000
0000
0000
1000
0100
0000
0000
0100
0010
0000
0000
0010
0100
0000
0000
0100
,
1000
0000
0000
0000
0001
0000
1000
0000
0010
0000
0100
0000
0001
0010
0100
1000
,
0001
0000
0000
0001
0010
0000
0000
0010
0100
0000
0000
0100
0010
0000
0000
0010
,
0001
0000
0100
0000
0010
0000
1000
0000
1010
0000
0000
0000
1000
0100
0010
0001
,
0100
0000
0000
0100
0010
0000
0000
0010
1000
0000
0000
1000
0010
0000
0000
0010
,
0100
0001
0100
0001
0010
0001
0010
0000
,
0011
0000
0100
1000
0010
0010
0000
0100
,
0010
0000
1000
0000
0100
0000
0010
0000
0001
0000
0000
0000
0001
0010
0100
1000
,
0001
0000
0000
0001
1000
0000
0000
1000
0100
0000
0000
0100
1000
0000
0000
1000
,
0001
0000
0000
0000
1000
0000
0010
0000
0100
0000
0010
0000
1000
0100
0010
0001
,
1000
0000
0000
1000
0001
0000
0000
0001
0100
0000
0000
0100
0001
0000
0000
0001
,
1000
0000
0001
0000
0010
0000
0100
0000
1100
0000
0000
0000
0010
0001
1000
0100
,
0010
0000
0000
0010
0001
0000
0000
0001
1000
0000
0000
1000
0001
0000
0000
0001
,
0010
0000
0100
1000
0010
0100
0101
0000
,
1010
0000
1000
0001
0010
0010
0000
0000
,
1100
0000
1000
0001
0000
0100
0010
1000
,
0001
0100
0001
0100
0001
0100
0001
0100
,
0010
1000
0010
1000
0010
1000
0010
1000
,
0100
0010
0100
0010
0100
0010
0100
0010
,
0001
1000
0001
1000
0001
0200
0000
0310
,
1000
0100
0001
0100
1000
0100
0001
0100
,
1000
0010
0001
0010
1000
0010
0001
0010
,
0100
0001
0100
1000
0100
0001
0100
0010
,
1000
0100
0001
0100
1000
0100
0001
0100
,
1000
0010
0010
0000
0100
0100
0000
0000
,
1001
0000
0000
0000
0010
0100
0001
0000
0000
0000
0000
0000
0010
0100
1000
0000
,
1001
0000
0000
0000
,
0000
1000
0010
1000
1100
0000
0010
0001
,
0100
0000
0000
0100
0001
0000
0000
0001
0010
0000
0000
0010
0001
0000
0000
0001
,
0100
0000
0000
0000
0010
0000
1000
0000
1001
0000
0000
0000
0100
0010
0100
0000
,
0010
0000
0000
0010
1000
0000
0000
1000
0100
0000
0000
0100
1000
0000
0000
1000
,
0010
0000
0100
0000
0001
0000
1000
0000
1001
0000
0000
0000
0010
0100
0001
1000
,
0001
0000
0000
0001
0010
0000
0000
0010
0100
0000
0000
0100
1000
0000
0000
1000
,
0001
0000
0100
0010
0000
0010
1000
0010
,
0100
0000
0001
0100
0000
0010
0000
1010
,
0000
0100
0000
0101
0000
0001
1000
0010
,
0210
0000
1000
0000
0000
0010
0000
0000
,
0002
0000
0000
0303
;

//---------------dance-single - ----------------
#NOTES:
     dance-single:
     :
     Medium:
     9:
     0.389225,0.418792,0.218289,0.161696,0.012127,337.000000,310.000000,27.000000,20.000000,0.000000,0.000000,0.389225,0.418792,0.218289,0.161696,0.012127,337.000000,310.000000,27.000000,20.000000,0.000000,0.000000:
0000
0000
0000
0000
,
0000
0000
0000
0000
,
0000
0000
0000
0000
,
0000
0000
0000
0000
,
0000
1000
0100
0001
0100
0000
1000
0001
,
0000
0000
0100
0000
0010
1000
0000
0000
,
0100
0000
0010
0001
0000
1001
0000
0110
,
0000
0000
0100
0000
0001
1000
0000
0000
,
0010
0010
0100
0100
,
0001
0010
0001
0100
0001
0010
0001
0100
,
0001
0000
0000
0010
0000
0000
0100
0000
0000
0000
0000
0000
0000
0000
0000
0000
,
1100
0000
0100
0010
0000
0010
0001
0000
,
1000
0000
0001
0000
0010
0000
1100
0100
,
1000
0010
1000
0100
1000
0010
1000
0100
,
1000
0000
0000
0010
0000
0000
0100
0000
0000
0000
0000
0000
0000
0000
0100
0000
,
0001
0000
0001
0010
0000
0010
0100
0000
,
1000
0000
0100
0000
0010
0001
1000
0001
,
0010
0100
1000
0100
0010
0100
1000
0100
,
0010
0001
0000
0011
0000
1000
0001
1000
,
0000
0001
1000
0001
1000
0000
0100
0010
,
0001
0000
0000
0010
0000
0000
0100
0000
0000
0000
2002
0000
0000
0000
3003
0000
,
0000
0010
0100
0010
1000
0010
0100
0010
,
1000
0100
0000
1100
0000
0010
0001
0010
,
0000
0101
0000
0010
1000
0010
1000
0010
,
0000
1100
0000
0010
0001
0010
0001
0010
,
0000
1001
0000
1000
0010
0001
0010
1000
,
0000
0001
0010
0100
1000
0000
0001
1000
,
1001
0000
0200
0000
0000
0002
0000
0303
,
0101
0000
0010
1000
0010
0100
0000
0020
,
0000
0030
2000
0000
0000
0200
0000
3300
,
1100
1000
0100
0010
0001
0000
1000
0001
,
0000
0000
0002
0000
0000
0200
0000
0303
,
0101
0001
0100
0010
1000
0001
1000
0000
,
1100
0000
0010
0001
0100
0010
0000
0000
,
1000
0010
0100
0001
0010
0000
0100
1000
,
0000
0000
0020
0000
0000
2000
0000
3030
,
1010
0000
1000
0010
0100
0001
0010
0100
,
0000
0000
2000
0000
0000
0002
0000
3003
,
1001
1000
0001
0100
0010
0000
0010
0100
,
0000
0000
0002
0000
0000
0020
0000
0033
,
0011
0000
0001
0100
0010
0100
0001
0000
,
1001
0000
1000
0100
0010
0100
0000
0000
,
1000
0000
1000
0010
0000
0000
0100
0001
,
0010
0100
1000
0000
0100
1000
0100
1000
,
0000
0001
0010
0000
0001
0000
0010
0001
,
1000
0100
1000
0100
1000
0100
1000
0100
,
0000
0000
0000
0000
0000
0011
0000
0011
,
0001
0100
0010
0000
1000
0100
0010
0001
,
0000
0001
0100
0010
1000
0000
1000
0001
,
0100
0010
1000
0010
0100
0001
0010
0001
,
1000
0010
0100
0001
1000
0000
1000
0001
,
0010
1000
0010
0000
0001
0010
0000
0000
,
1100
0000
1000
0010
0000
0000
0100
0001
,
1001
0000
0000
0000
,
0000
0001
0010
0001
1000
0000
1000
0100
,
0010
0100
1000
0000
0100
0010
0000
0100
,
1000
0000
0010
0100
0002
0000
0000
0000
,
0013
0001
0100
0000
0001
0010
0000
0001
,
0100
0010
1000
0001
1000
0000
0010
0100
,
0001
0010
0100
0000
0010
0001
0000
0010
,
0100
0000
0000
0000
,
1001
0000
1000
0100
0000
0011
0000
0101
,
0000
0010
0000
2020
0000
0000
3030
0000
,
0001
0000
0010
0000
0000
1000
0000
0000
,
0200
0002
0000
0303
;

//---------------dance-single - ----------------
#NOTES:
     dance-single:
     :
     Easy:
     5:
     0.210205,0.261745,0.040424,0.032339,0.000000,182.000000,177.000000,5.000000,4.000000,0.000000,0.000000,0.210205,0.261745,0.040424,0.032339,0.000000,182.000000,177.000000,5.000000,4.000000,0.000000,0.000000:
0000
0000
0000
0000
,
0000
0000
0000
0000
,
0000
0000
0000
0000
,
0000
0000
0000
0000
,
0000
0001
0010
0100
,
1000
0000
0000
0000
,
0000
0000
0000
0000
0000
0010
0000
0010
,
0000
0000
0000
0000
,
0000
0000
1000
0100
,
1000
0010
1000
0010
,
1000
0100
1000
0000
,
1000
0100
0010
0001
,
0000
0000
0000
0000
,
0001
0010
0001
0010
,
0001
0100
0001
0000
,
0001
0010
0100
1000
,
0000
0000
0000
1000
,
0010
0100
0010
0100
,
0001
0100
0000
0000
,
0100
0010
0100
0010
,
1000
0010
0000
0000
,
1000
0100
1000
0100
,
1000
0010
0000
0000
,
0000
1001
0000
0000
0001
0000
1000
0000
,
0000
0110
0000
0000
0010
0000
0100
0000
,
0000
1001
0000
0000
1000
0000
0001
0000
,
0000
1000
0100
0010
,
0001
0000
1000
0000
0000
0001
0000
0000
,
1000
0001
0010
0100
,
1000
0000
0001
0000
0000
1000
0000
0000
,
0001
0100
0010
1000
,
0001
0000
0100
0000
0000
0010
0000
0000
,
0100
0010
0100
0001
,
1000
0010
0000
0000
,
0000
1000
0010
0100
,
0001
0000
1000
0000
0000
0001
0000
0000
,
1000
0001
0100
0010
,
1000
0000
0001
0000
0000
1000
0000
0000
,
0001
0100
0010
1000
,
0001
0000
0100
0000
0000
0010
0000
0000
,
0100
0010
1000
0001
,
0100
0001
0000
0000
,
0000
0000
0000
0000
,
1001
1000
0100
1000
,
0100
0001
0010
0001
,
0010
1000
0100
1000
,
0100
0000
0000
0000
0000
0010
0000
0010
,
0000
0001
0100
0001
,
0100
1000
0010
1000
,
0010
0001
0100
0001
,
0100
1000
0010
1000
,
0010
0000
1000
0000
0000
0001
0000
0000
,
0100
0000
0000
0010
0000
0000
0100
0000
,
0110
0000
0000
0000
,
0000
0001
1000
0001
,
1000
0000
0100
0000
0000
0010
0000
0000
,
0001
0100
0002
0000
,
0003
0000
0010
0000
0000
0100
0000
0000
,
1000
0010
1000
0010
,
1000
0000
0010
0000
0000
0100
0000
0000
,
0001
0000
0000
0000
,
0001
0000
0000
0010
0000
0100
0000
1000
,
0000
0010
0000
0200
0000
0000
0000
0000
,
0301
0000
1000
0000
0000
0100
0000
0000
,
0020
0002
0000
0033
;

//---------------dance-single - ----------------
#NOTES:
     dance-single:
     :
     Beginner:
     2:
     0.099327,0.157047,0.008085,0.016170,0.000000,86.000000,85.000000,1.000000,2.000000,0.000000,0.000000,0.099327,0.157047,0.008085,0.016170,0.000000,86.000000,85.000000,1.000000,2.000000,0.000000,0.000000:
0000
0000
0000
0000
,
0000
0000
0000
0000
,
0000
0000
0000
0000
,
0000
0000
0000
0000
,
0000
0100
0100
0100
,
0100
0000
0000
0000
,
0000
0000
0000
1000
,
1000
0000
0000
0000
,
0000
0000
0001
0001
,
0001
0000
0100
0000
,
0001
0000
0000
0000
,
1000
0000
0010
0000
,
0000
0000
0000
0000
,
1000
0000
0100
0000
,
1000
0000
0000
0000
,
0001
0000
0010
0000
,
0000
0000
0000
0001
,
0001
0000
0000
0000
,
1000
0000
0000
0010
,
0010
0000
0000
0000
,
0100
0000
0000
0001
,
0001
0000
0000
0000
,
0010
0000
0000
0100
,
0100
0000
0000
0000
,
1000
0000
0000
0000
,
0001
0000
0000
0000
,
0000
0010
0010
0010
,
0010
0000
0000
0000
,
0000
0001
0001
0000
,
0000
0000
0000
0000
,
0000
1000
1000
1000
,
1000
0000
0000
0000
,
0000
0100
0000
0010
,
0000
0000
0000
0000
,
0000
0001
0001
0001
,
0001
0000
0000
0000
,
0000
0000
0010
0010
,
0000
0000
0000
0000
,
0000
0100
0100
0100
,
0100
0000
0000
0000
,
0000
1000
1000
1000
,
1000
0000
0000
0000
,
0000
0000
0000
0000
,
0010
0010
0000
0000
,
0000
0100
0000
0000
,
0000
0010
0000
0000
,
0000
0000
0000
1000
,
1000
0000
0000
0000
,
0000
0001
0000
0000
,
0000
1000
0000
0000
,
0000
0001
0000
0000
,
0000
1000
0000
0000
,
0001
0000
0000
0000
,
0100
0000
0000
0000
,
0000
0010
0010
0010
,
0010
0000
0000
0000
,
0000
1000
2000
0000
,
3000
0000
0000
0000
,
0000
0001
0001
0001
,
0001
0000
0000
0000
,
0000
0000
0000
0000
,
0100
0000
0010
0000
,
1000
0000
0001
0000
,
1001
0000
0000
0000
,
0020
0000
0000
0030
;

//---------------dance-double - ----------------
#NOTES:
     dance-double:
     :
     Easy:
     2:
     0.075073,0.104698,0.000000,0.016170,0.000000,65.000000,65.000000,0.000000,2.000000,0.000000,0.000000,0.075073,0.104698,0.000000,0.016170,0.000000,65.000000,65.000000,0.000000,2.000000,0.000000,0.000000:
// measure 0
00000000
00000000
00000000
00000000
,  // measure 1
00000000
00000000
00000000
00000000
,  // measure 2
00000000
00000000
00000000
00000000
,  // measure 3
00000000
00000000
00000000
00000000
,  // measure 4
00000000
10000000
10000000
10000000
,  // measure 5
10000000
00000000
00000000
00000000
,  // measure 6
00000000
00000000
00000000
00010000
,  // measure 7
00000000
00000000
00000000
00000000
,  // measure 8
00000000
00000000
01000000
01000000
,  // measure 9
01000000
00000000
00000000
00000000
,  // measure 10
00001000
00000000
00000000
00000000
,  // measure 11
00010000
00000000
00000000
00000000
,  // measure 12
00000000
00000000
00000000
00000000
,  // measure 13
00000100
00000000
00000000
00000000
,  // measure 14
00001000
00000000
00000000
00000000
,  // measure 15
00000010
00000000
00000000
00000000
,  // measure 16
00000000
00000000
00000000
00010000
,  // measure 17
00010000
00000000
00000000
00000000
,  // measure 18
00001000
00000000
00000000
01000000
,  // measure 19
01000000
00000000
00000000
00000000
,  // measure 20
00100000
00000000
00000000
10000000
,  // measure 21
10000000
00000000
00000000
00000000
,  // measure 22
00010000
00000000
00000000
00100000
,  // measure 23
00100000
00000000
00000000
00000000
,  // measure 24
00001000
00000000
00000000
00000000
,  // measure 25
00010000
00000000
00000000
00000000
,  // measure 26
00000000
00000010
00000000
00000000
,  // measure 27
00000010
00000000
00000000
00000000
,  // measure 28
00000000
00000100
00000000
00000000
,  // measure 29
00000100
00000000
00000000
00000000
,  // measure 30
00000000
00000001
00000000
00000000
,  // measure 31
00000001
00000000
00000000
00000000
,  // measure 32
00000000
00001000
00000000
00000000
,  // measure 33
00001000
00000000
00000000
00000000
,  // measure 34
00000100
00000000
00010000
00000000
,  // measure 35
00001000
00000000
00000000
00000000
,  // measure 36
00000000
01000000
00000000
00000000
,  // measure 37
01000000
00000000
00000000
00000000
,  // measure 38
00000000
00010000
00000000
00000000
,  // measure 39
00010000
00000000
00000000
00000000
,  // measure 40
00000000
10000000
00000000
00000000
,  // measure 41
10000000
00000000
00000000
00000000
,  // measure 42
00000000
00000000
00000000
00000000
,  // measure 43
00010000
00000000
00000000
00000000
,  // measure 44
00001000
00000000
00000000
00000000
,  // measure 45
00000001
00000000
00000000
00000000
,  // measure 46
00000000
00000000
00000000
00000000
,  // measure 47
00001000
00000000
00000000
00000000
,  // measure 48
00010000
00000000
00000000
00000000
,  // measure 49
10000000
00000000
00000000
00000000
,  // measure 50
00000000
00000000
00000000
00000000
,  // measure 51
00100000
00000000
00000000
00000000
,  // measure 52
01000000
00000000
00001000
00000000
,  // measure 53
00010000
00000000
00000000
00000000
,  // measure 54
00000000
00000010
00000000
00000000
,  // measure 55
00000010
00000000
00000000
00000000
,  // measure 56
00000000
00010000
00000000
00000000
,  // measure 57
00010000
00000000
00000000
00000000
,  // measure 58
00000000
00001000
00000000
00000000
,  // measure 59
00001000
00000000
00000000
00000000
,  // measure 60
00000000
00000000
00000000
00000000
,  // measure 61
01000000
00000000
00100000
00000000
,  // measure 62
10000000
00000000
00010000
00000000
,  // measure 63
00000000
00200000
00000000
00000000
,  // measure 64
00002000
00000000
00000000
00303000
;

//---------------dance-double - ----------------
#NOTES:
     dance-double:
     :
     Hard:
     13:
     0.531286,0.575839,0.396155,0.048509,0.133399,460.000000,411.000000,49.000000,6.000000,0.000000,0.000000,0.531286,0.575839,0.396155,0.048509,0.133399,460.000000,411.000000,49.000000,6.000000,0.000000,0.000000:
00000000
00000000
00000000
00000000
,
00000000
00000000
00000000
00000000
,
00000000
00000000
00000000
00000000
,
00000000
00000000
00000000
00000000
,
00000000
00000001
00000010
00001000
00010000
00000000
00001000
01000000
,
00100000
00000000
11000000
00000000
00010000
00100000
00000000
00000000
,
01100000
00000000
00100000
00010000
00000000
01000000
00100000
00010000
,
00001000
00000000
00010000
00000000
00000010
00000100
00000000
00000000
,
00000101
00001010
00001001
00000110
,
00000001
00000000
00001000
00000000
00000001
00000000
00001000
00000001
00001000
00000000
00000100
00000000
00001000
00000000
00000100
00010000
,
00000100
00000000
00010000
00000000
00000100
00000000
00010000
00001000
00010000
00000000
00001000
00000000
00010000
00000000
00001000
01000000
,
00001000
00000000
01000000
00000000
00001000
00000000
01000000
00100000
01000000
00000000
00100000
00000000
01000000
00000000
00100000
10000000
,
00100000
00000000
10000000
00000000
00100000
00000000
10000000
00010000
10000000
00000000
00010000
00000000
10000000
01000000
00100000
00010000
,
01000000
00000000
00001000
00000000
01000000
00000000
00001000
00010000
00001000
00000000
00010000
00000000
00001000
00000000
00010000
00000100
,
00010000
00000000
00000100
00000000
00010000
00000000
00000100
00001000
00000100
00000000
00001000
00000000
00000100
00000000
00001000
00000010
,
00001000
00000000
00000010
00000000
00001000
00000000
00000010
00000100
00000010
00000000
00000100
00000000
00000010
00000000
00000100
00000001
,
00000100
00000000
00000001
00000000
00000100
00000000
00000001
00001000
00000001
00000000
00000100
00000000
00001000
00000000
00010000
00000000
,
00001000
00010000
01000000
00010000
01000000
10000000
01000000
10000000
,
00010000
00010000
00000000
10010000
00000000
10000000
01000000
00010000
,
00001000
00000100
00001000
00000100
00000001
00000000
00001000
00000001
,
00001000
00000000
00000000
00000010
00000000
00000000
00000100
00000000
00000000
00000000
00000001
00000000
00000100
00000000
00001000
00000000
,
00010000
00001000
00010000
00001000
00010000
01000000
00010000
01000000
,
10000000
10000000
00000000
10010000
00000000
10000000
00100000
00010000
,
00001000
00010000
00000000
00010100
00000100
00001000
00000010
00000100
,
00000001
00000011
00000000
00000010
00001000
00010000
00100000
10000000
,
00010000
10010000
00000000
10000000
01000000
00010000
00001000
00000100
,
00000000
00000001
00001000
00000001
00000101
00000000
00000001
00001000
,
00000010
00000000
00001100
00000000
00000100
00001100
00000000
00000100
,
00001100
00000000
00000000
00000000
00000100
00000000
00010000
00000000
00001000
00000000
01000000
00000000
00100000
10000000
00100000
10000000
,
00100000
00000000
11000000
00000000
10000000
11000000
00000000
10000000
,
11000000
00000000
01000000
00000000
00100000
00000000
00001000
00000000
00010000
00000000
00000000
00000000
00000010
00001000
00000010
00001000
,
00000010
00000000
00000110
00000000
00000100
00000110
00000000
00000100
,
00000110
00000010
00001000
00000001
00000100
00001000
00010000
00000000
,
01010000
00000000
10000000
00010000
10000000
10000000
00000000
00000000
,
01010000
00000000
00010000
00000000
00100000
00000000
01000000
00000000
10000000
00000000
00000000
00000000
00010000
00100000
00010000
00100000
,
00010000
00000000
01010000
00000000
00010000
01010000
00000000
00010000
,
01010000
00000000
00000000
00000000
01000000
00000000
00100000
00000000
00010000
00000000
00001000
00000000
00000010
00000001
00000010
00000001
,
00000010
00000000
00000101
00000000
00000100
00000101
00000000
00000100
,
00000101
00000000
00000001
00000000
00001000
00000000
00010000
00000000
01000000
00000000
00000000
00000000
10000000
00010000
10000000
00010000
,
10000000
00000000
00110000
00000000
00010000
00110000
00000000
00010000
,
00110000
00000000
10000000
01000000
00010000
00001000
00000100
00000000
,
00000101
00000000
00000010
00001000
00000100
00000100
00000000
00000000
,
00011000
00000000
00001000
00010000
00000000
00010000
00001000
00000100
,
00000001
00000010
00000001
00000010
00000001
00000010
00000001
00000010
,
00001000
00010000
00001000
00010000
00001000
00010000
00001000
00010000
,
00100000
10000000
00100000
10000000
00100000
10000000
00100000
10000000
,
01000000
00010000
01000000
00010000
01000000
00010000
00000000
00001000
,
00000100
00000001
00000100
00001000
00000100
00000001
00000100
00000100
,
00001000
00010000
01000000
10000000
01000000
00010000
01000000
01000000
,
00010000
00001000
00000100
00000001
00000100
00001000
00000100
00000100
,
00001000
00010000
01000000
10000000
01000000
00010000
00001000
00000100
,
00000001
00001000
00000100
00000000
00000100
00010000
00000000
00000000
,
00011000
00000000
00000000
00000000
00001000
00100000
01000000
00000000
00000000
00000000
00000000
00000000
10000000
01000000
00100000
00000000
,
00101000
00000000
00000000
00000000
,
00000000
00000000
00001000
00000000
00010000
00000000
00000010
00000100
00000010
00000000
00000000
00000000
00000100
00000010
00000100
00000000
,
00000001
00000000
00001100
00000000
00000001
00000101
00000000
00001000
,
00001100
00000000
00000010
00000100
00002000
00000000
00013000
01000000
,
10000000
00000000
10100000
00000000
00010000
00110000
00000000
10000000
,
10100000
00000000
10000000
00000000
01000000
00000000
00010000
00000000
00001000
00000000
00000000
00000000
00000100
00000001
00000100
00000001
,
00000100
00000000
00000011
00000000
00001000
00001010
00000000
00000001
,
00000011
00000000
00000001
00001000
00000000
00000100
00000010
00001000
,
00020000
00000000
00130000
10000000
00000000
10010000
00000000
01001000
,
00000000
00011000
00000000
00010100
00000000
00000010
00000001
00000010
,
00000001
00000000
00000200
00000000
00000000
00002300
00000000
00000000
,
00023000
02000000
00000000
03030000
;

//---------------dance-double - ----------------
#NOTES:
     dance-double:
     :
     Medium:
     8:
     0.331477,0.366443,0.121272,0.250629,0.012127,287.000000,272.000000,15.000000,31.000000,0.000000,0.000000,0.331477,0.366443,0.121272,0.250629,0.012127,287.000000,272.000000,15.000000,31.000000,0.000000,0.000000:
00000000
00000000
00000000
00000000
,
00000000
00000000
00000000
00000000
,
00000000
00000000
00000000
00000000
,
00000000
00000000
00000000
00000000
,
00000000
00010000
01000000
00010000
10000000
00000000
01000000
00100000
,
00000000
00000000
00000000
00000000
,
00000000
00000000
00000000
00000000
00000000
00001000
00000000
00010000
,
00000000
00000000
00000000
00000000
,
00000010
00000010
00000100
00000100
,
00000001
00000010
00001000
00010000
,
00100000
00000000
00000000
10000000
00000000
00000000
00100000
00000000
00000000
00000000
00000000
00000000
00000000
00000000
00000000
00000000
,
20000000
00000000
30010000
20000000
00000000
30010000
20000000
00000000
,
30010000
00000000
01000000
00000000
00010000
00000000
01000000
00100000
,
10000000
01000000
00010000
00001000
,
00000100
00000000
00000000
00000001
00000000
00000000
00000100
00000000
00000000
00000000
00000000
00000000
00000000
00000000
00000000
00000000
,
00000002
00000000
00001003
00000002
00000000
00001003
00000002
00000000
,
00000103
00000000
00000010
00000000
00000100
00000001
00000100
00000001
,
00000100
00000010
00001000
00000010
,
00000100
00001000
00000000
00010000
00000000
01000000
10000000
01000000
,
00000000
10000000
00010000
10000000
00010000
00000000
10000000
00010000
,
01000000
00000000
00000000
01000000
00000000
00000000
01000000
00000000
00000000
00000000
00100000
00000000
00000000
00000000
00000000
00000000
,
10000000
00010000
01000000
00100000
,
00010000
00001000
00000000
00000100
00000000
00000001
00000100
00000001
,
00000000
00001000
00000000
00000001
00000100
00000001
00000100
00000001
,
00000000
00001000
00000000
00000001
00000100
00000001
00000100
00000001
,
00000000
00001000
00000000
00000010
00010000
00001000
00010000
00000010
,
00000000
00001000
00000100
00010000
00001000
00000000
00100000
01000000
,
10000000
00000000
02000000
00000000
00000000
00200000
00000000
03300000
,
01100000
00000000
00100000
00001000
00100000
00001000
00000000
00010000
,
00000010
00000000
00000200
00000000
00000000
00000020
00000000
00000330
,
00000110
00000000
00000001
00000100
00000010
00000000
00010000
00001000
,
01000000
00000000
00200000
00000000
00000000
02000000
00000000
03300000
,
01100000
00000000
00100000
10000000
00010000
00000000
10010000
00000000
,
10000000
00000000
01000000
00010000
00000000
00001000
00000000
00000100
,
00000001
00001000
00000001
00001000
00000001
00000000
00000100
00000010
,
00001000
00000000
00000002
00000000
00000000
00002000
00000000
00003003
,
00001001
00000000
00000100
00010000
00000100
00010000
00001000
01000000
,
00100000
00000000
20000000
00000000
00000000
00020000
00000000
30030000
,
10010000
00000000
01000000
00100000
00001000
00000000
00010000
00000010
,
00000100
00000000
00000002
00000000
00000000
00002000
00000000
00003003
,
00001001
00000000
00000001
00000100
00000010
00001000
00001001
00000000
,
00000010
00000000
00010000
00001000
00010000
00010000
00000000
00000000
,
00001000
00000000
00100000
01000000
00000000
00000000
10000000
00010000
,
00000000
10000000
01000000
00000000
10000000
01000000
10000000
01000000
,
00000000
00010000
00001000
00000000
00000100
00000000
00000001
00001000
,
00000000
00000001
00000100
00000001
00000100
00000001
00000100
00001000
,
00000000
00000000
00000000
00000000
00000000
00010000
00000000
01000000
,
00000000
10000000
01000000
00000000
10000000
01000000
10000000
01000000
,
00000000
00010000
00001000
00000000
00000100
00000000
00000001
00001000
,
00000000
00000001
00000100
00000001
00000100
00000001
00000100
00001000
,
00000000
00010000
01000000
00000000
10000000
00000000
00010000
10000000
,
00000000
00100000
00010000
00000000
00001000
00000010
00000000
00000000
,
00001001
00000000
00000010
00000100
00000000
00000000
00000100
00000010
,
00000000
00000000
00000000
00000000
,
00000000
00000001
00000010
00000001
00001000
00000000
00000100
00000010
,
00000100
00000000
00020000
00000000
00000000
00002000
00000000
00033000
,
00011000
00000000
01000000
00100000
02000000
00000000
00000000
00000000
,
03001000
00010000
00002000
00000000
00000000
00020000
00000000
00033000
,
00011000
00000000
00000100
00000010
00000001
00000000
00000100
00000010
,
00010000
00000000
00002000
00000000
00000000
00020000
00000000
00033000
,
00011000
00000000
00001000
00100000
00000000
00000000
01000000
10000000
,
00010000
00000000
01000000
00010000
00000000
10000000
00000000
10010000
,
00000000
01001000
00000000
00022000
00000000
00000000
00000000
00033000
,
00000100
00000000
00000020
00000000
00000000
00000032
00000000
00000000
,
00000203
00002000
00000000
00003300
;
