#TITLE:Ambling Alp;
#SUBTITLE:;
#ARTIST:Yeasayer;
#TITLETRANSLIT:;
#SUBTITLETRANSLIT:;
#ARTISTTRANSLIT:;
#GENRE:Pop;
#CREDIT:;
#BANNER:amblingalp-bn.png;
#BACKGROUND:amblingalp-bg.png;
#LYRICSPATH:;
#CDTITLE:;
#MUSIC:Ambling Alp.mp3;
#OFFSET:-0.072500;
#SAMPLESTART:40.327492;
#SAMPLELENGTH:11.999990;
#SELECTABLE:YES;
#BPMS:0.000000=144.000000
;
#STOPS:
;
#BGCHANGES:;
#KEYSOUNDS:;
#ATTACKS:;

//---------------dance-single - ----------------
#NOTES:
     dance-single:
     :
     Hard:
     13:
     0.581115,0.648966,0.247925,0.606038,1.046793,443.000000,416.000000,27.000000,66.000000,0.000000,0.000000,0.581115,0.648966,0.247925,0.606038,1.046793,443.000000,416.000000,27.000000,66.000000,0.000000,0.000000:
0000
0000
0000
0000
,
0000
0000
0000
0000
,
0000
0000
0000
0000
,
0000
0000
0000
0000
,
1000
0100
1000
0100
1000
0100
1000
0000
0000
1010
0000
0000
,
0001
0100
0001
0100
0000
0100
0001
0000
0001
0100
0000
0000
,
0001
0010
0001
0010
0001
0010
0001
0000
0000
0101
0000
0000
,
0010
0000
0010
1000
0000
1000
0001
0000
1000
0100
0000
0020
,
0000
0000
0000
0130
0000
2000
0000
0000
3020
0000
0000
0032
,
0000
0000
0023
0000
0000
2030
0000
0000
3200
0000
0000
0310
,
0001
0000
0001
0010
0000
0010
0100
0000
0000
1100
0000
0000
,
0001
0000
0001
0010
0000
0010
0100
0000
0010
0001
0000
2000
,
0000
0000
0000
3200
0000
0002
0300
0000
0203
0000
0000
2300
,
0000
0000
0000
3020
0000
0230
0000
0000
2300
0000
0000
3100
,
0001
0000
0001
1000
0000
1000
0010
0000
0000
1100
0000
0000
,
0001
0000
0001
0100
0000
0100
0010
0000
1000
0100
0000
0020
,
0000
0000
0000
2030
0000
3020
0000
0000
0000
0032
0000
0200
,
0003
0000
0000
0320
0000
0002
0030
0000
0023
0000
0000
2030
,
0000
0000
3200
0000
0000
0302
0000
0000
0023
0000
0000
2030
,
0000
0000
3002
0000
0000
0203
0000
0000
0320
0000
0000
0130
,
0010
0000
0000
2000
0000
0002
0000
0000
3003
1001
0000
0000
,
0010
0000
0010
0100
0000
0100
0001
0010
0100
1000
0000
0000
,
1000
0000
1000
0010
0000
0010
0100
0000
0000
0101
0000
0000
,
0010
0000
0010
1000
0000
1000
0001
0000
0000
1001
0000
0000
,
1000
0000
1000
0100
0000
0100
1000
0000
1000
0010
0000
0010
,
0001
0000
0001
0010
0000
0010
1000
0000
0000
1001
0000
0000
,
0001
0000
0001
0100
0000
0100
0001
0000
0000
0011
0000
0000
,
0001
0100
0010
1000
0010
0100
0001
0100
0010
1000
0000
0000
,
0010
0000
0010
0100
0000
0100
0010
0000
0010
1000
0000
1000
,
0010
0000
0010
0001
0000
0001
0010
0000
0000
1010
0000
0000
,
0100
0000
0100
0001
0000
0001
0100
0000
0000
0110
0000
0000
,
0100
0010
1000
0010
0100
0001
0100
0010
1000
0001
0000
0000
,
1000
0100
1000
0010
1000
0100
0000
0000
0010
0001
0000
0000
,
1001
0000
0000
0010
0000
1001
0000
0000
1000
0100
0000
0000
,
0010
0001
0010
0100
0010
0001
0000
0000
0100
0010
0000
0000
,
2002
0000
0000
3003
0100
0002
2000
0000
3003
0110
0000
0000
,
0001
0010
0001
0100
0001
0010
0000
0000
0100
1000
0000
0000
,
1001
0000
0000
0100
0000
1001
0000
0000
0001
0010
0000
0000
,
0100
1000
0100
0010
0100
1000
0000
0000
0010
0100
0000
0000
,
2002
0000
0000
3003
0010
1000
0001
0000
0200
0000
0000
0302
,
0000
0000
0000
0023
0000
2030
0000
0000
0000
3020
0000
0032
,
0000
0000
0203
0000
0000
2300
0000
0000
3002
0000
0000
0023
,
0000
0000
0000
1030
0100
1000
0100
0010
0100
0010
0001
0010
,
0001
0100
0001
0100
0001
1000
0002
0000
2003
0000
0000
3200
,
0000
0000
0000
0302
0000
0200
0003
0000
2300
0000
0000
3020
,
0000
0000
0000
0000
0000
0000
0000
0000
0000
0000
0000
0000
0032
0000
0000
0000
0000
0000
0000
0000
2000
0003
0000
0000
0000
0000
0000
0000
0000
0000
0000
0000
3200
0000
0000
0000
0000
0000
0000
0000
0000
0000
0000
0000
0302
0000
0000
0000
,
0000
0000
0000
1003
0001
1000
0001
0100
0001
0100
0010
0100
,
0010
1000
0010
1000
0001
1000
1001
0000
0000
0110
0000
0000
,
1000
0000
1000
0100
0000
0100
0001
0000
0000
1100
0000
0000
,
0001
0000
0001
0100
0000
0100
1000
0000
1000
0100
0000
0100
,
0001
0000
0001
0010
0000
0010
1000
0000
0000
0011
0000
0000
,
1000
0100
0010
0001
0010
0100
1000
0100
0010
0001
0000
0000
,
0001
0000
0001
0100
0000
0100
1000
0000
0000
0101
0000
0000
,
1000
0000
1000
0010
0000
0010
0001
0000
0001
0010
0000
0010
,
1000
0000
1000
0100
0000
0100
0001
0000
0000
1100
0000
0000
,
0001
0010
0100
1000
0100
0010
0001
0010
0100
1000
0000
0000
,
0110
0000
0000
0100
0001
1000
0010
1000
0001
0100
0001
2000
,
0000
0000
0000
3010
1000
0010
1010
0000
0000
0010
0100
0001
,
1000
0100
0001
0100
1000
0100
0002
0000
0000
0103
1000
0000
,
0001
0100
1000
0100
0001
0100
1000
0100
0001
0010
1000
0010
,
0002
0000
0000
1003
0010
0100
0001
0100
0010
1000
0010
0200
,
0000
0000
0000
0301
0010
0001
0011
0000
0000
0010
0100
1000
,
0001
0010
1000
0010
0001
0010
2000
0000
0000
3010
0001
0000
,
1000
0010
1000
0010
0001
0010
0001
0010
1000
0010
1000
0000
,
0020
0030
0000
0000
;

//---------------dance-single - ----------------
#NOTES:
     dance-single:
     :
     Beginner:
     3:
     0.139048,0.235069,0.036730,0.000000,0.000000,106.000000,102.000000,4.000000,0.000000,0.000000,0.000000,0.139048,0.235069,0.036730,0.000000,0.000000,106.000000,102.000000,4.000000,0.000000,0.000000,0.000000:
0000
0000
0000
0000
,
0000
0000
0000
0000
,
0000
0000
0000
0000
,
0000
0000
0000
0000
,
1000
1000
0000
0100
,
0100
0100
0000
0010
,
0010
0010
0000
0001
,
0001
0001
0000
0000
,
1000
0000
0010
0000
,
1000
0000
0000
0000
,
0001
0000
0000
0000
,
0000
0000
0001
0000
,
0010
0000
0001
0000
,
0100
0000
0010
0000
,
1000
0000
0000
0000
,
0000
0000
0010
0000
,
0100
0000
0010
0000
,
1000
0000
0100
0000
,
0010
0000
0001
0000
,
0100
0000
0001
0000
,
0010
0000
0010
0000
,
0100
0000
0100
0000
,
1000
0000
1000
0000
,
0001
0000
0001
0001
,
0000
0100
0000
0000
,
0100
0000
0000
0000
,
0000
0010
0000
0000
,
0010
0000
0000
0000
,
0000
1000
0000
0000
,
1000
0000
0000
0000
,
0000
0001
0000
0000
,
0001
0000
0000
0000
,
0010
0010
0000
0000
,
0000
0000
0000
0000
,
0001
0001
0000
0000
,
1001
0000
0110
0000
,
1000
1000
0000
0000
,
0010
0000
0010
0000
,
0100
0100
0000
0000
,
1001
0000
0110
0000
,
0010
0000
1000
0000
,
0100
0000
0010
0000
,
0001
0000
0000
0000
,
0000
0000
0001
0000
,
0010
0000
0100
0000
,
1000
0000
0010
0000
,
0100
0000
0000
0000
,
0000
0000
0100
0100
,
0000
0010
0000
0000
,
1000
0000
0000
0000
,
0000
0001
0000
0000
,
0010
0000
0000
0000
,
0000
0100
0000
0000
,
0010
0000
0000
0000
,
0000
0001
0000
0000
,
1000
0000
0000
0000
,
0000
0010
0010
0010
,
0000
0100
0000
0000
,
1000
1000
1000
0000
,
0000
0001
0000
0000
,
0000
0100
0100
0100
,
0000
0010
0000
0000
,
0100
0100
0100
0000
,
0001
0001
0001
0001
,
0001
0000
0000
0000
;

//---------------dance-single - ----------------
#NOTES:
     dance-single:
     :
     Medium:
     8:
     0.405337,0.470139,0.156101,0.569309,0.514214,309.000000,292.000000,17.000000,62.000000,0.000000,0.000000,0.405337,0.470139,0.156101,0.569309,0.514214,309.000000,292.000000,17.000000,62.000000,0.000000,0.000000:
0000
0000
0000
0000
,
0000
0000
0000
0000
,
0000
0000
0000
0000
,
0000
0000
0000
0000
,
1000
0000
0000
0100
0000
0000
0100
0000
0100
1000
0000
0000
,
0001
0000
0000
0100
0000
0000
0010
0000
0010
1000
0000
0000
,
0001
0000
0000
0100
0000
0000
0100
0000
0100
0001
0000
0000
,
1000
0000
0000
0100
0000
0000
0010
0000
0100
1000
0000
0200
,
0000
0000
0300
0020
0000
0002
0030
0000
0203
0000
0000
0320
,
0000
0000
2030
0000
0000
3002
0000
0000
2003
0000
0000
3010
,
0100
0010
0100
1010
,
0100
0000
0000
0001
0000
0000
1000
0000
0010
0100
0000
0020
,
0000
0000
0000
2030
0000
3200
0000
0000
0320
0000
0000
0230
,
0000
0000
0000
2300
0000
0002
3000
0000
0023
0000
0000
0130
,
1000
0001
1000
0110
,
0001
0000
0000
1000
0000
0000
0010
0000
0100
0001
0000
0200
,
0000
0000
0000
0320
0000
2030
0000
0000
3000
0002
0000
0020
,
0003
0000
0030
2000
0000
0020
3000
0000
0032
0000
0000
0203
,
0000
0000
0320
0000
0000
2030
0000
0000
3200
0000
0000
0320
,
0000
0000
0032
0000
0000
2003
0000
0000
3020
0000
0000
0230
,
0000
0000
0000
0010
0000
0020
0000
0330
0000
1001
0000
0000
,
0010
0000
1000
0001
0000
0000
0100
0000
0000
0100
0000
0000
,
0010
0000
0100
0001
0000
0000
0010
0000
0000
1100
0000
0000
,
1000
0000
0001
0100
0000
0020
0000
0000
0000
0130
0000
0000
,
0001
0000
0001
1000
0000
1000
0001
0000
0000
1001
0000
0000
,
0010
0000
0100
0010
0000
0000
2000
0000
0000
3001
0000
0000
,
0100
0000
0100
0001
0000
0001
0100
0000
0000
0101
0000
0000
,
0010
0010
0010
0010
,
1000
0000
1000
0100
0000
0100
1000
0000
0000
1100
0000
0000
,
1000
0000
0001
1000
0000
0000
0020
0000
0000
0130
0000
0000
,
0010
0000
0010
1000
0000
1000
0010
0000
0000
1010
0000
0000
,
0100
0100
0100
0100
,
0001
1000
0001
1000
0001
1000
0000
0000
0000
0010
0000
0000
,
1000
0000
0000
0000
0000
0001
0000
0000
0100
0000
0000
0000
,
1002
0000
0023
0000
,
0230
0000
0000
0000
1300
0100
1000
0000
0000
0000
0000
0000
,
1000
0001
1000
0001
1000
0001
0000
0000
0000
1000
0000
0000
,
0100
0000
0000
0000
0000
0010
0000
0000
0001
0000
0000
0000
,
2001
0000
3200
0000
,
0320
0000
0000
0000
0031
0010
0001
0000
0200
0000
0000
0320
,
0000
0000
0000
2030
0000
0200
3000
0000
0000
0302
0000
0200
,
0003
0000
2300
0000
0000
3020
0000
0000
0230
0000
0000
0301
,
1000
0010
0100
0001
,
0001
0000
0000
0100
0000
0000
0020
0000
2030
0000
0000
3002
,
0000
0000
0000
2003
0000
0020
3000
0000
0032
0000
0000
0023
,
0000
0000
0000
2030
0000
0002
3000
0000
0203
0000
0000
0310
,
0100
0010
1000
0001
,
0001
1000
0010
0110
,
0001
0000
0001
0010
0000
0010
0100
0000
0000
1100
0000
0000
,
1000
0000
0010
1000
0000
0000
0001
0000
0000
1000
0000
0000
,
1000
0000
1000
0100
0000
0100
0010
0000
0000
0011
0000
0000
,
1000
1000
1000
1000
,
0010
0000
0010
0100
0000
0100
0001
0000
0000
1001
0000
0000
,
1000
0000
0100
1000
0000
0000
0001
0000
0000
0010
0000
0000
,
0100
0000
0100
1000
0000
1000
0010
0000
0000
0110
0000
0000
,
0001
0001
0001
0001
,
0000
0000
0000
1000
0100
1000
0100
1000
0100
1000
0100
1000
,
0000
0000
0000
0001
0100
0001
0100
0000
0000
0010
0000
0000
,
1000
0100
0001
0100
,
1000
0001
0100
0001
,
1000
0000
0000
0001
0100
0001
0100
0001
0100
0001
0100
0001
,
0000
0000
0000
1000
0100
1000
0100
0000
0000
1000
0000
0000
,
0010
0010
0010
0101
,
0001
0010
0001
0010
0000
0000
0100
1000
0100
1000
0000
0000
,
0110
0000
0000
0000
;

//---------------dance-single - ----------------
#NOTES:
     dance-single:
     :
     Easy:
     6:
     0.261043,0.323220,0.101006,0.137736,0.123962,199.000000,188.000000,11.000000,15.000000,0.000000,0.000000,0.261043,0.323220,0.101006,0.137736,0.123962,199.000000,188.000000,11.000000,15.000000,0.000000,0.000000:
0000
0000
0000
0000
,
0000
0000
0000
0000
,
0000
0000
0000
0000
,
0000
0000
0000
0000
,
0010
1000
0100
0110
,
0100
0100
1000
0010
,
0100
0001
0001
1001
,
1000
1000
0010
0000
,
0100
0000
0000
0000
0000
0010
0000
0000
0100
0000
0000
0001
,
0000
0000
0100
0000
0000
0010
0000
0000
1000
0000
0000
0002
,
0000
0103
0100
0001
,
0100
0100
0010
1000
,
0200
0000
0000
0000
0000
1300
0000
0000
0010
0000
0000
1000
,
0000
0000
0000
0000
0000
0100
0000
0000
0010
0000
0000
0200
,
0000
1300
1000
0010
,
0100
0100
0001
1000
,
0001
0000
0010
0000
,
0100
0000
0000
0000
0000
0000
0010
0000
0000
0000
0000
0001
,
0000
0000
0001
0000
0000
1000
0000
0000
1000
0000
0000
0010
,
0000
0000
0100
0000
0000
0010
0000
0000
0010
0000
0000
1000
,
0000
0000
0000
0002
0000
0020
0000
0000
0000
0033
0000
0000
,
0010
0100
1000
1000
,
0010
0100
0010
0110
,
0100
0100
0001
1000
,
0010
0010
0010
1010
,
1000
0001
0000
0000
,
0100
0100
0100
0101
,
0001
1000
0001
1000
,
0010
0010
0010
0110
,
0100
0001
0000
0000
,
1000
1000
1000
1100
,
0100
0010
0100
0010
,
0002
0000
0003
1000
,
0001
0000
0000
0000
0000
0100
0000
0000
0100
0000
0000
0000
,
0020
0000
0230
0000
,
0302
0000
2000
3003
,
2000
0000
3000
0001
,
1000
0000
0000
0000
0000
0010
0000
0000
0010
0000
0000
0000
,
0200
0000
0320
0000
,
2030
0000
0002
3003
,
1000
0000
0100
0000
,
0001
0000
0010
0000
,
1000
0000
0000
0000
,
0000
0000
0001
0000
,
0001
0000
0100
0000
,
1000
0000
0010
0000
,
0001
0000
0000
0000
,
0000
0000
0001
1000
,
0100
1000
0100
1100
,
1000
0001
0000
0000
,
0100
0001
0100
0101
,
0001
0001
1000
1000
,
0010
1000
0010
1010
,
1000
0001
0000
0000
,
0010
0001
0010
0011
,
0001
0001
1000
1000
,
0000
0010
0010
0010
,
0000
1000
0001
0001
,
1000
0100
0010
0100
,
1000
1000
1000
1000
,
1000
0001
0001
0001
,
0000
0100
0010
1000
,
0100
0010
0001
0100
,
1000
0100
1000
0100
,
0001
0000
0000
0000
;

//---------------dance-double - ----------------
#NOTES:
     dance-double:
     :
     Easy:
     7:
     0.306954,0.324483,0.110189,0.312202,0.243334,234.000000,222.000000,12.000000,34.000000,0.000000,0.000000,0.306954,0.324483,0.110189,0.312202,0.243334,234.000000,222.000000,12.000000,34.000000,0.000000,0.000000:
00000000
00000000
00000000
00000000
,
00000000
00000000
00000000
00000000
,
00000000
00000000
00000000
00000000
,
00000000
00000000
00000000
00000000
,
00010000
00010000
00001000
00011000
,
01000000
01000000
00100000
10000000
,
02000000
03200000
00302000
00013000
,
00000020
00000000
00000000
00000230
00000000
00000000
00000301
00000000
00000100
00000001
00000000
00000200
,
00000000
00000000
00000000
00000310
00000000
00001000
00000000
00000000
00000010
00000000
00000000
00000100
,
00000000
00000000
00000010
00000000
00000000
00001000
00000000
00000000
00000001
00000000
00000000
00001000
,
00000000
00000100
00000100
00010000
,
00001000
00000000
00000000
00100000
00000000
00000000
00100000
00000000
00010000
00100000
00000000
00020000
,
00000000
00000000
00000000
10030000
00000000
00100000
00000000
00000000
01000000
00000000
00000000
00200000
,
00000000
00000000
00000000
10300000
00000000
00010000
00000000
00000000
00100000
00000000
00000000
00010000
,
00000000
10000000
00010000
00100000
,
00001000
00000000
00000000
00010000
00000000
00000000
00000010
00000000
00000100
00000010
00000000
00000200
,
00000000
00000000
00000000
00000301
00000000
00000020
00000000
00000000
00000000
00000130
00000000
00002000
,
00000000
00000000
00000000
00003010
00000000
00000100
00000000
00000000
00000001
00000000
00000000
00001000
,
00000000
00000000
00000010
00000000
00000000
00001000
00000000
00000000
00000100
00000000
00000000
00010000
,
00000000
00000000
00001000
00000000
00000000
01000000
00000000
00000000
00100000
00000000
00000000
10000000
,
00000000
00000000
00000000
00020000
00000000
20000000
00000000
00000000
30030000
10010000
00000000
00000000
,
10000000
01000000
00010000
00001000
,
00000010
00000010
00000001
00001000
,
00000100
00000100
00020000
00032000
,
00103000
00010000
01000000
01010000
,
00100000
00001000
00000000
00010000
,
00000010
00000100
00000001
00000101
,
00001000
00001000
00001000
00001000
,
00000010
00001000
00000100
00001100
,
00000100
00010000
00000000
00001000
,
00100000
00010000
10000000
10010000
,
00100000
00100000
00100000
00100000
,
00020000
00000000
00030000
10010000
,
01000000
00000000
00000000
00000000
00000000
00001000
00000000
00000000
00001000
00000000
00000000
00000000
,
00020000
00000000
00030020
00000000
,
00000230
00000000
00000302
00000000
,
00002003
00000000
00003000
00001100
,
00000100
00000000
00000000
00000000
00000000
00010000
00000000
00000000
00010000
00000000
00000000
00000000
,
00002000
00000000
00203000
00000000
,
02300000
00000000
00000000
00000000
00000000
00000000
13000000
00000000
00010000
00000000
00000000
20000000
,
00000000
00000000
00000000
30100000
00000000
02000000
00000000
00000000
00000000
03010000
00000000
00200000
,
00000000
00000000
00301000
00000000
00000000
00010000
00000000
00000000
00000010
00000000
00000000
00000100
,
00000000
00000000
00000001
00001000
,
00000010
00000000
00000000
00000010
00000000
00000000
00000100
00000000
00000001
00000000
00000000
00000200
,
00000000
00000000
00000000
00000310
00000000
00020000
00000000
00000000
00031000
00000000
00000000
00200000
,
00000000
00000000
00000000
01300000
00000000
20000000
00000000
00000000
31000000
00000000
00000000
00100000
,
00000000
00000000
00010000
10000000
,
00100000
00100000
01000000
00010000
,
10000000
01000000
00100000
00110000
,
01000000
00001000
00000000
00010000
,
00000010
00000100
00000001
00001001
,
00000100
00000100
00000100
00000100
,
00010000
00001000
01000000
01010000
,
00100000
10000000
00000000
01000000
,
00100000
00001000
00010000
00011000
,
00001000
00001000
00001000
00001000
,
00000000
00010000
00000010
00000200
,
00000300
00000001
00001000
00000010
,
00010000
00010000
00010000
00001000
,
00100000
00100000
00100000
01000000
,
20000000
31000000
00010000
00001000
,
00000000
00000010
00000010
00000001
,
00000100
00000100
00000100
00001000
,
00010000
00100000
10000000
01000000
,
00020000
00030000
00000000
00000000
;

//---------------dance-double - ----------------
#NOTES:
     dance-double:
     :
     Medium:
     10:
     0.497161,0.646441,0.385661,0.523397,0.711636,379.000000,337.000000,42.000000,57.000000,0.000000,0.000000,0.497161,0.646441,0.385661,0.523397,0.711636,379.000000,337.000000,42.000000,57.000000,0.000000,0.000000:
00000000
00000000
00000000
00000000
,
00000000
00000000
00000000
00000000
,
00000000
00000000
00000000
00000000
,
00000000
00000000
00000000
00000000
,
00010000
00000000
00010000
00100000
00000000
00100000
00010000
00000000
00000000
01010000
00000000
00000000
,
00100000
00000000
00100000
00001000
00000000
00001000
00010000
00000000
00000000
00001000
00000000
00000000
,
00010000
00000000
00010000
00000010
00000000
00000010
00000100
00000000
00000000
00000101
00000000
00000000
,
00000001
00000000
00000001
00001000
00000000
00000000
00000010
00000000
00000100
00000010
00000000
00020000
,
00000000
00000000
00000000
00031000
00000000
02000000
00000000
00000000
03200000
00000000
00000000
20300000
,
00000000
00000000
32000000
00000000
00000000
03200000
00000000
00000000
00302000
00000000
00000000
00013000
,
00000100
00001000
00001010
00000101
,
00000001
00001000
00000001
00001000
00000000
00000000
00000001
00000000
00000010
00000001
00000000
00002000
,
00000000
00000000
00000000
00003100
00000000
00020000
00000000
00000000
00032000
00000000
00000000
00203000
,
00000000
00000000
00000000
01300000
00000000
20000000
00000000
00000000
30200000
00000000
00000000
01300000
,
00010000
00100000
00110000
11000000
,
10000000
00010000
10000000
00010000
00000000
00000000
01000000
00000000
00010000
00100000
00000000
00020000
,
00000000
00000000
00000000
01030000
00000000
00020000
00000000
00000000
00000000
00130000
00000000
00002000
,
00000000
00000000
00000000
00013000
00000000
00000200
00000000
00000000
00002300
00000000
00000000
00003020
,
00000000
00000000
00000230
00000000
00000000
00000302
00000000
00000000
00002003
00000000
00000000
00003002
,
00000000
00000000
00000023
00000000
00000000
00000230
00000000
00000000
00002300
00000000
00000000
00003020
,
00000000
00000000
00000000
00020030
00000000
00002000
00000000
00000000
00033000
00011000
00000000
00000000
,
00100000
01000000
00100000
01000000
00000000
00000000
11000000
00000000
00000000
00110000
00000000
00000000
,
10000000
01000000
00100000
00010000
00000000
00000000
01010000
00000000
00000000
10100000
00000000
00000000
,
00010000
00100000
00010000
00100000
00000000
00001000
00010000
00000000
00000000
00011000
00000000
00000000
,
00000010
00000000
00000010
00000100
00000000
00000100
00000010
00000000
00000000
00001001
00000000
00000000
,
00000100
00000000
00010000
00001000
00000000
00000000
00010000
00000000
00000000
00001000
00000000
00000000
,
01000000
00000000
01000000
00100000
00000000
00100000
01000000
00000000
00000000
10010000
00000000
00000000
,
00100000
00000000
00001000
00010000
00000000
00001000
00010000
00000000
00000000
00000010
00000000
00000000
,
00000100
00000000
00000100
00000001
00000000
00000001
00001000
00000000
00000000
00001010
00000000
00000000
,
00000100
00000000
00010000
00001000
00000000
00000000
00010000
00000000
00000000
00001000
00000000
00000000
,
01000000
00000000
01000000
00010000
00000000
00010000
10000000
00000000
00000000
10100000
00000000
00000000
,
00100000
00000000
00100000
01000000
00000000
01000000
00001000
00000000
00000000
00011000
00000000
00000000
,
00010000
00000100
00000010
00000001
00000100
00000010
00010000
00000000
00000000
00011000
00000000
00000000
,
00001000
00000000
00000000
00000000
00000000
00100000
00000000
00000000
00010000
00000000
00000000
00000000
,
02020000
03030000
20200000
30300000
,
20020000
00000000
00000000
30030000
10000000
00020000
20000000
00000000
00000000
30030000
00000000
00000000
,
10000000
01000000
00100000
00001000
01000000
00100000
10000000
00000000
00000000
01010000
00000000
00000000
,
00100000
00000000
00000000
00000000
00000000
00001000
00000000
00000000
00010000
00000000
00000000
00000000
,
00022000
00033000
00020020
00030030
,
00000220
00000000
00000000
00000330
00000001
00001000
00000001
00000000
00000100
00000000
00000000
00000020
,
00000000
00000000
00000000
00001030
00000000
00000200
00000000
00000000
00000000
00010300
00000000
00002000
,
00000000
00000000
00203000
00000000
00000000
02300000
00000000
00000000
23000000
00000000
00000000
30100000
,
01000000
00000000
00000000
01010000
00000000
00000000
00100000
10000000
01000000
00100000
00000000
00000000
,
00001000
00000000
00000000
00011000
00000000
00000000
00001000
00000000
02000000
00000000
00000000
03200000
,
00000000
00000000
00000000
10300000
00000000
02000000
00000000
00000000
03200000
00000000
00000000
00302000
,
00000000
00000000
00000000
00013000
00000000
00000020
00000000
00000000
00000230
00000000
00000000
00000320
,
00000000
00001030
00000001
00000101
,
00000010
00001000
00000100
00001000
00000000
00000000
00000100
00000000
00000000
00011000
00000000
00000000
,
00001000
00000000
00001000
00100000
00000000
00100000
00010000
00000000
00000000
01010000
00000000
00000000
,
00100000
00000000
10000000
00010000
00000000
00000000
01100000
00000000
00000000
10010000
00000000
00000000
,
10000000
00000000
10000000
01000000
00000000
01000000
00100000
00000000
00000000
00011000
00000000
00000000
,
00001000
00010000
00001000
00010000
00000010
00010000
00000010
00000000
00000000
00001010
00000000
00000000
,
00000010
00000000
00000010
00000100
00000000
00000100
00000001
00000000
00000000
00001001
00000000
00000000
,
00000100
00000000
00010000
00001000
00000000
00000000
00010000
00000000
00000000
00011000
00000000
00000000
,
00100000
00000000
00100000
01000000
00000000
01000000
10000000
00000000
00000000
10010000
00000000
00000000
,
00100000
01000000
00100000
01000000
00010000
01000000
00010000
00000000
00000000
01010000
00000000
00000000
,
00000000
00000000
00000000
10000000
01000000
10000000
01000000
10000000
01000000
00100000
00001000
00100000
,
00000000
00000000
00000000
00001000
00010000
00001000
00010000
00000000
00000000
00000010
00000100
00000010
,
00000100
00000001
00001000
00000010
00000000
00000000
00001001
00000000
00000000
00000010
00000100
00000000
,
00000010
00001000
00000001
00000100
00000000
00000000
00000100
00000001
00001000
00000010
00000000
00000000
,
00001001
00000000
00000000
00000001
00000010
00000001
00000010
00000001
00000010
00000100
00010000
00001000
,
00000000
00000000
00000000
00010000
00001000
00010000
00001000
00000000
00000000
00100000
00000000
00000000
,
01000000
10000000
01000000
10000000
01000000
10000000
01000000
00000000
00000000
10010000
00000000
00000000
,
01000000
00100000
01000000
00100000
10000000
00100000
10000000
00010000
10000000
00010000
00100000
00000000
,
00110000
00000000
00000000
00000000
;

//---------------dance-double - ----------------
#NOTES:
     dance-double:
     :
     Hard:
     12:
     0.527332,0.646441,0.247925,0.523397,0.876919,402.000000,375.000000,27.000000,57.000000,0.000000,0.000000,0.527332,0.646441,0.247925,0.523397,0.876919,402.000000,375.000000,27.000000,57.000000,0.000000,0.000000:
00000000
00000000
00000000
00000000
,
00000000
00000000
00000000
00000000
,
00000000
00000000
00000000
00000000
,
00000000
00000000
00000000
00000000
,
00010000
00001000
00100000
00010000
00000000
00000000
00010000
00000000
00010000
01000000
00000000
00000000
,
00100000
10000000
01000000
00100000
00000000
00000000
00001000
00000000
00001000
00010000
00000000
00000000
,
00010000
00000010
00000100
00000010
00000000
00000000
00001000
00000000
00000001
00001000
00000000
00000000
,
00000001
00000010
00000001
00000100
00000000
00000000
00000010
00000000
00001000
00000100
00000000
00002000
,
00000000
00000000
00000000
00003010
00000000
00020000
00000000
00000000
00032000
00000000
00000000
00023000
,
00000000
00000000
00230000
00000000
00000000
20300000
00000000
00000000
30020000
00000000
00000000
10030000
,
01000000
00100000
00010000
01000000
00000000
00000000
10100000
00000000
00000000
01010000
00000000
00000000
,
00100000
01000000
00010000
00100000
00000000
00000000
00100000
00000000
00100000
00001000
00000000
00020000
,
00000000
00000000
00000000
00030100
00000000
00002000
00000000
00000000
00003020
00000000
00000000
00002030
,
00000000
00000000
00000000
00003200
00000000
00000320
00000000
00000000
00000032
00000000
00000000
00001003
,
00000010
00000100
00000001
00000010
00000000
00000000
00001100
00000000
00000000
00000011
00000000
00000000
,
00000001
00000100
00000010
00010000
00000000
00000000
00011000
00000000
00001000
00100000
00000000
02000000
,
00000000
00000000
00000000
03100000
00000000
00020000
00000000
00000000
00030000
01000000
00000000
00200000
,
00000000
00000000
00000000
00310000
00000000
00002000
00000000
00000000
00003020
00000000
00000000
00000032
,
00000000
00000000
00000203
00000000
00000000
00002300
00000000
00000000
00023000
00000000
00000000
02030000
,
00000000
00000000
23000000
00000000
00000000
30200000
00000000
00000000
00320000
00000000
00000000
00032000
,
00000000
00000000
00003000
00010000
00000000
00020020
00000000
00030030
00000000
00000110
00000000
00000000
,
00000001
00000100
00000010
00001000
00000000
00000000
00000001
00000000
00000100
00000010
00000000
00000000
,
00010000
00001000
00100000
00010000
00000000
00000000
01000000
00010000
10000000
00100000
00000000
00000000
,
10100000
00000000
00010000
10000000
00000000
02200000
00000000
00000000
03300000
10010000
00000000
00000000
,
10000000
00000000
10000000
01000000
00000000
01000000
00020000
00000000
00000000
00031000
00000000
00000000
,
00000010
00000000
00000010
00000001
00000000
00000000
00001100
00000000
00000000
00000011
00000000
00000000
,
00000001
00000000
00000001
00000100
00000000
00000100
00000010
00000000
00000000
00001010
00000000
00000000
,
00000001
00000100
00001000
00000100
00000001
00000100
00001000
00000100
00000001
00000100
00000000
00000000
,
00000001
00000000
00000001
00000010
00000000
00000010
00002000
00000000
00000000
00013000
00000000
00000000
,
00100000
00000000
00100000
10000000
00000000
00000000
11000000
00000000
00000000
00110000
00000000
00000000
,
10000000
00000000
10000000
00010000
00000000
00010000
01000000
00000000
00000000
01010000
00000000
00000000
,
00010000
01000000
10000000
01000000
00010000
01000000
10000000
01000000
00010000
01000000
00000000
00000000
,
00100000
10000000
01000000
00100000
00001000
00010000
00000100
00000000
00010000
00000100
00000000
00000000
,
00001100
00000000
00000000
00000000
00000000
00000010
00000000
00000000
00000001
00000000
00000000
00000000
,
00002000
00000000
00023000
00000000
,
20030000
00000000
00000000
30000000
00010000
10000000
00020000
00000000
00000000
00030000
00000000
00000000
,
01000000
00010000
10000000
01000000
00100000
00001000
00010000
00000000
00001000
00010000
00000000
00000000
,
00011000
00000000
00000000
00000000
00000000
00000010
00000100
00000000
00000001
00000000
00000000
00000010
,
00002000
00000000
00003020
00000000
,
00000032
00000000
00000000
00000003
00000010
00000100
00001000
00000000
00000001
00000000
00000000
00000002
,
00000000
00000000
00000000
00000013
00000000
00002000
00000000
00000000
00000000
00013000
00000000
00200000
,
00000000
00000000
02300000
00000000
00000000
23000000
00000000
00000000
30200000
00000000
00000000
00310000
,
00001000
00000000
00000000
00010000
00000000
00000000
00000100
00001000
00000010
00000100
00000000
00000000
,
00000001
00000100
00000010
00001000
00000000
00000000
00000001
00000000
00000010
00000000
00000000
00000200
,
00000000
00000000
00000000
00010300
00000000
00002000
00000000
00000000
00023000
00000000
00000000
00230000
,
00000000
00000000
00000000
10300000
00000000
00020000
00000000
00000000
02030000
00000000
00000000
03100000
,
10000000
00000000
00000000
10010000
00000000
00000000
10000000
01000000
00100000
00010000
00000000
00000000
,
00100000
00001000
00010000
00001000
00000000
00000000
00011000
00000000
00000000
00010100
00000000
00000000
,
00000010
00000000
00000010
00000001
00000000
00000001
00000100
00000000
00000000
00000110
00000000
00000000
,
00000001
00000000
00001000
00000100
00000000
00000000
00010000
00000000
00000000
00001000
00000000
00000000
,
00010000
00000000
00010000
00001000
00000000
00001000
01000000
00000000
00000000
01100000
00000000
00000000
,
00100000
10000000
01000000
00100000
00001000
00010000
00001000
01000000
00100000
10000000
00000000
00000000
,
01000000
00000000
01000000
10000000
00000000
10000000
00100000
00000000
00000000
01100000
00000000
00000000
,
10000000
00000000
00010000
00100000
00000000
00000000
01000000
00000000
00000000
00010000
00000000
00000000
,
00001000
00000000
00001000
00010000
00000000
00010000
00000010
00000000
00000000
00000110
00000000
00000000
,
00000100
00000001
00000010
00000100
00010000
00001000
00010000
00000010
00000100
00000001
00000000
00000000
,
00000110
00000000
00000000
00000010
00001000
00000001
00001000
00000010
00000100
00000010
00001000
00000100
,
00020000
00000000
00000000
00031000
00100000
01000000
10000000
00000000
00000000
00100000
01000000
00000000
,
00010000
00100000
01000000
00100000
00010000
10000000
00020000
00000000
00000000
01030000
00100000
00000000
,
10000000
01000000
00100000
01000000
10000000
00100000
01000000
00010000
00100000
01000000
00100000
00010000
,
10000000
00000000
00000000
00010000
10000000
00010000
10000000
01000000
00100000
01000000
00100000
00002000
,
00000000
00000000
00000000
00013000
00000100
00000010
00000001
00000000
00000000
00000100
00000010
00000000
,
00001000
00000100
00000001
00000100
00001000
00000001
00002000
00000000
00000000
00003010
00000100
00000000
,
00000000
00000001
00000010
00000001
00000100
00000010
00001000
00000100
00010000
00001000
00010000
00000000
,
00011000
00000000
00000000
00000000
;
