#TITLE:Amazing Mirage;
#SUBTITLE:;
#ARTIST:lapix;
#TITLETRANSLIT:;
#SUBTITLETRANSLIT:;
#ARTISTTRANSLIT:;
#GENRE:Techno;
#CREDIT:;
#BANNER:amazingmirage-bn.png;
#BACKGROUND:amazingmirage-bg.png;
#LYRICSPATH:;
#CDTITLE:;
#MUSIC:Amazing Mirage.mp3;
#OFFSET:-0.045000;
#SAMPLESTART:70.615005;
#SAMPLELENGTH:13.000004;
#SELECTABLE:YES;
#BPMS:0.000000=153.000000
;
#STOPS:
;
#BGCHANGES:;
#KEYSOUNDS:;
#ATTACKS:;

//---------------dance-single - ----------------
#NOTES:
     dance-single:
     :
     Challenge:
     16:
     0.926406,1.014937,0.587720,0.268956,1.105710,651.000000,592.000000,59.000000,27.000000,0.000000,0.000000,0.926406,1.014937,0.587720,0.268956,1.105710,651.000000,592.000000,59.000000,27.000000,0.000000,0.000000:
0000
0000
0000
0000
,
0000
0000
0000
0000
,
0000
0000
0000
0000
,
0000
0000
0000
0000
,
2001
0000
0000
0000
0000
0000
3010
0000
0000
0010
1000
0001
1000
0000
0010
0000
,
1000
0000
0001
0010
0000
0000
0001
0010
0100
1000
0100
0010
0001
0000
1000
0000
,
0010
0100
0010
0000
1000
0000
0100
0010
0100
0010
0100
0010
0001
0000
1000
0000
,
0001
0000
0100
0010
0000
0000
0100
0010
1000
0001
1000
0010
0100
0000
0001
0000
,
0202
0000
0000
0300
1000
1000
1003
0000
,
1100
0000
0100
1000
0100
0000
0020
0001
0000
0000
0031
0000
1001
0000
0100
0000
,
2000
0000
3020
0000
0130
0000
2000
0200
3000
0000
0301
0000
1000
0000
1000
0000
,
0200
0000
0320
0000
0032
0000
0013
0001
0010
0001
0010
0100
1000
0000
0001
0000
,
1010
1001
0101
1001
0110
0110
0011
0000
,
0002
0000
0203
0000
1300
0000
0100
0000
0001
1000
0100
1000
0001
0000
0101
0000
,
2000
0000
3020
0000
0031
0010
0001
0010
1000
0001
1000
0001
0100
0000
0101
0000
,
0010
0000
1010
0000
2000
0000
3200
0000
0310
0000
0011
0000
0001
1000
0010
0100
,
0010
1000
0000
0001
0100
0000
1001
0000
0020
0000
1000
0000
0001
0000
0030
0000
,
1100
0000
0001
0010
0001
0000
0100
0010
0100
0000
0010
1000
0010
0000
1000
0000
,
1010
0000
0001
0010
0001
0000
0100
0010
0100
1000
0000
0100
0001
0000
0001
0000
,
1000
0100
0010
0001
1000
0100
0010
0001
0000
0100
0000
0010
1000
0000
0101
0000
,
0010
1000
0010
0000
0010
1000
0010
0000
0100
0010
0001
0000
1200
0000
0000
0000
,
0310
0000
0100
1000
0100
0000
0100
0000
0010
0000
0001
0010
0001
0000
0001
0000
,
1000
0000
0001
0000
0101
0000
0010
1000
0000
1001
0000
0001
0000
0022
0000
0033
,
2200
0000
0000
0000
0300
0002
0000
0003
,
0020
0000
0000
3030
0100
1000
1001
0000
,
0010
1000
0010
0100
0001
0100
0010
1000
0000
0100
0000
0010
0001
0010
0001
0000
,
1000
0100
0000
0000
0001
0100
0000
1000
0001
1000
0001
0000
0100
0010
0100
0000
,
0001
0010
0001
1000
0100
1000
0010
0100
0000
0001
0000
0010
0100
0010
0100
0000
,
1000
0100
1000
0100
0010
0100
0010
0100
0010
0001
0010
0001
0010
0100
0010
0100
,
1000
0001
0011
0000
0001
1000
0110
0110
,
1000
0001
1001
0010
0100
0010
0001
1000
,
0010
1000
0010
1000
0010
1000
0010
1000
0001
0100
0001
0100
0001
0100
0001
0100
,
0001
0000
0000
0010
0000
0000
0000
0000
0000
0010
0000
0000
0000
0000
0000
0100
0000
0000
1000
0000
0000
0000
0000
0000
0001
0000
0000
0000
1000
0000
0000
0000
0010
0000
0000
0000
0100
0000
0000
0000
0000
0000
0000
0000
0000
0000
0000
0000
,
1001
0000
0000
0000
0000
0000
1001
0000
0000
0010
0000
0100
0010
0000
0001
0000
,
0110
0000
0000
0000
0000
0000
0110
0000
0000
0010
0000
1000
0010
0000
1000
0000
,
1100
0000
0000
0000
0000
0000
1100
0000
0000
0100
0000
0001
0100
0000
1000
0000
,
1001
0000
0000
0000
0000
0000
1001
0000
0000
0001
0000
1000
0100
0000
0010
0000
,
0100
0000
1000
0010
0100
0000
0100
0000
0000
0100
0000
0001
1000
0000
1100
0000
,
0010
0000
0001
0100
0010
0000
0010
0000
0000
0010
0000
1000
0001
0000
0100
0000
,
1100
0000
0000
1000
0101
0000
0000
0001
,
0011
0000
0000
0000
1010
0000
0000
0010
1000
0000
0100
0010
0001
0000
0001
0000
,
1000
0010
1000
0001
1000
0010
0100
0001
0010
0100
0010
0001
0010
0100
1000
0001
,
0100
0010
0100
0010
0100
0000
0001
0000
1100
0000
0001
0010
0000
0100
1000
0000
,
0001
0100
0001
1000
0001
0100
0010
1000
0100
0010
0100
1000
0100
0010
0001
1000
,
0001
0000
1000
0001
0000
1000
0001
0000
0100
0010
1000
0010
0100
0001
0010
0001
,
1000
0100
1000
0100
1000
0010
1000
0010
1000
0100
0010
0001
0010
0100
1000
0001
,
0010
0100
0010
0100
0010
0001
0010
0001
0100
1000
0100
0001
0100
1000
0010
0100
,
0001
0000
0010
0000
0011
0000
0000
0100
0000
1000
0010
0000
0110
0000
0100
1000
,
0100
0000
0010
0000
1010
0000
0000
1000
0000
0001
0100
0000
0101
0000
0000
0000
,
0001
0100
0001
0100
0001
0010
0001
0010
0001
0010
0100
1000
0100
0010
0001
1000
,
0100
0010
0100
0010
0100
1000
0100
1000
0010
0100
0010
0100
0010
0001
0010
0001
,
0010
0000
1000
0000
1100
0000
0000
0010
0000
0001
1000
0000
1010
0000
0010
0001
,
0010
0000
1000
0000
0110
0000
0100
0001
0010
0100
1000
0100
0010
0001
0010
0100
,
1000
0010
0001
1000
0100
0001
1000
0010
0001
1000
0100
1000
0001
0010
0001
1000
,
0010
0100
0010
0100
0001
0010
0001
0010
1000
0100
1000
0100
0010
0100
1000
0001
,
0100
0000
0001
0000
0011
0000
0000
0100
0000
1000
0010
0000
1100
0000
0100
0001
,
0100
0000
1000
0000
1001
0000
0000
0010
0000
1000
0010
0000
0011
0000
0000
0000
,
0001
0100
1000
0001
0010
1000
0001
0100
1000
0100
1000
0100
0001
0010
0001
0010
,
0100
1000
0001
0010
0001
0100
0010
1000
0100
1000
0001
0010
0001
0100
0010
1000
,
0100
0000
0010
0000
0011
0000
0000
0001
0000
1000
0010
0000
0011
0000
0010
1000
,
0010
0000
0001
0000
0101
0000
0000
0010
0000
0100
1000
0000
1100
0000
0001
1000
,
2002
0000
0000
3003
;

//---------------dance-single - ----------------
#NOTES:
     dance-single:
     :
     Hard:
     12:
     0.572066,0.546878,0.288879,0.139459,0.139459,402.000000,373.000000,29.000000,14.000000,0.000000,0.000000,0.572066,0.546878,0.288879,0.139459,0.139459,402.000000,373.000000,29.000000,14.000000,0.000000,0.000000:
0000
0000
0000
0000
,
0000
0000
0000
0000
,
0000
0000
0000
0000
,
0000
0000
0000
0000
,
2002
0000
0000
0000
3003
0000
0100
0000
0000
0100
0000
0000
0100
0000
1000
0000
,
0001
0100
0101
0000
1000
0100
0010
0000
,
0100
1000
1100
0000
0010
0100
0001
1000
,
0010
1000
1010
0000
0100
0001
1000
0000
,
0220
0000
0330
0000
1000
1000
0001
0000
,
0100
0001
0000
0000
0001
1000
0000
0000
1000
0000
0001
0000
1000
0000
1000
0000
,
0010
1000
0100
0010
0001
1000
0001
0001
,
0100
0010
1000
0000
0100
0010
0001
1000
,
0001
0100
1000
0100
0001
0001
1000
0000
,
1010
0010
0100
0000
0001
0010
0001
0000
,
1000
0100
0010
0001
0010
0100
1000
1000
,
0010
0010
0110
0000
0100
0100
0110
0000
,
0001
0100
0000
0100
0001
0000
1000
0000
0020
0000
0000
0000
0000
0000
0000
0000
,
1030
0100
0000
1100
0000
0011
0000
0100
,
1000
0001
0000
0101
0000
1010
1000
0001
,
0100
0001
0000
0011
0000
0110
0100
1000
,
0010
0100
0010
0100
0001
0100
1000
0000
,
0100
0001
1000
0001
0100
0001
1000
0000
,
0010
0000
1000
0000
0001
0000
2000
0020
0000
0000
0000
0000
3030
0000
0000
0000
,
0202
0000
0000
0300
,
2000
3003
1001
0110
,
1000
0010
0001
0010
1000
0010
0001
0000
,
1000
0001
0000
0000
1000
0000
0000
0000
0001
0100
0000
0000
0001
0000
0000
0000
,
0001
0010
1000
0010
0001
0010
1000
0000
,
0001
0100
0001
0010
0001
0100
0001
0010
,
0100
1000
1100
0000
0010
0001
0011
0000
,
1000
1000
0001
0001
0100
0010
1000
0001
,
1000
0100
0010
0001
1000
0100
0010
0001
,
0200
0000
0000
0000
0000
0000
0301
1000
0001
1000
0000
0000
,
0010
0000
0000
0000
0000
0000
0010
0000
1000
0001
0000
0001
1000
0000
0010
0000
,
0100
0000
0000
0000
0000
0000
0100
0000
0001
1000
0000
1000
0001
0000
0100
0000
,
0001
0000
0000
0000
0000
0000
0001
0000
0010
0100
0000
0100
0010
0000
0001
0000
,
1000
0000
0000
0000
0000
0000
1000
0000
0100
0010
0000
0010
0100
0000
1000
0000
,
0001
0000
0010
0000
1000
0000
0001
0010
,
1000
0000
0010
0000
0001
0000
1000
0010
,
0001
0000
1001
0000
,
0110
1000
1001
0100
,
0001
0010
0001
0100
0001
0010
0001
0100
,
0020
0000
0000
0000
0000
0000
0000
0000
1030
0000
0100
0010
0000
0010
0100
0000
,
1000
0010
1000
0100
1000
0010
1000
0100
,
2200
0000
3300
0000
0010
0001
0100
0010
,
1000
0100
0001
0100
1000
0010
0001
0010
,
1000
0100
0010
0100
1000
0001
0010
0000
,
0001
0100
0101
0000
1000
0100
1100
0000
,
0010
0100
0110
0000
0001
0100
0010
0100
,
0001
0010
1000
0010
0001
0100
1000
0100
,
0001
0010
0100
0010
0001
0100
0010
0100
,
0010
1000
1010
0000
1000
0100
1100
0000
,
0100
0001
0100
0001
0100
1000
0010
0100
,
0001
0010
0100
0001
0100
1000
0001
1000
,
0001
0100
0010
0001
0010
1000
0001
1000
,
0100
0000
0010
0000
0100
0000
1000
0001
0000
0001
1000
0000
0010
0000
0000
0000
,
0100
0000
0010
0000
0100
0000
0001
1000
0000
1000
0001
0000
1000
0000
0000
0000
,
1000
0100
0010
1000
0010
0001
1000
0001
,
1000
0010
0100
1000
0100
0001
1000
0001
,
0100
0000
0010
0000
0100
0000
0001
0010
0000
0010
0001
0000
1000
0000
0000
0000
,
0010
0000
0100
0000
0010
0000
1000
0100
0000
0100
1000
0000
0001
0000
0000
0000
,
0110
0000
0000
0000
;

//---------------dance-double - ----------------
#NOTES:
     dance-double:
     :
     Challenge:
     16:
     0.879445,1.010828,0.488106,0.179304,1.016058,618.000000,569.000000,49.000000,18.000000,0.000000,0.000000,0.879445,1.010828,0.488106,0.179304,1.016058,618.000000,569.000000,49.000000,18.000000,0.000000,0.000000:
// measure 0
00000000
00000000
00000000
00000000
,  // measure 1
00000000
00000000
00000000
00000000
,  // measure 2
00000000
00000000
00000000
00000000
,  // measure 3
00000000
00000000
00000000
00000000
,  // measure 4
00022000
00000000
00000000
00000000
00033000
00000000
01100000
00000000
00000000
01000000
00000000
10000000
00010000
00000000
01010000
00000000
,  // measure 5
00100000
00000000
00010000
00000000
00001000
00000000
00010000
01000000
00010000
01000000
10000000
00000000
00100000
00000000
11000000
00000000
,  // measure 6
00010000
00000000
00100000
00000000
01000000
00100000
00010000
00100000
00001000
00010000
00001000
00010000
00001000
00000000
00000100
00000000
,  // measure 7
00000101
00000000
00000010
00000000
00001000
00000000
00000100
00000010
00000001
00000010
00000001
00000000
00000100
00000000
00001000
00000000
,  // measure 8
00022000
00000000
00000000
00003000
00000100
00000100
00031000
00000000
,  // measure 9
00001000
00100000
00000000
00100000
00010000
00000000
01000000
00000000
00001000
00000000
00010000
00000000
00100000
00000000
00100000
00000000
,  // measure 10
00020000
00000000
00032000
00000000
00003100
00000000
00000001
00000000
00001000
00000010
00000000
00000010
00000100
00000000
00000100
00000000
,  // measure 11
00002000
00000000
00003200
00000000
00000301
00000000
00001000
00000001
00001000
00000000
00000100
00010000
00000100
00000000
00001000
00000000
,  // measure 12
00010000
00100000
00010000
00100000
10000000
10010000
01010000
00000000
,  // measure 13
00101000
00000000
00010000
00000000
00100000
00000000
00001000
00010000
00001000
00000100
00000001
00001000
00000001
00000000
00000010
00000000
,  // measure 14
00001100
00000000
00000010
00000001
00000100
00000010
00001000
00000010
00000100
00000001
00000010
00000100
00001000
00000000
00000110
00000000
,  // measure 15
00000001
00000001
00001100
00001100
00010000
00010000
01100000
01100000
,  // measure 16
10000000
00010000
00000000
00010000
10000000
00000000
01100000
00000000
00010000
00000000
00001000
00000000
00000020
00000000
00000000
00000000
,  // measure 17
00000031
00000000
00000100
00000000
00001000
00000000
00000100
00000001
00000000
00000001
00000000
00000010
00001000
00000000
00010000
00000000
,  // measure 18
00011000
00000000
01000000
00000000
00100000
00000000
10000000
01000000
00000000
01100000
00000000
00010000
00001000
00000000
00001000
00000000
,  // measure 19
00000100
00000001
00000100
00000001
00001000
00000010
00001000
00000010
00000100
00001000
00000100
00001000
00010000
00000000
01000000
00000000
,  // measure 20
10000000
00100000
10000000
00100000
00010000
00001000
00000110
00000000
,  // measure 21
00000001
00000000
00000100
00000000
00001000
00000000
00000100
00000000
00000001
00000000
00000100
00000000
00001000
00000100
00000001
00000000
,  // measure 22
00000010
00000000
00001000
00000000
00010000
00000000
00100000
01000000
00000000
01000000
00000000
01000000
00000000
00010000
00000000
00000000
,  // measure 23
00022000
00000000
00000000
00000000
00000000
00000000
00033000
00000100
00000010
00000100
00000010
00000100
,  // measure 24
00000020
00000000
00000000
00000030
00001200
00000010
00010300
00000000
,  // measure 25
00000100
00001000
00000010
00000100
00000001
00000010
00000100
00001000
00000001
00000100
00001000
00000000
00010000
00000000
01000000
00000000
,  // measure 26
00100000
00010000
00000000
00000000
00001000
01000000
00000000
00000000
00100000
00010000
00100000
00000000
00001000
00000100
00001000
00000000
,  // measure 27
00010000
00001000
01000000
00100000
10000000
01000000
00100000
01000000
00000000
00010000
00000000
00001000
00000100
00000001
00000100
00000000
,  // measure 28
00000010
00010000
00000000
00000000
00000100
00001000
00000000
00000000
00010000
00001000
00010000
00000000
00100000
00001000
00100000
00000000
,  // measure 29
00010000
01000000
11000000
00000000
00010000
00001000
00000101
00000101
,  // measure 30
00000010
00000010
00001000
00001000
00010000
00010000
00100000
00100000
,  // measure 31
10000000
00010000
10000000
00010000
10000000
00010000
10000000
00010000
01000000
00001000
01000000
00001000
01000000
00001000
01000000
00001000
,  // measure 32
00020000
00000000
00000000
00000000
00000000
00000000
00031000
00000100
00000001
00000010
00000000
00000000
,  // measure 33
00001100
00000000
00000000
00000000
00000000
00000000
00000100
00000000
00000000
00001000
00000000
00010000
01000000
00000000
10000000
00000000
,  // measure 34
11000000
00000000
00000000
00000000
00000000
00000000
01000000
00000000
00000000
00100000
00000000
00010000
00001000
00000000
00000100
00000000
,  // measure 35
00000110
00000000
00000000
00000000
00000000
00000000
00000001
00000000
00000000
00000100
00000000
00001000
00010000
00000000
00100000
00000000
,  // measure 36
11000000
00000000
00000000
00000000
00000000
00000000
00010000
00000000
00000000
00100000
00000000
01000000
00010000
00000000
00001000
00000000
,  // measure 37
00001100
00000000
00000010
00000000
00000001
00000000
00000100
00001000
00000000
00001000
00000000
00000100
00001000
00000000
00010000
00000000
,  // measure 38
01010000
00000000
10000000
00000000
00100000
00000000
00010000
00100000
00000000
00100000
00000000
01000000
00010000
00000000
00001000
00000000
,  // measure 39
00011000
00000000
00000110
00000000
,  // measure 40
01100000
00000000
00000000
00000000
10010000
00000000
00000000
00000000
01000000
00100000
00000000
00100000
10000000
00000000
00010000
00000000
,  // measure 41
01000000
00100000
01000000
00100000
01000000
00100000
00010000
00001000
00000100
00000010
00000100
00000010
00000100
00000010
00001000
00010000
,  // measure 42
01000000
10000000
01000000
10000000
01000000
00000000
10000000
00000000
01000000
00000000
00010000
00001000
00000000
00001000
00010000
00000000
,  // measure 43
00000010
00000100
00000010
00000100
00000010
00000100
00010000
00001000
00100000
01000000
00100000
01000000
00100000
01000000
00010000
00001000
,  // measure 44
00000100
00000000
00000001
00001000
00000000
00001000
00000001
00000000
00000100
00001000
00000100
00001000
00010000
01000000
00010000
01000000
,  // measure 45
10000000
00100000
10000000
01000000
10000000
00100000
01000000
00010000
10000000
01000000
10000000
00100000
10000000
01000000
00100000
00010000
,  // measure 46
01000000
00100000
00010000
00001000
00000100
00000001
00001000
00000001
00000100
00000010
00001000
00000010
00000100
00000001
00001000
00000000
,  // measure 47
00000010
00000000
00010000
00000000
00001100
00000000
00000000
00000010
00000000
00010000
00000100
00000000
00001100
00000000
00000010
00000001
,  // measure 48
00000100
00000000
00000010
00000000
00010100
00000000
00000000
00000100
00000000
00000010
00001000
00000000
00010100
00000000
00000000
00000000
,  // measure 49
00001000
00000010
00001000
00000100
00001000
00000010
00000100
00000001
00001000
00000010
00001000
00000100
00001000
00000010
00000100
00000001
,  // measure 50
00000100
00001000
00010000
01000000
10000000
01000000
00100000
01000000
10000000
00010000
00100000
00010000
10000000
01000000
00100000
00010000
,  // measure 51
01000000
00000000
00100000
00000000
01001000
00000000
00000000
01000000
00000000
00100000
00001000
00000000
01001000
00000000
00010000
00001000
,  // measure 52
00200000
00000000
01000000
00000000
20300000
00000000
00010000
00000000
31000000
00010000
00001000
00000100
00000001
00001000
00000001
00001000
,  // measure 53
00000010
00000100
00000010
00001000
00000010
00000100
00000001
00001000
00000100
00000010
00000100
00000001
00000100
00001000
00000001
00000100
,  // measure 54
00000010
00000100
00001000
00010000
01000000
00100000
00010000
00100000
01000000
10000000
00010000
10000000
01000000
00100000
00010000
10000000
,  // measure 55
00100000
00000000
01000000
00000000
01001000
00000000
00000000
00100000
00000000
01000000
10000000
00000000
11000000
00000000
00100000
01000000
,  // measure 56
00010000
00000000
00100000
00000000
01001000
00000000
00000000
00100000
00000000
00010000
10000000
00000000
11000000
00000000
00000000
00000000
,  // measure 57
00100000
01000000
00100000
00010000
00100000
10000000
00010000
00100000
01000000
10000000
01000000
00100000
01000000
10000000
00010000
01000000
,  // measure 58
00100000
00010000
00001000
00000100
00000010
00000001
00001000
00000001
00000010
00000100
00001000
00000100
00000010
00000001
00001000
00000100
,  // measure 59
00000010
00000000
00000001
00000000
00000011
00000000
00000000
00000010
00000000
00000100
00001000
00000000
00010100
00000000
00001000
00010000
,  // measure 60
00001000
00000000
01000000
00000000
01100000
00000000
00000000
00100000
00000000
10000000
00010000
00000000
01010000
00000000
00000000
00000000
,  // measure 61
22000000
00000000
33000000
00000000
;

//---------------dance-single - ----------------
#NOTES:
     dance-single:
     :
     Beginner:
     2:
     0.142305,0.212675,0.089652,0.000000,0.000000,100.000000,91.000000,9.000000,0.000000,0.000000,0.000000,0.142305,0.212675,0.089652,0.000000,0.000000,100.000000,91.000000,9.000000,0.000000,0.000000,0.000000:
0000
0000
0000
0000
,
0000
0000
0000
0000
,
0000
0000
0000
0000
,
0000
0000
0000
0000
,
1001
0000
0000
0000
,
0010
0000
0000
0000
,
0010
0000
0000
0100
,
0100
0000
0000
0000
,
0110
0000
0000
0000
,
1000
0000
0000
0000
,
0010
0000
0000
0000
,
1000
0000
0000
0000
,
0001
0001
0001
0000
,
0100
0000
0000
0000
,
0010
0000
0000
0000
,
1000
1000
1000
1000
,
1000
0000
0001
0000
,
0010
0000
0000
0000
,
0100
0000
0000
0000
,
0010
0000
0000
0000
,
0001
0001
0001
0000
,
1000
0000
0000
0000
,
0000
0000
1000
0000
,
1001
0000
0000
0000
,
0110
0000
0000
0001
,
0001
0000
0000
0000
,
1000
0000
0000
0000
,
0001
0000
0000
0000
,
1000
0000
0000
0000
,
0010
0000
0010
0000
,
0010
0000
0000
0000
,
0100
0000
0000
0000
,
0100
0000
0100
0000
,
0100
0000
0000
0000
,
1000
0000
0000
0000
,
0001
0000
0000
0000
,
0010
0000
0000
0000
,
0001
0000
0001
0000
,
1000
0000
1000
0000
,
0001
0000
1000
0000
,
0001
0001
0001
0000
,
1001
0000
0000
0000
,
0110
0000
0000
0000
,
1001
0000
0000
0000
,
0110
0000
0000
0000
,
1000
0000
1000
0000
,
0001
0000
0001
0000
,
1000
0000
0001
0000
,
1000
0000
0001
0000
,
0010
0000
0010
0000
,
0100
0000
0100
0000
,
0010
0000
0100
0000
,
0010
0000
0010
0000
,
0001
0000
0001
0000
,
0010
0000
0010
0000
,
0001
0000
0010
0000
,
0001
0000
0010
0000
,
0100
0000
0100
0000
,
1000
0000
1000
0000
,
0100
0000
1000
0000
,
0100
0000
0010
0000
,
0110
0000
0000
0000
;

//---------------dance-single - ----------------
#NOTES:
     dance-single:
     :
     Medium:
     9:
     0.388493,0.425350,0.179304,0.219150,0.000000,273.000000,255.000000,18.000000,22.000000,0.000000,0.000000,0.388493,0.425350,0.179304,0.219150,0.000000,273.000000,255.000000,18.000000,22.000000,0.000000,0.000000:
0000
0000
0000
0000
,
0000
0000
0000
0000
,
0000
0000
0000
0000
,
0000
0000
0000
0000
,
0220
0030
0002
0303
,
1001
0000
0000
0000
1000
0010
0100
0010
,
0001
0000
0000
0000
1000
0100
0010
0100
,
0001
0000
0000
0000
1000
0100
0010
0100
,
2000
0000
0000
0000
0001
0001
3001
0000
,
0001
0100
0000
0010
0000
1000
0100
0010
,
0001
1000
0000
0010
0000
0100
0010
0010
,
0000
0100
0001
0000
0001
0000
0001
1000
,
0010
0000
0010
0000
0010
0010
0010
0000
,
0100
0001
0200
0000
0001
0000
1300
0000
,
0010
0001
0020
0000
0032
0000
0103
0000
,
0010
0010
1000
0000
0100
0100
0001
0000
,
0010
0200
0000
0000
1300
0000
1000
0000
,
1000
0100
0000
0001
0000
0100
0000
1000
,
0001
1000
0000
0010
0000
0001
0000
0010
,
1000
0001
0000
0100
0000
0001
1000
0000
,
0100
0100
0010
0100
,
1000
0001
0000
0001
0000
0010
0000
0010
,
0000
0100
0010
0002
0000
0000
0000
0000
,
2003
0000
3002
0000
,
0203
0000
0320
0130
,
0010
1000
0010
0000
0100
0001
0100
0000
,
0001
0011
0001
0101
,
0001
0010
0001
0000
1000
0100
1000
0000
,
0010
1010
0010
0110
,
0100
0100
0010
0000
1000
1000
0001
0000
,
0100
0100
0100
0100
,
0020
0000
0000
0000
,
2000
0030
0002
3003
,
1001
0000
0000
0010
0000
0001
1000
0000
,
1010
0000
0000
0010
0000
0100
0001
0000
,
0101
0000
0000
0010
0000
0100
1000
0000
,
1100
0000
0000
1000
0000
0100
0010
0000
,
1100
0000
0000
0001
0000
0010
0100
0010
,
0010
0000
0000
0001
0000
0100
0001
0100
,
0100
0000
0110
0000
,
0011
0110
1100
1001
,
0200
0000
0320
0000
,
0031
0010
0100
1000
0002
0000
0000
0000
,
0023
0000
0230
0000
,
2300
0000
3000
0000
1000
0100
0010
0001
,
0100
0001
0010
0100
,
0001
1000
0010
0100
,
0010
1000
0010
0000
1000
0001
1000
0000
,
0010
1000
0010
0000
1000
0100
0001
0000
,
1000
0010
0100
0001
,
0010
0100
0010
0001
,
0010
0001
0010
0000
0001
1000
0001
0000
,
0010
0001
0010
0001
0010
0000
0110
0000
,
0100
1000
0010
0100
,
0001
0010
0100
1000
,
0010
0100
0010
0000
0100
0001
0100
0000
,
0010
0100
0010
0000
1000
0010
0001
0000
,
1000
0100
0010
0100
,
1000
0001
0100
0010
,
0100
0001
0100
0000
0010
1000
0010
0000
,
1000
0100
1000
0000
0010
0001
0100
0000
,
0110
0000
0000
0000
;

//---------------dance-single - ----------------
#NOTES:
     dance-single:
     :
     Easy:
     6:
     0.293148,0.303821,0.159382,0.308802,0.000000,206.000000,190.000000,16.000000,31.000000,0.000000,0.000000,0.293148,0.303821,0.159382,0.308802,0.000000,206.000000,190.000000,16.000000,31.000000,0.000000,0.000000:
0000
0000
0000
0000
,
0000
0000
0000
0000
,
0000
0000
0000
0000
,
0000
0000
0000
0000
,
0022
0000
0033
0000
,
0100
1000
0010
0100
,
0110
1000
0001
0001
,
0010
0100
1000
0010
,
0200
0000
0002
0303
,
0010
0100
0010
1000
,
0010
0100
0010
0001
,
0010
1000
0010
1000
,
0001
0001
0010
0011
,
0100
0000
1000
0010
,
0100
0002
0023
0031
,
1000
1000
0001
0001
,
0220
0300
2000
3030
,
0000
0001
0000
0100
0000
0001
0000
0010
,
0000
0100
0000
1000
0000
0100
0000
0000
,
0010
0000
0000
0100
0000
0000
1000
0000
,
0010
0010
1000
1010
,
0000
1000
0000
0001
0000
1000
0000
0001
,
0000
1000
0000
0000
0020
0000
0030
0000
,
0202
0303
2020
3030
,
2002
0000
3003
0110
,
0100
0001
0010
0100
,
0020
0032
0023
0032
,
0103
0010
1000
0100
,
2000
3020
2030
3020
,
0130
0000
0110
0000
,
0010
0010
0010
0010
,
2000
0000
0002
3000
,
0203
0000
0010
0310
,
0110
0000
1000
0100
,
0010
0000
0100
0010
,
0001
0000
0100
1000
,
0100
0000
0001
1000
,
1001
0000
0001
0010
,
0110
0000
0010
0100
,
1100
0000
1001
0000
,
0001
0001
1000
1000
,
0020
0000
0000
0000
,
1030
0000
0100
0010
,
0002
0000
0000
0000
,
0103
0000
0010
1000
,
0001
0010
0001
0100
,
0001
0010
0100
1000
,
0001
0001
1000
1000
,
0001
0001
1000
1000
,
1000
0010
1000
0100
,
1000
0010
0100
0001
,
0100
0100
0010
0010
,
0200
0300
0200
0300
,
0010
1000
0010
0100
,
0010
1000
0100
0010
,
0001
0001
0100
0100
,
0001
0001
0010
0010
,
0100
1000
0100
0010
,
0100
1000
0010
0100
,
0100
0100
0001
0001
,
1000
1000
0010
0010
,
1010
0000
0000
0000
;

//---------------dance-double - ----------------
#NOTES:
     dance-double:
     :
     Hard:
     12:
     0.542182,0.551361,0.288879,0.179304,0.049807,381.000000,352.000000,29.000000,18.000000,0.000000,0.000000,0.542182,0.551361,0.288879,0.179304,0.049807,381.000000,352.000000,29.000000,18.000000,0.000000,0.000000:
00000000
00000000
00000000
00000000
,
00000000
00000000
00000000
00000000
,
00000000
00000000
00000000
00000000
,
00000000
00000000
00000000
00000000
,
00022000
00000000
00000000
00033000
,
00000100
00001000
00000010
00000000
00000100
00000010
00010010
00000000
,
00001000
00010000
00100000
00000000
00010000
00001000
01000000
01000000
,
00100000
10000000
01000000
00000000
00100000
00001000
00102000
00000000
,
00023000
00000000
00000000
00000000
00000100
00000100
00030100
00000000
,
00001000
00000000
00000010
00000100
00000000
00000000
00000001
00000000
00000000
00000000
00001100
00000000
00000010
00000000
00000100
00000000
,
00001000
00010000
00000000
00100000
10000000
00100000
00010000
00010000
,
00001000
01000000
00100000
00010000
00100000
00010000
00001000
00000100
,
00000001
00001000
00000001
00001000
00000010
00000010
00000010
00000000
,
00000100
00000000
00000001
00001000
00000000
00000000
00000010
00000000
00000100
00000000
00001000
00000000
00010000
00000000
00010000
00000000
,
00001000
00100000
01000000
10000000
00100000
01000000
00100000
00100000
,
00010000
00001000
00000010
00000010
00000001
00000100
00001000
00001000
,
00020000
00000000
00000000
00000000
00130000
01000000
00010000
00000000
,
10000000
01000000
00000000
01010000
00000000
11000000
00000000
00100000
,
00001000
00010000
00000000
00101000
00000000
00011000
00010000
00000100
,
00001000
00000010
00000100
00000001
00000100
00000010
00001000
00001000
,
00000100
00000010
00000100
00000010
00001000
00010000
01000000
00000000
,
10000000
00200000
00000000
00010000
00000000
10300000
00000000
00100000
,
00010000
00000000
00001000
00000000
00000010
00000000
00000002
00002000
00000000
00000000
00000000
00000000
00003003
00000000
00000000
00000000
,
00002200
00003000
00020000
00000300
,
00002000
00000000
00030000
00000000
00003010
00000001
00000100
00000000
,
00001000
00010000
01000000
10000000
01000000
00100000
00010000
00010000
,
01000000
00000000
00000000
01000000
00010000
00000000
00000000
00010000
00100000
00000000
00000000
00100000
00001000
00000000
00000000
00001000
,
00010000
00000100
00000010
00000001
00000100
00001000
00010000
00010000
,
00000010
00000000
00000000
00000010
00001000
00000000
00000000
00001000
00000100
00000000
00000000
00000100
00010000
00000000
00010000
00000000
,
00001000
00010000
00100000
00000000
00010000
00001000
00000100
00000100
,
00000010
00000100
00001000
00010000
00100000
10000000
00010000
01000000
,
00100000
00010000
00100000
00010000
00100000
00010000
00100000
00010000
,
00002000
00000000
00000200
00003300
,
00011000
00000000
00000010
00000001
,
00001100
00000000
00010000
01000000
,
00110000
00000000
00001000
00000100
,
00011000
00000000
00000010
00000001
,
00001100
00000000
00000000
00000000
00000100
00010000
00000000
00001000
,
00001000
00000000
00000000
00000000
00010000
00100000
00000000
10000000
,
10000000
00000000
00000000
00010000
00010000
00000000
00000000
00000000
,
11000000
01010000
00011000
00001100
,
00000001
00000010
00000001
00000100
00000001
00000010
00000001
00000010
,
00000200
00000000
00000000
00000000
00010300
00001000
00010000
00100000
,
10000000
01000000
10000000
00100000
10000000
01000000
10000000
01000000
,
00020000
00000000
00000000
00000000
00031000
00000010
00000001
00000010
,
00001000
00010000
00000100
00000010
00001000
00010000
01000000
00100000
,
00010000
10000000
01000000
00010000
00001000
00000100
00000001
00001000
,
00000100
00001000
00001100
00000000
00000010
00000001
00000011
00000000
,
00000100
00010000
00010100
00000000
00001000
00100000
00101000
00000000
,
00010000
00001000
00100000
01000000
00010000
00001000
00000010
00000100
,
00001000
00000001
00000010
00001000
00010000
00100000
10000000
00010000
,
00100000
00010000
00110000
00000000
01000000
10000000
11000000
00000000
,
00100000
00001000
00100000
00001000
00010000
00000100
00010000
00001000
,
00000010
00000001
00000010
00000100
00010000
00001000
00010000
00100000
,
10000000
01000000
00010000
00001000
00010000
00001000
00000100
00000001
,
00001000
00000100
00000110
00000000
00010000
00001000
00010000
00100000
,
10000000
01000000
01100000
00000000
00001000
00010000
01000000
10000000
,
01000000
00010000
01000000
00100000
00001000
00010000
00001000
00000100
,
00000001
00000010
00001000
00010000
00001000
00010000
00100000
10000000
,
00010000
00100000
01100000
00000000
00001000
00010000
00001000
00000100
,
00000001
00000010
00000110
00000000
00010000
00001000
00010000
00001000
,
00022000
00000000
00033000
00000000
;

//---------------dance-double - ----------------
#NOTES:
     dance-double:
     :
     Easy:
     7:
     0.320186,0.398205,0.159382,0.129498,0.000000,225.000000,209.000000,16.000000,13.000000,0.000000,0.000000,0.320186,0.398205,0.159382,0.129498,0.000000,225.000000,209.000000,16.000000,13.000000,0.000000,0.000000:
00000000
00000000
00000000
00000000
,
00000000
00000000
00000000
00000000
,
00000000
00000000
00000000
00000000
,
00000000
00000000
00000000
00000000
,
00011000
00000000
00000000
00000000
,
01000000
00000000
01000000
00010000
,
00100000
00000000
00001000
00010000
,
00000010
00000000
00000100
00001000
,
00020000
00000000
00130000
00100000
,
10000000
00000000
00100000
01000000
,
00010000
00000000
00100000
00001000
,
00001000
00010000
00000100
00000010
,
00000001
00000001
00000100
00001000
,
00010000
00100000
10000000
10000000
,
01000000
00010000
00001000
00100000
,
00101000
00000000
00011000
00000000
,
00010100
00000100
00001000
00001000
,
00000000
00000010
00000000
00000100
00000000
00000010
00000000
00000100
,
00000000
00010000
00000000
00001000
00000000
00010000
00000000
00001000
,
00000000
01000000
00000000
00100000
00000000
01000000
00000000
00000000
,
10010000
10010000
01000000
00100000
,
00000000
10000000
00000000
01000000
00000000
00010000
00000000
00001000
,
00000000
00000100
00000000
00000001
,
00002000
00000000
00000020
00003000
,
00020000
00000030
00030100
00011000
,
00001000
00100000
00010000
01000000
,
00100000
00010000
00100000
00010000
,
00001000
00000010
00000001
00000100
,
00001000
00000100
00001000
00000100
,
00001000
00000000
00010000
00000000
,
01000000
01000000
10000000
10000000
,
00100000
01000000
00001000
00010000
,
00000020
00000000
00000230
00000000
,
00000301
00000000
00001000
00000100
,
00001100
00000000
00000010
00010000
,
00011000
00000000
00100000
00010000
,
01010000
00000000
00100000
00001000
,
00011000
00000000
00000010
00000010
,
00000110
00000000
00010000
00010000
,
00011000
00000000
01100000
00000000
,
10100000
10000000
01000000
00100000
,
00002000
00000000
00023000
00000000
,
00030100
00000010
00001000
00001000
,
00002000
00000000
00023000
00000000
,
00031000
00000000
01000000
00100000
,
01000000
00010000
01000000
00010000
,
00100000
00001000
00010000
00000010
,
00001000
00000100
00001000
00000000
00000100
00000010
00000100
00000000
,
00001000
00000100
00001000
00000000
00000010
00000001
00000010
00000000
,
00000100
00000001
00001000
00000010
,
00010000
00001000
01000000
00100000
,
10000000
00010000
10000000
00000000
00010000
10000000
00010000
00000000
,
21000000
32000000
03100000
00010000
,
01000000
00100000
01000000
00001000
,
00010000
00000010
00000100
00000010
,
00001000
00000100
00001000
00000000
00000100
00010000
00000100
00000000
,
00010000
00001000
00010000
00000000
00001000
00100000
00001000
00000000
,
00100000
00010000
00100000
01000000
,
10000000
00100000
01000000
00010000
,
00100000
00001000
00100000
00000000
00001000
00010000
00001000
00000000
,
00010000
00000010
00010000
00000000
00000010
00000100
00000010
00000000
,
00000200
00000000
00000300
00000000
;

//---------------dance-double - ----------------
#NOTES:
     dance-double:
     :
     Medium:
     9:
     0.362878,0.396586,0.249034,0.159382,0.000000,255.000000,230.000000,25.000000,16.000000,0.000000,0.000000,0.362878,0.396586,0.249034,0.159382,0.000000,255.000000,230.000000,25.000000,16.000000,0.000000,0.000000:
00000000
00000000
00000000
00000000
,
00000000
00000000
00000000
00000000
,
00000000
00000000
00000000
00000000
,
00000000
00000000
00000000
00000000
,
00022000
00000000
00000000
00033000
,
00100000
00010000
00100000
00000000
01000000
10000000
01000000
00000000
,
10010000
00000000
00000000
00000000
00100000
00001000
00010000
00000100
,
00001000
00000000
00000000
00000000
00000010
00000100
00000001
00001000
,
00000200
00000000
00000000
00000000
00010300
00010000
00000010
00000000
,
00000100
00001000
00000000
00010000
00000000
00100000
00000000
10000000
,
00010000
10000000
00000000
01000000
00000000
00010000
00001000
00010000
,
00000010
00000100
00000000
00000010
00000000
00000100
00000000
00000010
,
00001000
00001000
00000001
00001001
,
00000010
00001000
00000000
00000100
00010000
00000100
00000000
00000000
,
00010000
00001000
01000000
01100000
,
01010000
00000000
10100000
00000000
,
20000000
00000000
31000000
00010000
,
00001000
00000100
00000000
00000001
00000000
00000100
00000000
00000001
,
00001000
00000010
00000000
00000100
00000000
00000010
00000000
00000100
,
00001000
00010000
00000000
00001000
00000000
00010000
00000000
00001000
,
01000000
01000000
00100000
00100000
,
10000000
00010000
00000000
00100000
00000000
00010000
00000000
00100000
,
00001000
00000000
00010000
00000020
00000000
00000000
00000000
00000000
,
00000230
00000000
00000320
00000000
,
00020000
00000030
00030100
00011000
,
00100000
00010000
00100000
01000000
00100000
00000000
00001000
00000000
,
00010000
00010000
00000010
00000100
,
00000001
00000010
00000001
00001000
00000001
00000000
00001001
00000000
,
00000100
00000100
00010000
00001000
,
02000000
03100000
10000000
10000000
,
00010000
00010000
00010000
00010000
,
00200000
00000000
00000000
00000000
,
00302000
00000000
00010000
00013000
,
00011000
00000000
00000010
00000100
,
00001100
00000000
00010000
00001000
,
01001000
00000000
00100000
10000000
,
11000000
00000000
00100000
00001000
,
00011000
00000000
00000000
00000000
00000010
00000000
00000100
00000001
,
00001000
00000000
00000000
00000000
00000100
00000000
00010000
00001000
,
01000000
00000000
01100000
00000000
,
00011000
00000010
00000101
00000010
,
00020000
00000100
00000010
00030100
,
00010010
00000000
00011000
00000000
,
00002000
01000000
00100000
01003000
,
01001000
00000000
00011000
00000000
,
00000010
00000100
00000001
00000000
00001000
00000000
00001000
00000000
,
00000010
00000100
00001000
00000000
00010000
00000000
00010000
00000000
,
00100000
10000000
00100000
10000000
,
01000000
00010000
01000000
00010000
,
01000000
10000000
00100000
00000000
01000000
00000000
01000000
00000000
,
01000000
00100000
00010000
00000000
00001000
00000000
00001000
00000000
,
00000010
00000100
00000010
00000100
,
00002000
00000000
00003001
00000000
,
00000100
00000010
00001000
00000000
00000100
00000010
00001000
00000000
,
00000100
00010000
00001000
00100000
,
00010000
01010000
00010000
00110000
,
01000000
10000000
00100000
00000000
01000000
00000000
01000000
00000000
,
00100000
01000000
00010000
00000000
00100000
01000000
00010000
00000000
,
00100000
00001000
00010000
00000010
,
00000100
00000101
00000100
00000110
,
00000010
00001000
00000100
00000000
00010000
00000000
00010000
00000000
,
00022000
00033000
00000000
00000000
;
