#TITLE:All Night;
#SUBTITLE:;
#ARTIST:Big Boi;
#TITLETRANSLIT:;
#SUBTITLETRANSLIT:;
#ARTISTTRANSLIT:;
#GENRE:Hip Hop;
#CREDIT:;
#BANNER:allnight-bn.png;
#BACKGROUND:allnight-bg.png;
#LYRICSPATH:;
#CDTITLE:;
#MUSIC:All Night.mp3;
#OFFSET:-0.050000;
#SAMPLESTART:79.000000;
#SAMPLELENGTH:11.999990;
#SELECTABLE:YES;
#BPMS:0.000000=136.000000
,144.000000=68.000000
,162.000000=136.000000
;
#STOPS:
;
#BGCHANGES:;
#KEYSOUNDS:;
#ATTACKS:;

//---------------dance-single - ----------------
#NOTES:
     dance-single:
     :
     Challenge:
     15:
     0.689509,0.915036,0.349351,0.266610,0.583785,525.000000,487.000000,38.000000,29.000000,0.000000,0.000000,0.689509,0.915036,0.349351,0.266610,0.583785,525.000000,487.000000,38.000000,29.000000,0.000000,0.000000:
0000
0000
0000
0000
,
0000
0000
0000
0000
,
0000
0000
0000
0000
,
0000
0000
0000
0000
0000
0000
0010
0100
,
0001
0010
0001
0010
0000
0000
0100
1000
0100
1000
0000
0000
0000
0000
0000
0001
0000
0000
0100
0000
0000
0010
0000
0000
,
1000
0100
0010
0100
0001
0100
1000
0001
,
1000
0100
1000
0100
0000
0000
0010
0001
0010
0001
0000
0000
0000
0000
0000
0100
0000
0000
0010
0000
0000
0100
0000
0000
,
0001
1000
0100
0001
0100
1000
0001
1000
,
0010
0100
0010
0100
0000
0000
0001
1000
0001
1000
0000
0000
0000
0000
0000
0100
0000
0000
0010
0000
0000
1000
0000
0000
,
0001
0100
0010
0100
1000
0100
0001
1000
,
0001
1000
0001
1000
0000
0000
0010
0100
0010
0100
0000
0000
0000
0000
0000
0010
0000
0000
0100
0000
0000
0010
0000
0000
,
1000
0001
0100
1000
0100
0001
1000
0001
,
1000
0010
1000
0010
0000
0000
0100
0000
0000
0201
0000
0000
0000
0000
0000
0300
0000
0000
0100
0000
0000
0210
0000
0000
,
0000
0300
1000
1200
0000
0301
1000
1001
,
0010
1000
0100
1200
0000
0310
0100
0210
,
0000
0301
0100
0201
0000
1300
0001
0100
,
0010
1000
0010
1000
0000
0000
0001
0000
0000
1020
0000
0000
0000
0000
0000
0130
0000
0000
0010
0000
0000
0120
0000
0000
,
0000
0031
0010
1000
0001
1000
0001
1000
,
0010
1000
0010
1000
0000
0000
0001
0100
0001
0100
0000
0000
0000
0000
0000
0010
0000
0000
1000
0000
0000
0100
0000
0000
,
0001
0100
1000
0001
0010
1000
0001
0100
,
1000
0010
0100
1100
0000
0001
0010
1100
,
0000
0000
0010
0000
0100
0001
0100
0000
0010
0000
0100
1000
0100
1000
0100
0000
,
0001
0000
0100
0000
0010
0000
0100
0000
0001
0000
0100
1000
0100
1000
0100
0000
,
0000
0000
0010
0000
1000
0000
0100
0000
0001
0000
0100
1000
0100
0000
0010
0000
,
0001
0010
0100
0000
1000
0000
2001
0000
0000
0000
0100
0000
3100
0000
0000
0000
,
0010
0001
1000
0000
1001
0000
0010
0000
0100
0000
0001
0000
1001
0000
0000
0000
,
0010
1000
0000
0000
0001
0100
0000
0000
0100
1000
0000
0000
0001
0100
0001
0100
,
0001
0000
1000
0010
1000
0010
1000
0000
0100
0001
0000
0000
1100
0000
0000
0000
,
0000
0000
0010
0000
0100
0000
0010
0000
1100
0000
0010
0001
0000
0000
0100
0000
,
0001
0000
0100
0000
0010
0100
1000
0100
0001
0000
1000
0010
0000
0000
0001
0010
,
1000
0001
1000
0100
0000
0010
0100
1000
0100
0000
0010
0001
0000
1000
0100
0000
,
0000
0000
1000
0000
0010
0000
0100
0001
0000
0001
1000
0000
2020
0000
0000
0000
,
3030
0000
0100
0000
0010
0000
0001
0010
0000
0010
1000
0000
0022
0000
0000
0000
,
0033
0000
0010
0000
0100
0000
1000
0100
0000
0100
0001
0000
2020
0000
0000
0000
,
3030
0000
0000
0000
1000
0001
0100
0001
1000
0000
0010
0000
0110
0000
0000
0000
,
0010
0000
1100
0000
0010
0000
0101
0000
0010
0000
0100
1000
0010
0000
0100
0001
,
1000
0000
0100
0000
0010
0000
0000
0000
0100
0010
0001
0000
0001
0100
1000
0000
0001
0000
0100
0000
1000
0000
0100
0000
0001
0000
1000
0000
0010
0000
0210
0000
,
0000
0000
0000
0000
1000
0000
1000
0000
0300
0000
1000
0000
0100
0001
0010
0000
0100
0000
1000
0000
0100
0000
1000
0000
0100
0000
0001
0000
0100
0000
1200
0000
,
0000
0000
0310
0000
0001
0000
1020
0000
0000
0000
0130
0000
1000
0000
0100
0001
1000
0000
0010
0000
1000
0000
0010
0000
0001
0000
0010
0000
1000
0000
1020
0000
,
0000
0130
1000
1200
0000
0301
0010
0021
0000
0130
1000
0010
0001
0010
0100
0010
,
0001
0000
0000
0010
0000
0000
0001
0000
0000
0010
0000
0000
0001
0000
0000
0010
0000
0000
1000
0000
0000
1000
0000
0000
0001
0000
0010
0000
0001
0000
0010
0000
0000
0000
0000
0000
0100
0000
1000
0000
0100
0000
1000
0000
0000
0000
0000
0000
,
0000
0001
0100
1000
0100
0001
1000
1001
,
0100
0000
0000
1000
0000
0000
0100
0000
0000
0001
0000
0000
1000
0100
1000
0100
0000
0000
0010
0001
0010
0001
0000
0000
,
0000
1000
0100
0010
0100
0001
0100
1000
,
0001
0000
0000
0100
0000
0000
0010
0000
0000
1000
0000
0000
0001
1000
0001
1000
0000
0000
0010
0100
0010
0100
0000
0000
,
0000
1000
0100
0001
0100
1000
0001
1001
,
0010
0000
0000
0001
0000
0000
0010
0000
0000
1000
0000
0000
0001
1000
0001
1000
0000
0000
0010
0100
0010
0100
0000
0000
,
0000
0001
0100
0010
0100
1000
0100
0001
,
1000
0000
0000
0100
0000
0000
0010
0000
0000
0001
0000
0000
0100
0010
0100
0010
0000
0000
0100
0000
0000
1200
0000
0000
,
0000
0300
0010
0021
0000
0030
0010
1020
,
0000
1030
0100
0001
0000
0100
1000
1200
,
0000
0310
0001
0021
0000
0031
0100
1200
,
0000
0000
0000
0301
0000
0000
0010
0000
0000
1000
0000
0000
0010
0001
0010
0001
0000
0000
1000
0000
0000
0021
0000
0000
,
0000
1030
0010
1020
0000
0031
0100
1000
,
0100
0000
0000
0001
0000
0000
1000
0000
0000
0001
0000
0000
0100
0010
0100
0010
0000
0000
1000
0001
1000
0001
0000
0000
,
0000
1000
0010
0100
0010
0001
0010
1000
,
0001
0000
0000
0010
0000
0000
0001
0000
0000
1000
0000
0000
0001
0010
0100
1000
0000
0000
1000
0100
0010
0001
0000
0000
;

//---------------dance-single - ----------------
#NOTES:
     dance-single:
     :
     Hard:
     12:
     0.560801,0.783455,0.432093,0.101128,0.243627,427.000000,380.000000,47.000000,11.000000,0.000000,0.000000,0.560801,0.783455,0.432093,0.101128,0.243627,427.000000,380.000000,47.000000,11.000000,0.000000,0.000000:
0000
0000
0000
0000
,
0000
0000
0000
0000
,
0000
0000
0000
0000
,
0000
0000
0000
0000
,
1100
0000
0101
0000
1000
0001
0010
1000
,
0010
0001
1000
0100
0010
0001
0010
0100
,
1100
0000
0101
0000
1000
0010
0101
0000
,
1100
0000
0001
0010
0100
1000
0100
0010
,
0011
0000
1010
0000
0001
1000
0010
0001
,
0010
1000
0001
0010
0100
1000
0100
0010
,
0011
0000
1010
0000
0001
1000
1010
0000
,
0011
0000
1000
0100
0010
0001
0010
0100
,
1000
0010
0100
0120
0000
0000
0001
0001
,
0000
0000
1000
1000
0000
0000
0100
0130
,
0000
0001
1000
1200
0000
0001
0001
0001
,
0000
1000
1000
1000
0000
0000
0010
0310
,
0000
0100
0001
1001
0000
0010
1000
1001
,
0000
1000
0100
0001
0100
1000
0001
1000
,
1010
0000
0011
0000
1000
0001
0101
0000
,
1100
1000
0100
0010
0001
1000
0100
0010
,
0001
0100
1000
0100
0000
0100
1000
0100
,
0000
0000
0001
0000
1000
0001
1000
0000
0010
0000
1000
0001
1000
0000
0010
0000
,
0000
0000
0100
0000
0001
0000
0010
0000
0100
0000
0010
0100
0010
0000
0001
0000
,
0000
0000
0100
0000
0001
0000
0100
0000
0001
0000
1000
0010
1000
0000
0001
0000
,
1000
0100
0001
0200
0000
1000
1300
0000
,
0001
0100
1000
0100
0001
1000
1001
0000
,
0001
0100
0000
0000
0010
1000
0000
0000
0001
0100
0000
0000
0010
0000
1000
0000
,
0100
0000
0010
0000
0001
0000
1000
0000
0010
0100
0000
0000
1001
0000
0000
0000
,
0000
0000
0100
0000
0010
0000
0100
0000
0001
0000
1000
0001
0000
0000
0010
0000
,
1000
0000
0010
0000
0001
0000
1000
0000
0100
0000
1000
0010
0000
0000
0100
0000
,
0010
0000
1000
0010
0000
0000
0100
0000
0001
0000
0010
0001
0000
0001
1000
0000
,
0000
0000
0010
0000
0100
0000
0010
1000
0000
1000
0001
0000
0101
0000
0000
0000
,
0010
0000
1000
0000
0100
0000
1000
0010
0000
0010
0100
0000
0101
0000
0000
0000
,
0100
0000
0001
0000
0010
0000
0001
0100
0000
0100
0010
0000
2020
0000
0000
0000
,
3030
0000
0000
0000
0010
0100
0010
0100
0010
0000
1000
0000
0001
0000
0000
0000
,
0100
0001
0100
0010
0100
1000
0100
0001
,
1000
0000
1000
0100
0000
1001
0000
0000
0001
0100
1000
0100
0001
0010
1000
0020
,
0000
0030
0001
0002
0000
0003
0000
0100
0010
0100
1000
0100
0001
1000
0010
0110
,
0000
0010
0001
0010
0000
1000
0100
0010
0001
0010
0100
0010
1000
0010
0001
0200
,
0000
0000
0310
0020
0000
0000
1030
1001
0000
0001
0100
0010
1000
0010
0100
0001
,
0100
1000
0100
1000
0100
1000
0100
0001
0101
0000
0000
0000
1100
0000
0000
0000
,
0001
1000
0010
0001
0010
1000
0100
0010
,
0001
0010
0100
1000
1100
0000
0101
0000
,
0001
1000
0101
0000
1100
0000
1000
0010
,
0100
0001
0100
0010
1010
0000
0011
0000
,
1000
0001
0100
1000
0100
0001
1000
0001
,
0100
0010
0100
0001
0011
0000
1010
0000
,
0001
1000
1010
0000
0011
0000
0100
0010
,
1000
0001
1000
0010
0100
0001
0010
0020
,
0000
0000
1000
1000
0000
0000
0001
0001
,
0000
0000
0100
0130
0000
0001
1000
1200
,
0000
0001
0001
0001
0000
1000
1000
1000
,
0000
0000
0010
0310
0000
1000
0001
0101
,
0000
0001
1000
1010
0000
1000
0100
0001
,
0100
1000
0001
1000
1100
0000
0011
0000
,
0001
0100
0101
0000
1010
1000
0001
0100
,
0001
0000
1000
0000
0010
0000
0100
0000
0010
1000
0000
0000
0001
0100
0000
0000
;

//---------------dance-single - ----------------
#NOTES:
     dance-single:
     :
     Beginner:
     1:
     0.077488,0.104346,0.000000,0.000000,0.000000,59.000000,59.000000,0.000000,0.000000,0.000000,0.000000,0.077488,0.104346,0.000000,0.000000,0.000000,59.000000,59.000000,0.000000,0.000000,0.000000,0.000000:
0000
0000
0000
0000
,
0000
0000
0000
0000
,
0000
0000
0000
0000
,
0000
0000
0000
0000
,
0010
0010
0000
0000
,
0000
0000
0000
0000
,
0010
0010
0000
0000
,
0000
0000
0000
0000
,
1000
1000
0000
0000
,
0000
0000
0000
0000
,
1000
1000
0000
0000
,
0000
0000
0000
0000
,
0000
0001
0000
0001
,
0000
0001
0000
0000
,
0000
1000
0000
1000
,
0000
1000
0000
0000
,
0000
0010
0000
0010
,
0000
0000
0000
0000
,
0010
0010
0000
0000
,
0000
0000
0000
0000
,
0000
1000
0000
0000
,
0000
1000
0000
0000
,
0000
0001
0000
0000
,
0000
0001
0000
0000
,
0100
0000
0000
0000
,
0000
0000
0000
0000
,
0010
0010
0000
0000
,
0000
0000
0010
0000
,
0000
0100
0000
0000
,
0000
0100
0000
0000
,
1000
0000
0000
0000
,
0000
1000
0000
0000
,
0000
0001
0000
0000
,
0000
0001
0000
0000
,
0000
0100
0000
0000
,
0100
0000
0000
0000
,
0010
0000
0010
0000
,
0000
0000
1000
0000
,
0000
0000
0001
0000
,
0000
0000
0000
0000
,
0100
0000
0100
0100
,
0000
0000
0000
0000
,
0000
0000
0100
0100
,
0000
0000
0000
0000
,
0000
0000
0001
0001
,
0000
0000
0000
0000
,
0000
0000
0001
0001
,
0000
0000
0000
0000
,
0000
0000
0000
0100
,
0000
0100
0000
0100
,
0000
0000
0000
0010
,
0000
0010
0000
0010
,
0000
0000
0000
1000
,
0000
1000
0000
0000
,
0000
0000
1000
1000
,
0000
0000
0000
0000
,
0000
0000
0001
0001
;

//---------------dance-single - ----------------
#NOTES:
     dance-single:
     :
     Easy:
     5:
     0.253477,0.339124,0.404512,0.064354,0.000000,193.000000,149.000000,44.000000,7.000000,0.000000,0.000000,0.253477,0.339124,0.404512,0.064354,0.000000,193.000000,149.000000,44.000000,7.000000,0.000000,0.000000:
0000
0000
0000
0000
,
0000
0000
0000
0000
,
0000
0000
0000
0000
,
0000
0000
0000
0000
,
0101
0101
0000
0000
,
0000
0010
0100
1000
,
1100
1100
0000
0011
,
0011
0000
0000
0100
,
0110
0110
0000
0000
,
0000
0010
0100
0001
,
0101
0101
0000
1010
,
1010
0000
0000
0000
,
0000
0002
0000
2003
,
0000
0000
3002
0000
0000
0000
1000
1003
,
0000
0200
0000
0320
,
0000
0000
0230
0000
0000
0000
0010
0310
,
0000
0000
0001
1000
0000
0000
0001
1000
,
0000
0001
1000
0010
,
1010
1010
0000
0101
,
0101
0000
0000
0000
,
0000
0010
0000
0100
0000
0010
0000
1000
,
0000
0010
0000
0100
0000
0010
0000
0100
,
0000
0001
0000
0100
0000
0010
0000
0100
,
0000
0001
0000
0010
0000
0100
0000
1000
,
0000
0010
0000
0100
0000
0020
0000
0030
,
0010
1000
0001
0000
,
0100
0100
0001
0001
,
1000
0010
1000
1010
,
0000
0010
0100
0001
,
0000
0000
0100
0010
,
1000
0000
0001
0000
,
0000
1000
0100
0010
,
0000
0001
0001
0101
,
0000
1000
1000
1100
,
0000
0100
0010
0100
,
1000
0010
1000
0010
,
0000
0000
0000
0000
0100
0100
0001
0001
,
0000
0000
0000
0000
0010
0010
1000
1000
,
0000
0000
0000
0000
0100
0010
1000
0001
,
0000
0100
0000
1001
0000
0000
0000
0010
,
0010
0010
0010
0000
1001
0000
1001
0000
,
0000
0000
0000
0010
,
1000
0100
1100
1100
,
0000
0011
0011
0000
,
0000
0001
0101
0101
,
0000
0000
0000
0100
,
0010
1000
1001
1001
,
0000
0110
0110
0000
,
0000
0000
0000
1010
,
0000
0101
0000
1010
,
0000
0001
0000
0011
,
0000
1100
0000
0011
,
0000
1000
0000
0010
,
0000
0100
0000
0010
,
1000
0001
1001
1001
,
0000
0110
0110
0000
,
0000
0000
0101
1010
;

//---------------dance-single - ----------------
#NOTES:
     dance-single:
     :
     Medium:
     8:
     0.380872,0.444446,0.340158,0.137902,0.036774,290.000000,253.000000,37.000000,15.000000,0.000000,0.000000,0.380872,0.444446,0.340158,0.137902,0.036774,290.000000,253.000000,37.000000,15.000000,0.000000,0.000000:
0000
0000
0000
0000
,
0000
0000
0000
0000
,
0000
0000
0000
0000
,
0000
0000
0000
0000
,
0010
0000
1010
0000
0000
1000
0100
0010
,
0001
0000
1000
0000
0001
0010
0100
1000
,
0001
0101
0000
1000
,
1100
0010
0100
0010
,
0100
0000
0101
0000
0000
0010
0100
0001
,
1000
0000
0010
0000
1000
0001
0100
0010
,
1000
1010
0000
0001
,
0011
0010
0100
1000
,
0010
0000
0100
0020
0000
0030
1000
0020
,
0000
0030
0100
0020
0000
0030
0001
0010
,
0000
0000
0010
0200
0000
0300
1000
0200
,
0000
0300
0010
0200
0000
0300
0001
0100
,
0000
0000
0001
1000
0000
0000
1000
0001
,
0000
1000
0010
1000
0100
0010
0001
0000
,
0101
1010
0000
1010
,
0101
0001
1000
0010
,
0000
1000
0100
1000
0000
0001
0100
0001
,
0000
1000
0000
0001
0000
0101
0000
1100
,
0000
0001
0000
1000
0000
1100
0000
0101
,
0000
1000
0010
1000
0100
0010
0001
0010
,
0200
0000
1300
0002
0000
0013
0200
0000
,
0310
0001
0100
0000
0010
1000
0010
0000
,
1100
0011
1100
1001
,
0010
0100
1010
0101
,
0000
0001
0100
0010
0100
0000
0001
0000
,
1000
0010
0100
0010
1000
0000
0000
0000
,
0001
0100
0000
0000
0010
1000
0100
0010
,
0000
0100
1000
0100
0000
0000
1001
0000
,
0000
1000
0100
0011
,
0000
0001
0010
1100
,
0000
0000
1001
0001
1000
0000
0010
0000
,
1000
0001
1000
0001
0100
0010
0100
0010
,
1000
0000
0000
0000
0101
0000
0000
0000
1000
0100
1000
0000
0001
0000
1000
0100
,
0000
0000
0000
0000
0000
0000
0000
0000
0001
0100
0001
0000
1000
0000
0001
0100
,
0000
0000
0000
0000
0000
0000
0000
0000
1000
0010
1000
0000
0001
0000
1000
0010
,
0000
0000
0010
0100
0000
0000
0100
0010
0000
0000
0000
0000
0100
0000
0001
0000
,
0001
0001
0001
0000
1100
0000
0101
0000
,
0000
1000
0100
0010
0001
0000
1000
0000
,
0001
0010
0100
1000
0010
0000
1001
0000
,
0000
0100
1010
0010
,
0100
0001
1000
0000
0011
0000
1010
0000
,
0000
0001
0010
0100
1000
0000
0001
0000
,
1000
0100
0010
0001
1000
0000
0110
0000
,
0000
0000
0001
0000
1100
0000
0010
0100
,
0001
0000
1000
0000
0000
0000
1000
0200
,
0000
0300
0001
0200
0000
0300
1000
0200
,
0000
0300
0001
0100
0000
1000
0010
2000
,
0000
3010
0001
0020
0000
1030
0010
2000
,
0000
3000
0001
1000
0000
0000
0010
1000
,
0000
0000
0001
0100
0000
0000
0010
0000
,
1000
0100
1100
0011
,
0000
0000
0011
0000
1100
0000
1000
0001
,
1000
0000
0010
0000
0100
0010
1000
0001
;

//---------------dance-double - ----------------
#NOTES:
     dance-double:
     :
     Medium:
     9:
     0.378245,0.443469,0.321771,0.073548,0.036774,288.000000,253.000000,35.000000,8.000000,0.000000,0.000000,0.378245,0.443469,0.321771,0.073548,0.036774,288.000000,253.000000,35.000000,8.000000,0.000000,0.000000:
00000000
00000000
00000000
00000000
,
00000000
00000000
00000000
00000000
,
00000000
00000000
00000000
00000000
,
00000000
00000000
00000000
00000000
,
11000000
00000000
10100000
00000000
00000000
10000000
01000000
00000000
,
00010000
00000000
00001000
00000100
00000001
00000000
00001000
00000000
,
00000101
00001100
00000010
00001100
,
00000101
00000000
00000001
00000100
00000001
00000000
00001000
00000000
,
00000011
00000000
00000101
00000000
00000000
00000001
00000010
00000000
,
00001000
00000000
00010000
00100000
10000000
00000000
00010000
00000000
,
10100000
00110000
01000000
00110000
,
10100000
00000000
10000000
01000000
10000000
00000000
00010000
00000000
,
01000000
00000000
00001000
00002000
00000000
00003000
00010000
00020000
,
00000000
00030000
00001000
00002000
00000000
00000000
00010000
00013000
,
00000000
00001000
00010000
00000100
00000000
00010000
00001000
01000000
,
00000000
00001000
00010000
00000100
00000000
00000000
00010000
00001000
,
00000000
00000000
00100000
01000000
00000000
00000000
01000000
00100000
,
00000000
00001000
00010000
00001000
00010000
00000000
00000010
00000000
,
00001100
00000101
00000010
00000101
,
00001100
00000000
00000000
00000000
,
00000000
00000001
00000100
00000001
00000000
00001000
00000100
00001000
,
00000000
00000010
00000000
00000100
00000000
00001000
00010000
01000000
,
00000000
10000000
00010000
10000000
00010000
10000000
00000000
00100000
,
00000000
00010000
00000000
00001000
00000000
00010000
00000000
00000010
,
00000100
00000010
00000100
00000020
00000000
00000000
00001030
00000000
,
00000001
00000100
00001000
00000000
00010000
01000000
10000000
00000000
,
00100000
00100000
00100000
00100000
,
01000000
01000000
10010000
00100000
,
00000000
00001000
00010000
00000000
00000010
00000000
00001100
00000000
,
00000010
00000000
00000100
00000001
00000100
00000000
00000010
00000000
,
00001000
00000100
00000000
00000000
00010000
00001000
00000000
00100000
,
00000000
01000000
10000000
01000000
00000000
10000000
00100000
00000000
,
00000000
00010000
00001000
00000000
00000010
00000001
00000010
00000000
,
00000000
00001000
00010000
00000000
00100000
10000000
00100000
00000000
,
00000000
00010000
00001000
00011000
,
00010000
00000100
00000100
00001000
,
00000010
00000000
00010000
00000000
00000000
00001000
00000000
00000000
00010000
00000000
00010000
00000000
00001000
00000000
00001000
01000000
,
00000000
00000000
01000000
00100000
00000000
00000000
00000000
00000000
10000000
00000000
10000000
00000000
00010000
00000000
00010000
10000000
,
00000000
00000000
00100000
00010000
00000000
00000000
00001000
00000000
00000100
00000000
00000100
00000000
00000001
00000000
00000001
00000100
,
00000000
00000000
00000001
00000010
00000000
00000000
00001000
00010000
00000000
00000000
00000000
00000000
00000000
00000000
00001000
00000000
,
00001000
00001000
00001000
00000000
01100000
00000000
01010000
00000000
,
00000000
10000000
00100000
00000000
00010000
00000000
00001000
00000010
,
00000001
00001000
00000011
00001100
,
00000001
00000000
00001100
00000000
00000011
00000000
00000001
00000100
,
00000010
00001000
00000110
00001010
,
00000000
00000001
00000100
00000000
00001000
00000000
00010000
01000000
,
10000000
00100000
11000000
00110000
,
01000000
00000000
00110000
00000000
11000000
00000000
00100000
01000000
,
00010000
00000000
10000000
00000000
00000000
00000000
01000000
00020000
,
00000000
00030000
00001000
00000200
00000000
00000300
00001000
00020000
,
00000000
00030000
00010000
00001000
00000000
00100000
00001000
00010000
,
00000000
00000010
00010000
00001000
00000000
00100000
00001000
00020000
,
00000000
00000000
00001000
00031000
00000000
00000000
00100000
00010000
,
00000000
00000000
00010000
01000000
00000000
00001000
00010000
00000100
,
00001000
00000010
00000100
00000000
00000101
00000000
00001100
00000000
,
00001000
00000000
01010000
00000000
11000000
00000000
00100000
10000000
,
01000000
00010000
00001000
00001000
;

//---------------dance-double - ----------------
#NOTES:
     dance-double:
     :
     Challenge:
     15:
     0.665869,0.915036,0.220643,0.174676,0.583785,507.000000,483.000000,24.000000,19.000000,0.000000,0.000000,0.665869,0.915036,0.220643,0.174676,0.583785,507.000000,483.000000,24.000000,19.000000,0.000000,0.000000:
// measure 0
00000000
00000000
00000000
00000000
,  // measure 1
00000000
00000000
00000000
00000000
,  // measure 2
00000000
00000000
00000000
00000000
,  // measure 3
00000000
00000000
00000000
00000000
00000000
00000000
00010010
00000100
,  // measure 4
00000001
00000100
00000001
00000100
00000000
00000000
00000010
00001000
00000010
00001000
00000000
00000000
00000000
00000000
00000000
00000001
00000000
00000000
00000100
00000000
00000000
00001000
00000000
00000000
,  // measure 5
00010000
01000000
10000000
00100000
10000000
01000000
00010000
01000000
,  // measure 6
10000000
00100000
10000000
00100000
00000000
00000000
01000000
00010000
01000000
00010000
00000000
00000000
00000000
00000000
00000000
01000000
00000000
00000000
00100000
00000000
00000000
01000000
00000000
00000000
,  // measure 7
00100000
00010000
00001000
00000100
00000001
00000100
00000001
00001000
,  // measure 8
00000010
00000100
00000010
00000100
00000000
00000000
00000001
00001000
00000001
00001000
00000000
00000000
00000000
00000000
00000000
00000001
00000000
00000000
00000010
00000000
00000000
00001000
00000000
00000000
,  // measure 9
00010000
00100000
10000000
01000000
00010000
01000000
10000000
00010000
,  // measure 10
01000000
00100000
01000000
00100000
00000000
00000000
10000000
00010000
10000000
00010000
00000000
00000000
00000000
00000000
00000000
00100000
00000000
00000000
01000000
00000000
00000000
00100000
00000000
00000000
,  // measure 11
01000000
00010000
00001000
00000100
00000001
00001000
00000010
00000100
,  // measure 12
00000001
00000100
00000001
00000100
00000000
00000000
00001000
00000000
00000000
00020000
00000000
00000000
00000000
00000000
00000000
00030000
00000000
00000000
01000000
00000000
00000000
00020000
00000000
00000000
,  // measure 13
00000000
00030000
00001000
00000200
00000000
00000300
00000100
00001000
,  // measure 14
00010000
00100000
01000000
01020000
00000000
00031000
00000100
00001200
,  // measure 15
00000000
00001300
00010000
00021000
00000000
00030000
00100000
10000000
,  // measure 16
00010000
10000000
00010000
10000000
00000000
00000000
01000000
00000000
00000000
00020000
00000000
00000000
00000000
00000000
00000000
00031000
00000000
00000000
00000010
00000000
00000000
00000012
00000000
00000000
,  // measure 17
00000000
00000103
00001000
00000100
00000001
00000010
00001000
00000010
,  // measure 18
00000001
00000010
00000001
00000010
00000000
00000000
00000100
00001000
00000100
00001000
00000000
00000000
00000000
00000000
00000000
00000010
00000000
00000000
00000100
00000000
00000000
00000010
00000000
00000000
,  // measure 19
00001000
00010000
00100000
10000000
00100000
00010000
00100000
10000000
,  // measure 20
00000000
10000000
01000000
12000000
00000000
03010000
00001000
00001200
,  // measure 21
00000000
00000000
00000301
00000000
00001000
00000010
00001000
00000000
00000001
00000000
00000100
00000010
00000100
00000010
00000100
00000000
,  // measure 22
00000000
00000000
00001000
00000000
00010000
00000000
01000000
00000000
10000000
00000000
00100000
01000000
00100000
01000000
00100000
00000000
,  // measure 23
00000000
00000000
10000000
00000000
01000000
00000000
00010000
00000000
01000000
00000000
10000000
00100000
00010000
00000000
00001000
00000000
,  // measure 24
00000100
00000001
00000100
00000001
00000010
00000000
00002000
00000000
00000000
00000000
00010000
00000000
00013000
00000000
00000000
00000000
,  // measure 25
00001000
00000010
00001000
00000000
00000010
00000000
00000001
00000000
00000100
00000000
00001000
00000000
00020000
00000000
00000000
00000000
,  // measure 26
00130000
10000000
00000000
00000000
10000000
01000000
00000000
00000000
01000000
00010000
00000000
00000000
00001000
00100000
00001000
00100000
,  // measure 27
00010000
00000000
01000000
00010000
01000000
00010000
01000000
00000000
00100000
10000000
00000000
00000000
01010000
00000000
00000000
00000000
,  // measure 28
00000000
00000000
00001000
00000000
00000100
00000000
00000001
00000000
00000010
00000000
00000001
00001000
00000000
00000000
00000010
00000000
,  // measure 29
00000100
00001000
00010000
00000000
00001000
01000000
00100000
01000000
00001000
00000000
00100000
01000000
00000000
00000000
00100000
10000000
,  // measure 30
00100000
10000000
01000000
00100000
00000000
00010000
01000000
00010000
00100000
00000000
01000000
00100000
00000000
00001000
00010000
00000000
,  // measure 31
00000000
00000000
00000010
00000000
00001100
00000000
00000001
00001000
00000000
00001000
00000010
00000000
00001000
00000000
00000000
00000000
,  // measure 32
00000000
00000000
00000100
00000000
00011000
00000000
00001000
00100000
00000000
00100000
00010000
00000000
01000000
00000000
00000000
00000000
,  // measure 33
00000000
00000000
00100000
00000000
11000000
00000000
00010000
00100000
00000000
00100000
00001000
00000000
00010000
00000000
00000000
00000000
,  // measure 34
00000000
00000000
00000000
00000000
00000010
00000100
00000010
00000100
00000010
00000000
00001000
00000000
00000100
00000000
00000000
00000000
,  // measure 35
00000010
00000000
00001000
00000000
00010000
00000000
00100000
00000000
10000000
00000000
00010000
01000000
00010000
00000000
01000000
00100000
,  // measure 36
10000000
00000000
00010000
00000000
10000000
00000000
01000000
00100000
00010000
00000000
01000000
00000000
00100000
00010000
00001000
00000000
00000100
00000000
00000001
00000000
00001000
00000000
00001000
00000000
00000010
00000000
00000100
00000000
00001000
00000000
00011000
00000000
,  // measure 37
00000000
00000000
00010000
01010000
00000000
01000000
10000000
00100000
00010000
00100000
10000000
00100000
10000000
01000000
00010000
00011000
,  // measure 38
00000000
00000000
00000010
00000000
00000100
00000000
00010100
00000000
00000000
00000000
00001000
00000000
00000010
00000000
00000100
00000001
00001000
00000000
00000010
00000000
00000100
00000000
00000100
00000000
00001000
00000000
00010000
00000000
01000000
00000000
11000000
00000000
,  // measure 39
00000000
00000000
00100000
00110000
00000000
00000000
00001000
00011000
00000000
00010000
00001000
00010000
00000010
00000100
00000010
00001000
,  // measure 40
00000100
00000000
00000000
00010000
00000000
00000000
00000100
00000000
00000000
00010000
00000000
00000000
00000100
00000000
00000000
00010000
00000000
00000000
00001000
00000000
00000000
00001000
00000000
00000000
01000000
00000000
00100000
00000000
01000000
00000000
00100000
00000000
00000000
00000000
00000000
00000000
10000000
00000000
00100000
00000000
10000000
00000000
00100000
00000000
00000000
00000000
00000000
00000000
,  // measure 41
00000000
10000000
01000000
00100000
01000000
00010000
00001000
00000100
,  // measure 42
00000001
00000000
00000000
00000010
00000000
00000000
00000001
00000000
00000000
00001000
00000000
00000000
00000001
00000100
00000001
00000100
00000000
00000000
00001000
00000010
00001000
00000010
00000000
00000000
,  // measure 43
00000000
00000100
00001000
00010000
01000000
10000000
00100000
10000000
,  // measure 44
01000000
00000000
00000000
00010000
00000000
00000000
01000000
00000000
00000000
10000000
00000000
00000000
00100000
01000000
00100000
01000000
00000000
00000000
00010000
10000000
00010000
10000000
00000000
00000000
,  // measure 45
00000000
10000000
00100000
01000000
00100000
00010000
00001000
00000100
,  // measure 46
00000001
00000000
00000000
00000010
00000000
00000000
00000100
00000000
00000000
00001000
00000000
00000000
00000010
00001000
00000010
00001000
00000000
00000000
00000001
00000100
00000001
00000100
00000000
00000000
,  // measure 47
00000000
00000010
00000100
00001000
00010000
01000000
10000000
00100000
,  // measure 48
10000000
00000000
00000000
01000000
00000000
00000000
00010000
00000000
00000000
01000000
00000000
00000000
10000000
00100000
10000000
00100000
00000000
00000000
01000000
00000000
00000000
01200000
00000000
00000000
,  // measure 49
00000000
00300000
00010000
00012000
00000000
00003000
00000100
00000102
,  // measure 50
00000000
00000013
00001000
00001000
00000000
00000010
00000001
00002100
,  // measure 51
00000000
00013000
01000000
21000000
00000000
30100000
00010000
00012000
,  // measure 52
00000000
00000000
00000000
00003010
00000000
00000000
00000001
00000000
00000000
00000100
00000000
00000000
00000010
00001000
00000010
00001000
00000000
00000000
00000010
00000000
00000000
00000200
00000000
00000000
,  // measure 53
00000000
00001300
00010000
01000000
00000000
10000000
00100000
00010000
,  // measure 54
00001000
00000000
00000000
00000100
00000000
00000000
00000001
00000000
00000000
00000010
00000000
00000000
00000100
00010000
00000100
00010000
00000000
00000000
00001000
01000000
00001000
01000000
00000000
00000000
,  // measure 55
00000000
00100000
10000000
00010000
01000000
00100000
00010000
00001000
,  // measure 56
00000100
00000000
00000000
00000001
00000000
00000000
00000010
00000000
00000000
00000100
00000000
00000000
00000010
00000100
00010000
00001000
00000000
00000000
00010000
00001000
01000000
00100000
00000000
00000000
;

//---------------dance-double - ----------------
#NOTES:
     dance-double:
     :
     Easy:
     6:
     0.270550,0.391297,0.358545,0.156289,0.018387,206.000000,167.000000,39.000000,17.000000,0.000000,0.000000,0.270550,0.391297,0.358545,0.156289,0.018387,206.000000,167.000000,39.000000,17.000000,0.000000,0.000000:
00000000
00000000
00000000
00000000
,
00000000
00000000
00000000
00000000
,
00000000
00000000
00000000
00000000
,
00000000
00000000
00000000
00000000
,
00010100
00010100
00000000
00010000
,
00001000
01000000
00010000
00100000
,
00101000
00101000
00000000
00011000
,
00011000
00000000
00000000
00000000
,
00010010
00010010
00000000
00000000
,
00001000
00100000
00010000
01000000
,
01001000
01001000
00000000
00011000
,
00011000
00000000
00000000
00000000
,
00000000
00020000
00030000
00002000
,
00003000
00000020
00000030
00000002
,
00000003
00000200
00000300
00002000
,
00003000
00020000
00030000
00200000
,
00300000
10010000
00000000
01100000
,
00000000
01000000
00001000
00010000
,
00011000
00011000
00000000
00010100
,
00010100
00000000
00000000
00000000
,
00000000
00000100
00000000
00000010
00000000
00001000
00000000
00000001
,
00000000
00000100
00000000
00001000
00000000
00010000
00000000
01000000
,
00000000
10000000
00000000
01000000
00000000
00010000
00000000
00001000
,
00000000
00000100
00000000
00000001
00000000
00000100
00000000
00000001
,
00000000
00000010
00000000
00002000
00000000
00000000
00003010
00000000
,
00000001
00000100
00000010
00010000
,
00001000
00001000
00001000
00100000
,
01000000
10000000
11000000
00110000
,
00000000
01000000
00001000
00010000
,
00000000
00000100
00000010
00000001
,
00001000
00000100
00000010
00000001
,
00000100
00001000
00010000
01000000
,
00000000
01000000
00010000
00001000
,
00000000
00000010
00001000
00010000
,
00000000
00100000
00010000
00001000
,
00000100
00000100
00000001
00000001
,
00001000
00000000
00000010
00000000
00000000
00000010
00000000
00000000
00000100
00000000
00000001
00000000
00001000
00000000
00000100
00000010
,
00000000
00000000
00000100
00000000
00000000
00000000
00000000
00000000
00010000
00000000
00010000
00000000
00001000
00000000
00001000
00010000
,
00000000
00000000
00001000
00000000
00000000
00000000
00000000
00000000
00100000
00000000
00100000
00000000
01000000
00000000
01000000
10000000
,
00000000
00010000
00000000
10010000
00000000
00000000
01000000
01000000
,
01000000
01000000
01000000
00000000
10010000
00000000
10010000
00000000
,
00000000
00000000
01000000
00001000
,
00010000
00001000
00011000
00011000
,
00000000
00010010
00010010
00000000
,
00000010
00000100
00000110
00000110
,
00000000
00000100
00001000
00000001
,
00001000
00000010
00001010
00001010
,
00000000
00010100
00010100
00000000
,
00000000
00000000
00000000
00002000
,
00003000
00020000
00030000
00200000
,
00300000
20000000
30000000
02000000
,
03000000
00020000
00030000
00002000
,
00003000
00000200
00000300
00000001
,
00000000
00001000
00000000
00000001
,
00000100
00000010
00001010
00001010
,
00000000
00010100
00010100
00000000
,
00010000
00001000
00011000
00011000
;

//---------------dance-double - ----------------
#NOTES:
     dance-double:
     :
     Hard:
     12:
     0.504327,0.705885,0.340158,0.119515,0.197659,384.000000,347.000000,37.000000,13.000000,0.000000,0.000000,0.504327,0.705885,0.340158,0.119515,0.197659,384.000000,347.000000,37.000000,13.000000,0.000000,0.000000:
00000000
00000000
00000000
00000000
,
00000000
00000000
00000000
00000000
,
00000000
00000000
00000000
00000000
,
00000000
00000000
00000000
00000000
,
11000000
00000000
00110000
00000000
00000000
10000000
01000000
00100000
,
00001000
00010000
00000100
00010000
00000100
00000010
00000001
00000100
,
00000101
00001010
00000000
00000101
,
00001010
00000000
00000001
00000100
00001000
00010000
01000000
10000000
,
11000000
00000000
10010000
00000000
00000000
00100000
01000000
00001000
,
00010000
00000010
00000100
00000010
00000100
00000001
00000010
00000100
,
00001100
00000011
00000000
00001100
,
00000011
00000000
00000001
00000100
00000010
00010000
00001000
00000100
,
00000010
00000000
00001000
00020000
00000000
00030000
00100000
20000000
,
00000000
30000000
01000000
00020000
00000000
00000000
00001000
00031000
,
00000000
00000010
00000001
00000200
00000000
00001300
00010000
02000000
,
00000000
13000000
00100000
00020000
00000000
00000000
00001000
00031000
,
00000000
00000000
00010000
00000010
00000000
00000100
00000001
00001000
,
00000000
00000001
00000100
00000010
00010000
00001000
01000000
00100000
,
10100000
01010000
00000000
10100000
,
01010000
00000000
10000000
01000000
00100000
00010000
01000000
00100000
,
10000000
00010000
00100000
00010000
00000000
01000000
00001000
01000000
,
00000000
00001000
00010000
00000100
00001000
00000010
00000100
00000001
,
00000000
00000100
00000010
00000100
00001000
00000000
00010000
01000000
,
00000000
10000000
00010000
10000000
00010000
10000000
00010000
00010000
,
10000000
00100000
00010000
00002000
00000000
00000010
00003010
00000000
,
00000001
00000010
00000001
00000000
00000100
00000000
00000001
00000000
00000010
00000000
00001000
00000000
00010000
00000000
00000000
00000000
,
00100000
10000000
00000000
00000000
10000000
00010000
00000000
00000000
00010000
00100000
00000000
00000000
01000000
00000000
00010000
00000000
,
00001000
00000000
00000000
00000000
00000100
00000000
00000001
00000000
00000010
00000100
00000000
00000000
00001100
00000000
00000000
00000000
,
00000000
00000000
00000010
00000000
00000100
00000000
00000010
00000000
00001000
00000000
00000100
00010000
00000000
00000000
00001000
00000000
,
01000000
00000000
00100000
00000000
01000000
00000000
00010000
00000000
00100000
00000000
00001000
00010000
00000000
00000000
00001000
00100000
,
00001000
01000000
00000000
00100000
10000000
01000000
00000000
00100000
,
00000000
00000000
00010000
00000000
01000000
00000000
00010000
00100000
00000000
00100000
00001000
00000000
00001000
00000000
00000000
00000000
,
00000000
00000000
00010000
00000000
00000010
00000000
00000100
00000010
00000000
00000010
00001000
00000000
00001000
00000000
00000000
00000000
,
00000000
00000000
00000001
00000000
00000100
00000000
00000010
00000100
00000000
00000100
00000001
00000000
00000001
00000000
00000000
00000000
,
00000000
00000000
00001000
00000100
00010000
00010000
00011000
00000000
,
00100000
00000000
01000000
00000000
00100000
00000000
01000000
00000000
10000000
00000000
00010000
10000000
00010000
00000000
01000000
00100000
,
01000000
00000000
00010000
00100000
00000000
01010000
00000000
00000000
00100000
00001000
00100000
00001000
00010000
00000100
00001000
00001100
,
00000000
00000000
00000010
00000100
00000000
00000000
00001000
00000001
00000100
00001000
00000100
00001000
00010000
01000000
00010000
01000000
,
00000000
10000000
00100000
10000000
00000000
00100000
01000000
00000000
01000000
00100000
00010000
00100000
00010000
00001000
00000010
00001000
,
00000000
00000000
00000010
00000001
00000000
00000000
00001000
00001001
00000000
00000010
00000100
00010000
00001000
01000000
00001000
00010000
,
00001000
00010000
00001000
00010000
00001000
00000000
00000000
00000000
00010100
00000000
00000000
00000000
00011000
00000000
00000000
00000000
,
00000000
00100000
00010000
01000000
00100000
10000000
01000000
00010000
,
00001000
00000010
00000001
00000100
00000101
00000000
00001010
00000000
,
00000000
00000000
00000101
00000000
00001010
00000000
00000001
00000010
,
00001000
00010000
01000000
10000000
11000000
00000000
00110000
00000000
,
00000000
01000000
00100000
10000000
00010000
01000000
00100000
00010000
,
00001000
00000100
00000001
00001000
00001001
00000000
00000110
00000000
,
00000000
00000000
00001001
00000000
00000110
00000000
00000100
00001000
,
00010000
01000000
10000000
00100000
01000000
00000000
00100000
00020000
,
00000000
00030000
00001000
00000200
00000000
00000300
00000001
00000020
,
00000000
00000030
00001000
00010000
00000000
00100000
10000000
02000000
,
00000000
03010000
00001000
00000020
00000000
00000031
00000100
00002000
,
00000000
00000000
00010000
00013000
00000000
00000000
00001000
01000000
,
00000000
00100000
10000000
01000000
00000000
00100000
00001000
00010000
,
00000100
00001000
00000010
00010000
00010010
00000000
00011000
00000000
,
00000000
00000000
01001000
00000000
00011000
00001000
01000000
00100000
,
10000000
01000000
00100000
00001000
00010000
00001000
00010000
00001000
;
