#TITLE:Alice;
#SUBTITLE:;
#ARTIST:Lady Gaga;
#TITLETRANSLIT:;
#SUBTITLETRANSLIT:;
#ARTISTTRANSLIT:;
#GENRE:Pop;
#CREDIT:;
#BANNER:alice-bn.png;
#BACKGROUND:alice-bg.png;
#LYRICSPATH:;
#CDTITLE:;
#MUSIC:Alice.mp3;
#OFFSET:-1.270000;
#SAMPLESTART:63.147995;
#SAMPLELENGTH:11.999990;
#SELECTABLE:YES;
#BPMS:0.000000=123.000000
;
#STOPS:
;
#BGCHANGES:;
#KEYSOUNDS:;
#ATTACKS:;

//---------------dance-single - ----------------
#NOTES:
     dance-single:
     :
     Hard:
     12:
     0.489122,0.539140,0.234511,0.075043,0.333005,365.000000,340.000000,25.000000,8.000000,0.000000,0.000000,0.489122,0.539140,0.234511,0.075043,0.333005,365.000000,340.000000,25.000000,8.000000,0.000000,0.000000:
0000
0000
0000
0000
,
0000
0000
0000
0000
,
0000
0000
0000
0000
,
0000
0000
0000
0000
0000
0000
0001
1000
,
0100
0000
0010
0000
0100
1000
0010
0100
,
0001
0000
1000
0000
0001
0010
1000
0010
,
0001
0100
0001
0010
1000
0010
0001
0100
,
0001
1000
0000
0100
0010
0001
0011
0000
,
1000
0100
0000
0100
1000
0000
0010
0100
0010
0000
0100
0001
0100
0000
0000
0000
,
0001
0010
0000
0010
0001
0000
0100
0010
0100
0000
0010
1000
0010
0000
0000
0000
,
1000
0000
0000
0000
0010
0000
0000
1100
0000
0000
1000
0000
0001
0000
1000
0100
,
0010
0001
1000
0010
0100
0010
0100
0000
,
0010
1000
0000
1000
0001
0000
1000
0010
1000
0000
0001
0100
0001
0000
0000
0000
,
0100
0001
0000
0001
0010
0000
0100
1000
0100
0000
1000
0010
1000
0000
0000
0000
,
0010
0000
0000
0000
0100
0000
0000
1001
0000
0000
1000
0100
0010
0000
0100
0000
,
1000
0001
0010
0100
1000
0100
1000
0000
,
1010
0000
0010
0100
0001
0000
1000
0020
,
0000
0230
0000
2300
0000
3100
0001
1000
,
0010
0000
0000
0100
0010
0000
0000
1000
0010
0000
0000
0100
0010
0000
0000
0010
,
0100
0000
0000
0001
0100
0000
0000
0010
0100
0000
0000
0001
0100
0000
0010
0000
,
1000
0000
0000
0000
0001
1000
0001
0000
0100
0000
0010
0000
0001
0000
0020
0000
,
0000
2030
0000
3200
0000
0320
0000
1030
,
0010
0000
0000
0000
0001
0000
0000
0100
0001
0000
0000
0010
0001
0000
0000
1000
,
0001
0000
0000
0001
1000
0000
0000
0010
1000
0000
0000
0100
1000
0000
0010
0000
,
0100
0000
0010
1000
0000
0010
0000
0000
0100
0000
0010
1000
0000
0010
0000
0000
,
0000
0100
0001
0001
1000
0010
1010
0000
,
0100
0000
0001
0010
0000
0001
0000
0000
0100
0000
0001
0010
0000
0001
0000
0000
,
0000
0100
0010
0010
1000
0000
1000
0001
,
1000
0000
0001
0100
0000
0001
0000
0000
1000
0000
0001
0100
0000
0001
0000
0000
,
0000
0010
0100
0100
1000
0010
0100
0010
,
1000
0101
0010
0101
,
0100
0010
0100
0010
0100
0000
0010
0100
0010
0100
0010
0000
1000
0000
0000
0000
,
1001
0000
0000
0000
0001
0000
0000
0010
0000
0000
0001
0000
0100
0000
0010
0000
,
1000
0000
0000
0000
0010
0000
0000
1000
0000
0000
0010
0000
0100
0000
0010
0000
,
1000
0100
1000
0010
1000
0100
1000
0001
,
0100
0000
0010
0000
1000
0000
0000
0010
0100
0000
0001
0000
1000
0000
0000
0000
,
1001
0000
0000
0000
1000
0000
0000
0100
0000
0000
1000
0000
0010
0000
0100
0000
,
0001
0000
0000
0000
0100
0000
0000
0001
0000
0000
0100
0000
0010
0000
0100
0000
,
0001
0010
0001
0100
0001
0010
0001
1000
,
0010
0100
0001
0100
0010
1000
0001
0000
,
1001
0000
0000
0000
0100
0000
0000
1000
0000
0000
1100
0000
0010
0000
0001
0000
,
0100
0000
0000
0000
0001
0000
0000
0010
0000
0000
0011
0000
0100
0000
0001
0000
,
1000
0000
0000
0000
0010
0000
0000
0100
0000
0000
0110
0000
0001
0000
1000
0000
,
0001
1000
0000
1000
0001
1000
0001
0000
,
1001
0000
0000
0000
1000
0000
0000
0010
0000
0000
1010
0000
0100
0000
0010
0000
,
1000
0000
0000
0000
0001
0000
0000
0010
0000
0000
0011
0000
0100
0000
0001
0000
,
1000
0000
0000
0000
0010
0000
0000
1000
0000
0000
1001
0000
0100
0000
0001
0000
,
0100
0001
0100
0001
0100
0000
0010
1000
0010
1000
0010
0000
0100
0000
0000
0000
,
0110
0000
0000
0010
1000
0000
0000
1000
0001
0000
0000
0001
0100
0000
0000
0000
,
0101
0000
0000
0100
0001
0000
0000
0001
1000
0000
0000
1000
0010
0000
0000
0000
,
1010
0000
0100
0010
1010
0000
0100
0010
,
1010
0000
1100
0000
0011
0000
0101
0020
,
0000
0030
0000
0000
;

//---------------dance-single - ----------------
#NOTES:
     dance-single:
     :
     Beginner:
     1:
     0.103185,0.169903,0.009380,0.009380,0.000000,77.000000,76.000000,1.000000,1.000000,0.000000,0.000000,0.103185,0.169903,0.009380,0.009380,0.000000,77.000000,76.000000,1.000000,1.000000,0.000000,0.000000:
0000
0000
0000
0000
,
0000
0000
0000
0000
,
0000
0000
0000
0000
,
0000
0000
0000
1000
,
1000
0000
0000
0001
,
0001
0000
0000
0000
,
0100
0000
0100
0000
,
0200
0000
0300
0000
,
0010
0000
0000
0000
,
1000
0000
0000
0000
,
0001
0000
0000
1000
,
1000
0000
0000
0000
,
0100
0000
0000
0000
,
0010
0000
0000
0000
,
0001
0000
0000
0010
,
0010
0000
0100
0100
,
0100
0000
1000
0000
,
1000
0000
1000
0000
,
1000
0000
0000
0000
,
0000
0000
0000
0000
,
0010
0000
0010
0000
,
0010
0000
0010
0000
,
0010
0000
0000
0000
,
0000
0000
0000
0000
,
0100
0000
0100
0000
,
0000
0000
0010
0000
,
1000
0000
1000
0000
,
0000
0000
0001
0000
,
0010
0000
0010
0000
,
0000
0000
0100
0000
,
0100
0100
0000
0100
,
0100
0000
0000
0000
,
1001
0000
0000
0100
,
0100
0000
0000
0000
,
0010
0000
0010
0000
,
0010
0000
0000
1000
,
1000
0000
0000
0001
,
0000
0000
0000
0000
,
0010
0000
0010
0000
,
0010
0000
0000
0000
,
0001
0000
0000
0000
,
1000
0000
0000
0000
,
0001
0000
0000
0000
,
1000
0000
1000
0000
,
1000
0000
0000
0000
,
0001
0000
0000
0000
,
1000
0000
0000
0000
,
0001
0000
0001
0000
,
0000
0010
0010
0010
,
0000
0010
0010
0010
,
0010
0000
0001
0000
,
1000
1000
1000
1000
;

//---------------dance-single - ----------------
#NOTES:
     dance-single:
     :
     Medium:
     9:
     0.355116,0.412621,0.290793,0.196989,0.056283,265.000000,234.000000,31.000000,21.000000,0.000000,0.000000,0.355116,0.412621,0.290793,0.196989,0.056283,265.000000,234.000000,31.000000,21.000000,0.000000,0.000000:
0000
0000
0000
0000
,
0000
0000
0000
0000
,
0000
0000
0000
0000
,
0000
0000
0000
0101
,
1100
0000
0000
0000
0000
1000
0001
0100
,
0001
0000
0000
0000
0000
1000
0100
0010
,
0001
0100
1000
0100
0001
0100
1000
0100
,
0001
1000
0000
0010
0100
0010
1000
0000
,
0002
0100
1000
0103
,
0002
0010
1000
0013
,
0001
0000
0000
0000
1000
0000
0000
1000
0000
0000
1000
0000
0010
0000
1000
0000
,
0001
0000
0000
0100
0010
0000
0010
0000
,
2000
0100
0001
3100
,
2000
0010
0001
3010
,
1000
0000
0000
0000
0001
0000
0000
0001
0000
0000
0001
0000
0100
0000
0001
0000
,
1000
0000
1010
0011
,
1001
0000
1000
0001
1000
0000
0010
2000
,
0000
3002
0000
0203
0000
0320
0000
0130
,
0010
1100
0101
1100
,
1001
0101
1100
0101
,
1001
0000
0010
0100
0001
0000
0100
0020
,
0000
2030
0000
3002
0000
2003
0000
3010
,
0100
0011
1010
0011
,
1001
1010
0011
1010
,
1000
0001
0000
0000
0001
1000
0000
0000
,
0000
0010
1000
0100
0001
0000
0100
0000
,
1000
0001
0000
0000
0001
1000
0000
0000
,
0000
0001
0010
1000
0010
0000
0001
1000
,
0001
0010
0000
0000
1000
0010
0000
0000
,
0000
0001
0100
0010
1000
0100
0010
0001
,
0100
0100
0010
0100
,
0100
0010
1000
0001
0100
0010
1000
0000
,
1100
0000
0000
0000
0010
0000
0000
0010
0000
0000
0010
0000
0100
0000
0010
0000
,
0100
0000
0000
0000
0100
0000
0000
0100
0000
0000
0100
0000
1000
0000
0100
0000
,
1000
0000
1000
0100
1000
0000
1000
0010
,
1000
0010
0000
0000
0000
0000
0001
0000
,
0101
0000
0000
0000
0010
0000
0000
0010
0000
0000
0010
0000
0100
0000
0010
0000
,
0100
0000
0000
0000
0100
0000
0000
0100
0000
0000
0100
0000
0001
0000
0100
0000
,
0001
0000
0001
0100
0001
0000
0001
0010
,
0001
0010
0000
0100
1000
0100
1000
0000
,
1001
0000
0000
0000
1000
0000
0000
0100
0000
0000
0010
0000
0000
0000
0000
0000
,
0002
0000
0000
0000
0103
0000
0000
0010
0000
0000
1000
0000
0000
0000
0000
0000
,
0200
0000
0000
0000
0310
0000
0000
0001
0000
0000
1000
0000
0010
0000
0100
0000
,
0010
0100
0000
0100
0010
0100
0010
0000
,
0200
0000
0000
0000
0301
0000
0000
1000
0000
0000
0100
0000
0000
0000
0000
0000
,
2000
0000
0000
0000
3001
0000
0000
1000
0000
0000
0010
0000
0000
0000
0000
0000
,
0200
0000
0000
0000
0310
0000
0000
1000
0000
0000
0100
0000
1000
0000
0001
0000
,
1000
0001
0000
0001
1000
0001
1000
0000
,
1001
2000
3200
0301
,
1001
0002
0203
1300
,
1001
0000
0110
0000
,
0101
1010
1100
0011
;

//---------------dance-double - ----------------
#NOTES:
     dance-double:
     :
     Hard:
     13:
     0.537364,0.593781,0.206369,0.028141,0.356456,401.000000,379.000000,22.000000,3.000000,0.000000,0.000000,0.537364,0.593781,0.206369,0.028141,0.356456,401.000000,379.000000,22.000000,3.000000,0.000000,0.000000:
00000000
00000000
00000000
00000000
,
00000000
00000000
00000000
00000000
,
00000000
00000000
00000000
00000000
,
00000000
00000000
00000000
00000000
00000000
00000000
10000000
00100000
,
00010000
00000000
00001000
00000000
00000010
00001000
00010000
00001000
,
00000010
00000000
00000001
00000000
00001000
00000001
00000100
00001000
,
00000100
00000001
00000100
00001000
00010000
01000000
10000000
00100000
,
10000000
00010000
10000000
00010000
10000000
00000000
00010000
10000000
00010000
10000000
00010000
00000000
10010000
00000000
00000000
00000000
,
00100000
00000000
01000000
00010000
01000000
00000000
00100000
10000000
00100000
00000000
01000000
00010000
01000000
00000000
00001000
00000000
,
00010000
00000000
00000100
00001000
00000100
00000000
00000010
00000001
00000010
00000000
00000100
00001000
00000100
00000000
00010000
00000000
,
00001000
00000000
00000000
00000000
00100000
00010000
00000000
00010000
10000000
00000000
00100000
00000000
00010000
00000000
00001000
00000000
,
00000100
00000000
00000001
00000010
00001000
00010000
00000010
00000000
,
00000100
00000000
00000010
00001000
00000010
00000000
00000100
00000001
00000100
00000000
00000010
00001000
00000010
00000000
00010000
00000000
,
00001000
00000000
01000000
00010000
01000000
00000000
00100000
10000000
00100000
00000000
01000000
00010000
01000000
00000000
00001000
00000000
,
00010000
00000000
00000100
00000000
00001000
00000001
00000000
00000001
00000010
00000000
00001000
00000000
00010000
00000000
01000000
00000000
,
10000000
00000000
00010000
10000000
10100000
00000000
10010000
00000000
,
01010000
00000000
01000000
00100000
00010000
00000000
00001000
00100000
,
00000000
11000000
00000000
01000000
00010000
00001000
00000100
00000001
,
00000100
00000000
00000000
00000000
00000010
00001000
00000010
00000000
00001000
00000100
00001000
00000000
00000010
00001000
00000010
00000000
,
00000200
00000000
00000000
00000000
00000301
00000010
00000001
00000000
00000100
00000001
00000100
00000000
00000001
00000010
00000001
00000000
,
00001001
00000000
00000100
00001000
00010000
00000000
00001000
00100000
,
00000000
00011000
00000000
00000010
00000100
00001000
00010000
00100000
,
10000000
00000000
00000000
00000000
00010000
00100000
00010000
00000000
01000000
00010000
01000000
00000000
00010000
00100000
00010000
00000000
,
20000000
00000000
00000000
00000000
30100000
10000000
00100000
00000000
01000000
00010000
01000000
00000000
00100000
00000000
00100000
00000000
,
10000000
00000000
00010000
00100000
00000000
00010000
00000000
00000000
01000000
00000000
00001000
00010000
00000000
00001000
00000000
00000000
,
00000000
00000000
00010000
00000000
00000010
00000000
00000100
00000000
00000001
00001000
00000001
00001000
00000001
00000000
00000000
00000000
,
00000010
00000000
00000100
00001000
00000000
00000100
00000000
00000000
00010000
00000000
00001000
01000000
00000000
00001000
00000000
00000000
,
00000000
01000000
00100000
00100000
10100000
00000000
10010000
00010000
,
01000000
00000000
00010000
00100000
00000000
00010000
00000000
00000000
00100000
00000000
00001000
00010000
00000000
00001000
00000000
00000000
,
00000000
00010000
00000100
00001000
00000010
00000010
00001000
00000001
,
00000100
00000000
00000100
00000000
00001000
00010000
01000000
00000000
,
01000000
10000000
01000000
10000000
01000000
00000000
00100000
00010000
00100000
00010000
00100000
00000000
10010000
00000000
00000000
00000000
,
01010000
00000000
00000000
00000000
01000000
00000000
00100000
10000000
00000000
00100000
01000000
00000000
00100000
00000000
00010000
00000000
,
00001000
00000000
00000000
00000000
00000010
00000000
00000001
00000100
00000000
00000001
00001000
00000000
00000010
00000000
00000100
00000000
,
00000001
00000010
00001000
00000010
00000001
00000010
00001000
00010000
,
00100000
00000000
10000000
00000000
00010000
00000000
00000000
01000000
00000000
00000000
01000000
00000000
00100000
00000000
10000000
00000000
,
11000000
00000000
00000000
00000000
00010000
00000000
01000000
00010000
00000000
01000000
00100000
00000000
00010000
00000000
00001000
00000000
,
00100000
00000000
00000000
00000000
01000000
00000000
10000000
00100000
00000000
01000000
00100000
00000000
01000000
00000000
00010000
00000000
,
10000000
01000000
00010000
01000000
10000000
01000000
00010000
00001000
,
00000100
00000001
00000000
00000100
00001000
00000100
00000001
00000000
,
00001001
00000000
00000000
00000000
00001000
00000000
00000001
00000010
00000000
00001000
00000010
00000000
00000001
00000000
00000100
00000000
,
00001000
00000000
00000000
00000000
00010000
00000000
00001000
00100000
00000000
00001000
01000000
00000000
00100000
00000000
10000000
00000000
,
01000000
00000000
00000000
00000000
10000000
00000000
00100000
01000000
00000000
00100000
10000000
00000000
01000000
00000000
00010000
00000000
,
01000000
00010000
00000000
00001000
00000100
00001000
00000100
00000000
,
00001001
00000000
00000000
00000000
00000010
00000000
00000100
00000010
00000000
00001000
00000010
00000000
00010000
00000000
00001000
00000000
,
01000000
00000000
00000000
00000000
00100000
00000000
01000000
00010000
00000000
01000000
00100000
00000000
00010000
00000000
00001000
00000000
,
00000010
00000000
00000000
00000000
00000001
00000000
00000010
00000001
00000000
00001000
00000001
00000000
00000100
00000000
00001000
00000000
,
00000100
00001000
00000000
00010000
01000000
00010000
01000000
00000000
,
11000000
00000000
00000000
00100000
01000000
00000000
00010000
00100000
00010000
00000000
01000000
00001000
00010000
00000000
00000000
00000000
,
00011000
00000000
00000000
00000100
00001000
00000000
00000100
00000010
00000100
00000000
00000010
00000001
00001000
00000000
00000000
00000000
,
00001001
00000000
00000010
00000100
00001100
00000000
00010000
00001000
,
00011000
00000000
01001000
00000000
01100000
00000000
10100000
00020000
,
00000000
00000000
00000000
00030000
;

//---------------dance-single - ----------------
#NOTES:
     dance-single:
     :
     Easy:
     4:
     0.140706,0.218447,0.000000,0.018761,0.000000,105.000000,105.000000,0.000000,2.000000,0.000000,0.000000,0.140706,0.218447,0.000000,0.018761,0.000000,105.000000,105.000000,0.000000,2.000000,0.000000,0.000000:
0000
0000
0000
0000
,
0000
0000
0000
0000
,
0000
0000
0000
0000
,
0000
0000
0000
1000
,
1000
0000
0000
0001
,
0001
0000
0000
0100
,
0010
0100
0010
0100
,
0020
0000
2030
0000
,
3001
0100
0100
0100
,
0001
0100
0100
0100
,
0000
0000
0000
0010
,
0000
0000
0000
0000
,
1000
0100
0100
0100
,
1000
0100
0100
0100
,
0010
0000
0000
0100
,
0000
0000
0010
0010
,
0010
0001
0000
0000
,
0001
0000
1000
0000
,
1000
0000
0000
0000
,
0000
0000
0000
0000
,
0000
0100
0000
0000
,
0100
0000
0001
0000
,
0001
0000
0000
0000
,
0000
0000
0000
0000
,
1000
0000
1000
0000
,
0000
0010
0000
0000
,
0001
0000
0001
0000
,
0000
0010
0000
0000
,
1000
0000
1000
0000
,
0000
0001
0000
0000
,
0100
0100
0001
0100
,
0100
0000
0000
0010
,
1000
0000
0000
0100
,
1000
0000
0000
1000
,
0001
1000
0001
1000
,
0001
0000
0000
0010
,
0001
0000
0000
0100
,
0001
0000
0000
0001
,
1000
0001
1000
0001
,
1000
0000
0010
0100
,
0010
0000
0000
0000
0000
0000
0000
1000
,
0000
0000
0000
0010
,
0010
0000
0000
0100
,
0001
0000
0100
0001
,
1000
0000
0000
0000
0000
0000
0000
0001
,
0000
0000
0000
0100
,
0100
0000
0000
0010
,
1000
0000
0001
0000
,
0000
1000
1000
1000
,
0001
1000
1000
1000
,
1000
0000
0001
0000
,
1000
0001
1000
0001
;

//---------------dance-double - ----------------
#NOTES:
     dance-double:
     :
     Easy:
     3:
     0.112565,0.169903,0.000000,0.000000,0.000000,84.000000,84.000000,0.000000,0.000000,0.000000,0.000000,0.112565,0.169903,0.000000,0.000000,0.000000,84.000000,84.000000,0.000000,0.000000,0.000000,0.000000:
// measure 0
00000000
00000000
00000000
00000000
,  // measure 1
00000000
00000000
00000000
00000000
,  // measure 2
00000000
00000000
00000000
00000000
,  // measure 3
00000000
00000000
00000000
10000000
,  // measure 4
10000000
00000000
00000000
00010000
,  // measure 5
00010000
00000000
00000000
00100000
,  // measure 6
00100000
00000000
00000000
00001000
,  // measure 7
00001000
00000000
00000000
00000000
,  // measure 8
00010000
00000100
00000000
00000000
,  // measure 9
00000100
00001000
00000000
00000000
,  // measure 10
00000010
00000000
00000000
00000010
,  // measure 11
00000000
00000000
00000000
00000000
,  // measure 12
00000100
00000001
00000000
00000000
,  // measure 13
00000001
00001000
00000000
00000000
,  // measure 14
00000100
00000000
00000000
00000100
,  // measure 15
00000000
00000000
00010000
00010000
,  // measure 16
00010000
00000000
00000000
00000000
,  // measure 17
00001000
00000000
00000000
00000000
,  // measure 18
00100000
01000000
00000000
00000000
,  // measure 19
01000000
00100000
00000000
00000000
,  // measure 20
00010000
00010000
00000000
00000000
,  // measure 21
10000000
00000000
00000000
00000000
,  // measure 22
00010000
00100000
00000000
00000000
,  // measure 23
00100000
00010000
00000000
00000000
,  // measure 24
01000000
00000000
01000000
00000000
,  // measure 25
00000000
00000000
00000000
00000000
,  // measure 26
00001000
00000000
00001000
00000000
,  // measure 27
00000000
00000000
00000000
00000000
,  // measure 28
00010000
00000000
00010000
00000000
,  // measure 29
00000000
00000000
00000000
00000000
,  // measure 30
00000100
00000100
00001000
00000100
,  // measure 31
00000100
00000000
00000000
00000010
,  // measure 32
00000001
00000000
00000000
00000001
,  // measure 33
00001000
00000000
00000000
00000100
,  // measure 34
00000100
00000000
00010000
00000000
,  // measure 35
00001000
00000000
00000000
00100000
,  // measure 36
00010000
00000000
00000000
00010000
,  // measure 37
10000000
00000000
00000000
00010000
,  // measure 38
00010000
00000000
00100000
00000000
,  // measure 39
00001000
00000000
00000000
00010000
,  // measure 40
00010000
00000000
00000000
00000000
,  // measure 41
00000010
00000000
00000000
00000100
,  // measure 42
00000100
00000000
00000000
00010000
,  // measure 43
00000000
00000000
00010000
00001000
,  // measure 44
00001000
00000000
00000000
00000000
,  // measure 45
01000000
00000000
00000000
00100000
,  // measure 46
00100000
00000000
00000000
10000000
,  // measure 47
00000000
00000000
10000000
00000000
,  // measure 48
00010000
00000000
00000000
00000000
,  // measure 49
01000000
00000000
00000000
00000000
,  // measure 50
00001000
00000000
00010000
00000000
,  // measure 51
00001000
00010000
00001000
00010000
;

//---------------dance-double - ----------------
#NOTES:
     dance-double:
     :
     Medium:
     8:
     0.340375,0.388350,0.140706,0.112565,0.028141,254.000000,239.000000,15.000000,12.000000,0.000000,0.000000,0.340375,0.388350,0.140706,0.112565,0.028141,254.000000,239.000000,15.000000,12.000000,0.000000,0.000000:
00000000
00000000
00000000
00000000
,
00000000
00000000
00000000
00000000
,
00000000
00000000
00000000
00000000
,
00000000
00000000
00000000
00000000
00000000
00000000
00000001
00001000
,
00000100
00000000
00001000
00000000
00000001
00000100
00001000
00010000
,
01000000
00000000
10000000
00000000
00010000
00100000
01000000
10000000
,
00010000
00100000
00010000
01000000
00010000
00100000
00010000
01000000
,
00001000
00010000
00000000
00000100
00001000
00000100
00000010
00000000
,
00000011
00000000
00000100
00001000
00000100
00000000
00000100
00000010
,
00000100
00000000
00000100
00000001
00000100
00000000
00000100
00000010
,
00000100
00000000
00000000
00000000
00010000
00000000
00000000
00010000
00000000
00000000
00010000
00000000
00001000
00000000
00000000
00000000
,
01000000
00000000
00000000
00100000
01000000
00100000
01000000
00000000
,
10010000
00000000
01000000
00010000
01000000
00000000
01000000
00100000
,
01000000
00000000
01000000
10000000
01000000
00000000
01000000
00100000
,
01000000
00000000
00000000
00000000
00010000
00000000
00000000
00010000
00000000
00000000
00010000
00000000
00100000
00000000
00000000
00000000
,
00001000
00000000
00000000
00010000
00000200
00000000
00002300
00000000
,
00003010
00000000
00000100
00000001
00000100
00000000
00000001
00000200
,
00000000
00002300
00000000
00023000
00000000
02030000
00000000
23000000
,
00000000
30000000
00010000
00000000
00110000
00000000
01010000
00000000
,
00010000
10000000
11000000
10100000
,
00000000
00000000
00010000
10000000
00010000
00000000
10000000
02000000
,
00000000
03020000
00000000
00032000
00000000
00003200
00000000
00000302
,
00000000
00000003
00000001
00000000
00000101
00000000
00001001
00000000
,
00000001
00001000
00001100
00001001
,
00000001
00000100
00000000
00000000
00000001
00000100
00000000
00000000
,
00000000
00000001
00000100
00001000
00010000
00000000
01000000
00000000
,
10000000
00100000
00000000
00000000
10000000
00100000
00000000
00000000
,
00000000
10000000
00100000
00010000
00001000
00000000
00000010
00000001
,
00000100
00000010
00000000
00000000
00000100
00000010
00000000
00000000
,
00001000
00000100
00010000
00001000
00010000
00000000
00001000
00100000
,
01000000
01000000
10000000
01000000
,
01000000
00100000
00010000
00100000
01000000
10000000
01000000
00000000
,
11000000
00000000
00000000
00000000
00000000
00010000
10000000
00100000
,
01000000
00000000
00000000
00000000
00000000
00010000
00100000
01000000
,
10000000
00100000
10000000
01000000
10000000
00100000
10000000
01000000
,
00100000
00001000
00010000
00000100
,
00001100
00000000
00000000
00000000
00000000
00000010
00000100
00000001
,
00001000
00000000
00000000
00000000
00000000
00000001
00000010
00000100
,
00001000
00000010
00001000
00000100
00001000
00000010
00001000
00000100
,
00000010
00000001
00000000
00000001
00001000
00000001
00001000
00000000
,
00000110
00000000
00000000
00000000
00000010
00000000
00000000
00000010
00000000
00000000
00000010
00000000
00000000
00000000
00010000
00000000
,
00001000
00000000
00000000
00000000
00100000
00000000
00000000
00100000
00000000
00000000
00100000
00000000
00010000
00000000
00000000
00000000
,
01000000
00000000
00000000
00000000
00000000
00000000
00010000
01000000
,
00100000
10000000
00000000
00010000
01000000
00100000
10000000
00000000
,
00010000
00000000
00000000
00000000
01000000
00000000
00000000
01000000
00000000
00000000
01000000
00000000
00000000
00000000
00001000
00000000
,
00010000
00000000
00000000
00000000
00000100
00000000
00000000
00000100
00000000
00000000
00000100
00000000
00001000
00000000
00000000
00000000
,
00000001
00000000
00000000
00000000
00000000
00000000
00000001
00000010
,
00000100
00001000
00000000
00000001
00000010
00000100
00001000
00000000
,
00000100
00010000
00001000
00011000
,
00001000
01000000
00010000
01010000
,
00100000
00000000
10000000
00000000
,
00010000
10000000
00010000
10000000
;
