#TITLE:Akash;
#SUBTITLE:;
#ARTIST:Akino;
#TITLETRANSLIT:;
#SUBTITLETRANSLIT:;
#ARTISTTRANSLIT:;
#GENRE:Pop;
#CREDIT:;
#BANNER:akash-bn.png;
#BACKGROUND:akash-bg.png;
#LYRICSPATH:;
#CDTITLE:;
#MUSIC:Akash.mp3;
#OFFSET:-0.237000;
#SAMPLESTART:6.732000;
#SAMPLELENGTH:11.999990;
#SELECTABLE:YES;
#BPMS:0.000000=147.000000
;
#STOPS:
;
#BGCHANGES:;
#KEYSOUNDS:;
#ATTACKS:;

//---------------dance-single - ----------------
#NOTES:
     dance-single:
     :
     Challenge:
     15:
     0.717170,0.974283,0.240821,0.064836,0.671520,542.000000,516.000000,26.000000,7.000000,0.000000,0.000000,0.717170,0.974283,0.240821,0.064836,0.671520,542.000000,516.000000,26.000000,7.000000,0.000000,0.000000:
0000
0000
0000
0000
,
0000
0000
0000
0000
,
0000
0000
0000
0000
,
0000
0000
0000
0000
,
0001
0000
0100
0000
0010
0000
0010
0000
0001
0000
0000
0010
1000
0000
0010
0000
,
1000
0100
0010
0010
1000
0010
0001
1000
,
0001
0000
0000
1000
0000
0000
0010
0000
0100
0000
0000
0100
0000
0000
0001
0000
,
0010
0000
0001
0100
0010
1000
0010
0100
0001
0010
0100
1000
0100
0010
0001
0000
,
1000
0000
0010
0000
0100
0000
0100
0000
1000
0000
0000
0100
0001
0000
0100
0000
,
0001
0010
1000
0010
0001
0100
1000
0100
,
0001
0000
0000
1001
0000
0000
1000
0000
0010
0000
0000
1001
0000
0000
0001
0000
,
0010
0000
0000
1001
0000
0000
1000
0000
0010
0000
0000
0110
0000
0000
0100
0000
,
0010
0000
0000
1000
0010
0000
1000
0000
0010
0000
0000
1000
0010
0000
1000
0000
,
0020
0000
0031
0010
1000
0000
0001
0010
,
1000
0010
0001
0000
0000
0000
0100
0000
0010
0000
0000
1000
0000
0000
0100
0000
,
0010
0001
0100
0000
0001
0000
0010
0000
1100
0000
0000
0010
0100
0000
0001
0000
,
1000
0000
0000
0001
0100
0000
0001
0000
0100
0000
0000
0001
0100
0000
0001
0000
,
0100
1000
0100
0000
0101
0000
1001
0000
,
1000
0100
0010
0000
0000
0000
0010
0000
0011
0000
0000
0000
1001
0000
1000
0000
,
0001
0100
0010
0000
0000
0000
0010
0000
1000
0000
0001
0000
1000
0000
0000
0000
,
1001
0010
0001
0010
1000
0000
0001
0010
,
1000
0010
0001
0100
1000
0100
0001
0010
,
0200
0000
0000
0000
0000
0000
0310
0100
2000
0000
0000
0000
0000
0000
3100
0010
,
0001
0000
1000
0001
1000
0000
0000
0000
0001
0010
0100
1000
0100
0010
0001
0000
,
1001
0010
1000
0010
0001
0000
1000
0010
,
0001
0010
1000
0100
0001
0100
1000
0010
,
0100
0001
0010
0100
1000
0100
0010
0100
1000
0001
0010
0100
0010
0001
0010
0100
,
1000
0010
0100
0001
0010
0001
0100
0001
1000
0010
0100
0001
0010
0100
1000
0001
,
0100
0000
0000
0001
0100
0000
0001
0000
0100
0000
0000
0001
0100
0000
0001
0000
,
0101
0000
0010
1000
0101
0000
0001
1000
,
0001
0010
2000
0000
0000
0000
3010
0000
0001
0000
0000
0000
1000
0000
0001
0000
,
1000
0100
0002
0000
0000
0000
0103
0000
1000
0000
0000
0010
0100
0000
0001
0000
,
1000
0000
0000
1000
0010
0000
1000
0000
0010
0000
0000
1000
0010
0000
1000
0000
,
0100
0010
0011
0000
1000
0001
1001
0000
,
0101
0000
0000
0011
0000
0000
1000
0000
1100
0000
0000
1010
0000
0000
0001
0000
,
1001
0000
0000
0110
0000
0000
1000
0000
0001
0000
1000
0000
0001
0000
0000
0000
,
0010
0000
0000
0010
0000
0000
1000
0000
0010
0000
0000
0010
0000
0000
0001
0000
,
0010
0000
0000
0010
0000
0000
1000
0000
0010
0000
0000
0000
0001
0000
0000
0000
,
1000
0000
0000
0010
0100
0000
0010
0000
1000
0000
0000
0100
0010
0000
0100
0000
,
1000
0010
0100
0001
1000
0000
0001
0000
0110
0000
0000
0000
1000
0000
0000
0000
,
0100
0000
0000
0100
0000
0000
0001
0000
0100
0000
0000
0100
0000
0000
1000
0000
,
0100
0000
0000
0100
0000
0000
0001
0000
0100
0000
0000
0000
1000
0000
0000
0000
,
0001
0000
0000
0010
0100
0000
0010
0000
0001
0000
0000
0100
0010
0000
0100
0000
,
0001
0010
0100
1000
0001
0000
1000
0000
0010
0100
0010
0100
0010
0100
0010
0000
,
1000
0000
0000
0001
0000
0000
0000
0000
0001
1000
0010
1000
0100
0010
0001
1000
,
0001
0100
0000
0000
0000
0000
0000
0000
0100
0001
0100
0010
0100
0001
0100
0010
,
1000
0000
1000
0001
0100
0000
0100
0010
1000
0010
0100
0001
0010
0001
0100
0001
,
0010
0100
0010
0100
0010
0000
0001
0000
1000
0001
1000
0001
1000
0000
0001
0000
,
1000
0000
0000
0100
0000
0000
0100
1000
0100
0000
0010
0001
0010
0100
1000
0010
,
1000
0100
0010
0100
1000
0000
0100
0010
0001
0100
0001
1000
0001
0010
0001
0100
,
0001
1000
0100
0010
0001
0000
0100
0010
1000
0000
0010
0100
0001
0000
1000
0001
,
0100
0010
0100
0001
1000
0010
0100
0010
1000
0100
0010
0001
0100
0010
1000
0000
,
2002
0000
0000
0000
,
3003
0000
0000
0000
0000
0000
0000
0000
0010
0000
0000
0100
1000
0000
0001
0000
,
1000
0000
0000
0100
0001
0000
0100
0000
1000
0000
0000
0100
0001
0000
0100
0000
,
1000
0000
0010
0100
0001
0000
0010
0000
0100
1000
0100
0000
1100
0000
0000
0000
,
0001
0010
0100
0010
0001
0000
1000
0000
0001
0100
0010
0100
0001
0000
1000
0000
,
0001
0010
0100
0010
0001
0000
0100
0000
0010
0000
0000
1000
0001
0000
1000
0000
,
0001
0000
0000
0100
1000
0000
0100
0000
0001
0000
0000
0100
1000
0000
0100
0000
,
0001
0000
1000
0100
0010
0000
0000
0000
0001
0100
0001
0000
0101
0000
0000
0000
,
1000
0100
0010
0100
1000
0000
0001
0000
1000
0010
0100
0010
1000
0000
0001
0000
,
1000
0100
0010
0100
1000
0000
0001
0000
0100
0000
0010
0000
1000
0000
0000
0000
,
0001
0100
1000
0100
0001
0000
1000
0000
1000
0100
0001
0100
1000
0000
0001
0000
,
0001
0100
1000
0100
0001
0000
1000
0000
0010
0000
0100
0000
0101
0000
0000
0000
;

//---------------dance-single - ----------------
#NOTES:
     dance-single:
     :
     Hard:
     13:
     0.591467,0.679046,0.268608,0.037049,0.379756,447.000000,418.000000,29.000000,4.000000,0.000000,0.000000,0.591467,0.679046,0.268608,0.037049,0.379756,447.000000,418.000000,29.000000,4.000000,0.000000,0.000000:
0000
0000
0000
0000
,
0000
0000
0000
0000
,
0000
0000
0000
0000
,
0000
0000
0000
0000
,
1000
0100
0010
0100
1000
0000
0001
0010
,
0100
0100
1000
1000
0010
0010
0100
0100
,
0001
0000
0000
0011
0000
0000
0010
0000
0001
0000
0000
0011
0000
0000
0001
0000
,
0010
0000
0000
0011
0000
0000
0001
0000
0100
0000
0000
0010
0000
0000
1000
0000
,
0001
0010
0100
0010
0001
0000
1000
0100
,
0010
0010
0001
0001
0100
0100
0010
0010
,
1000
0000
0000
1001
0000
0000
0001
0000
1000
0000
0000
1001
0000
0000
1000
0000
,
0001
0000
0000
1001
0000
0000
1000
0000
0010
0000
0000
0100
0000
0000
0001
0000
,
0010
0000
0000
0100
0010
0000
0100
0000
0010
0000
0000
0100
0010
0000
0100
0000
,
1000
0010
0001
0010
1000
0001
1000
0000
,
0001
0100
0001
0000
0000
0000
0001
0000
0010
0000
0000
0100
0010
0000
0001
0000
,
1000
0100
1000
0000
0100
0000
0010
0000
0100
0000
0000
0000
1100
0000
0000
0000
,
1000
0000
0000
0001
1000
0000
0001
0000
1000
0000
0000
0001
1000
0000
0001
0000
,
0100
0010
0001
0000
0011
0000
1010
0000
,
1000
0100
0010
0000
0000
0000
0001
0000
1000
0000
0000
1000
0001
0000
1000
0000
,
0001
0010
0100
0000
0000
0000
1000
0000
0001
0000
1000
0000
1001
0000
0000
0000
,
0101
0010
1000
0100
0010
0000
0100
1000
,
0010
1000
0010
0000
1000
0000
0001
0000
1000
0010
1000
0000
0001
0000
1000
0000
,
0002
0000
0000
0000
0003
0000
0001
0100
0002
0000
0000
0000
0003
0000
0001
0100
,
0001
0000
1000
0100
1000
0000
0000
0000
0010
0000
0100
0000
0001
0000
1000
0000
,
0100
0010
0001
0100
0010
0000
1000
0001
,
0101
0000
0100
0010
0101
0000
0100
0010
,
2100
0000
0000
0000
3000
0000
1000
0100
2000
0000
0000
0000
3000
0000
1000
0100
,
1000
0010
0100
0001
1001
0000
0110
0010
,
1000
0000
0000
0001
0010
0000
0001
0000
1000
0000
0000
0001
0010
0000
0001
0000
,
1000
0000
0001
0100
1000
0000
0101
0000
,
1000
0100
1000
0000
0000
0000
0001
0000
0100
0000
0000
0000
0001
0000
1000
0000
,
0001
0100
0001
0000
0000
0000
1000
0000
0100
0000
1000
0000
0010
0000
0100
0000
,
0001
0000
0000
1000
0010
0000
1000
0000
0001
0000
0000
1000
0010
0000
1000
0000
,
0001
0010
0100
0000
1100
0000
0011
0000
,
0001
0000
0000
0101
0000
0000
0010
0000
1000
0000
0000
1100
0000
0000
0010
0000
,
0001
0000
0000
1001
0000
0000
1000
0000
0010
0000
0100
0000
0001
0000
0000
0000
,
1000
0000
0000
1000
0000
0000
0010
0000
0100
0000
0000
0100
0001
0000
0000
0000
,
0010
0000
0000
0010
0000
0000
0100
0000
1000
0000
0000
0000
1000
0000
0000
0000
,
0001
0000
0000
0001
0100
0000
0010
0000
1000
0000
0000
1000
0100
0000
0010
0000
,
0001
1000
0001
1000
0100
0000
0010
0000
0001
0000
0000
1000
0100
0000
0010
0000
,
0001
0000
0000
0001
0000
0000
0100
0000
0010
0000
0000
0010
1000
0000
0000
0000
,
0100
0000
0000
0100
0000
0000
0010
0000
0001
0000
0000
0000
0001
0000
0000
0000
,
1000
0000
0000
1000
0010
0000
0100
0000
0001
0000
0000
0001
0010
0000
0100
0000
,
1000
0001
1000
0001
0010
0000
0100
0000
1000
0000
0000
0001
0010
0000
0100
0000
,
1000
0000
0000
1100
0000
0000
0000
0000
0000
0000
1000
0100
1000
0100
1000
0000
,
0001
0100
0000
0000
0000
0000
0000
0000
0000
0000
0100
0001
0100
0001
0100
0000
,
0001
0010
0001
0000
1000
0100
1000
0000
,
0001
0100
0010
0010
1000
0010
0100
0000
,
0001
0000
0000
0011
0000
0000
0000
0000
0000
0000
0001
0010
0001
0010
0001
0000
,
1000
0010
0000
0000
0000
0000
0000
0000
0000
0000
0001
0010
0001
0010
0001
0000
,
1000
0100
1000
0000
0001
0100
0001
0000
,
1000
0100
0010
0001
0010
0100
1000
0001
,
1001
0000
0000
0000
,
0000
0000
0000
0000
0000
0000
0000
0000
0010
0000
0000
0100
0001
0000
0000
0000
,
1000
0000
0000
0100
0010
0000
0100
0000
1000
0000
0000
0100
0010
0000
0100
0000
,
1000
0000
0001
1000
0010
0000
1001
0000
,
1000
0100
1000
0100
1000
0000
0001
0000
1000
0100
1000
0100
1000
0000
0001
0000
,
1000
0100
1000
0100
1000
0000
0001
0000
1000
0000
0000
0000
0001
0000
0000
0000
,
0001
0000
0000
0010
0100
0000
0010
0000
0001
0000
0000
0010
0100
0000
0010
0000
,
0001
1000
0100
0000
0011
0000
1001
0000
,
0100
0000
0000
0001
0000
0000
1000
0000
0010
0000
0000
0100
0000
0000
0010
0000
,
1000
0000
0000
0001
0000
0000
0100
0000
0001
0000
1000
0000
0001
0000
0000
0000
,
0001
0010
0001
0010
0001
0000
1000
0000
0001
0010
0001
0010
0001
0000
1000
0000
,
0001
0010
0001
0010
0001
0000
1000
0000
0010
0000
0100
0000
1001
0000
0000
0000
;

//---------------dance-double - ----------------
#NOTES:
     dance-double:
     :
     Challenge:
     15:
     0.694676,0.974283,0.324182,0.101886,0.615946,525.000000,490.000000,35.000000,11.000000,0.000000,0.000000,0.694676,0.974283,0.324182,0.101886,0.615946,525.000000,490.000000,35.000000,11.000000,0.000000,0.000000:
00000000
00000000
00000000
00000000
,
00000000
00000000
00000000
00000000
,
00000000
00000000
00000000
00000000
,
00000000
00000000
00000000
00000000
,
00000001
00000100
00001000
00000100
00000001
00000000
00000001
00000100
,
00001000
00010000
00001000
00010000
01000000
10000000
01000000
10000000
,
00010000
00000000
00000000
10010000
00000000
00000000
10000000
00000000
01000000
00000000
00000000
10010000
00000000
00000000
00010000
00000000
,
10000000
00000000
01000000
00100000
01000000
00100000
00010000
10000000
00010000
10000000
00100000
01000000
00010000
10000000
00010000
01000000
,
00100000
00010000
00100000
10000000
10010000
00000000
01000000
00010000
,
00002000
00000000
00013000
00001000
00000020
00000000
00000031
00001000
,
00001001
00000000
00000000
00000101
00000000
00000000
00000001
00000000
00001001
00000000
00000000
00001100
00000000
00000000
00001000
00000000
,
00001001
00000000
00000000
00000101
00000000
00000000
00000001
00000000
00000100
00000000
00000000
00000010
00001000
00000000
00000010
00000000
,
00010000
00000000
00000000
00000100
00001000
00000000
00000100
00000000
00010000
00000000
00000000
00000100
00001000
00000000
00000100
00000000
,
00010000
00000000
00001000
00010000
00100000
00000000
10100000
00000000
,
00010000
01000000
00200000
00000000
00000000
00000000
10300000
00000000
00010000
00000000
00000000
00000000
00010000
00000000
10000000
00000000
,
00010000
01000000
00100000
00000000
10000000
00000000
00010000
00000000
01000000
00000000
00000000
01000000
00010000
00000000
00100000
00000000
,
00001000
00000000
00000000
01000000
00010000
00000000
01000000
00000000
00001000
00000000
00000000
01000000
00010000
00000000
01000000
00000000
,
00001000
00010000
00011000
00000000
00010100
00000000
00000110
00000000
,
00000001
00001000
00000020
00000000
00000000
00000000
00001030
00000000
00000001
00000000
00000000
00000000
00000100
00000000
00000001
00000000
,
00001000
00000001
00000010
00000000
00000001
00000000
00001000
00000000
00000010
00000000
00000100
00000000
00000101
00000000
00000000
00000000
,
00000001
00000100
00001000
00000100
00000001
00000000
00000001
00000100
,
00001000
00010000
00001000
00010000
01000000
10000000
01000000
10000000
,
00020000
00000000
00000000
00000000
00030000
00000000
00100000
00010000
00200000
00000000
00000000
00000000
00300000
00000000
00010000
00100000
,
00010000
00000000
10000000
01000000
10000000
00000000
00000000
00000000
00010000
00100000
01000000
10000000
01000000
00100000
00010000
00000000
,
10010000
00000000
00000000
01000000
00010000
00000000
00100000
00000000
00001000
00000000
00000000
00010000
00000010
00000000
00000100
00000000
,
00000001
00000010
00000100
00000000
00001000
00000000
00000001
00000000
00001000
00000100
00000010
00000000
00000001
00000000
00001000
00000000
,
00000001
00000100
00000001
00001000
00000001
00000100
00000001
00001000
00000100
00010000
00000100
00001000
00000100
00010000
00000100
00001000
,
00000010
00010000
00000010
00000100
00000010
00010000
00000010
00000100
00000010
00010000
00001000
00100000
01000000
10000000
01000000
00100000
,
00010000
00000000
00000000
10000000
01000000
00000000
10000000
00000000
00010000
00000000
00000000
10000000
01000000
00000000
10000000
00000000
,
00020000
00000000
00130000
01000000
00010000
00000000
00001000
00000000
,
00010000
00000010
00000200
00000000
00000000
00000000
00000301
00000000
00001000
00000000
00000000
00000000
00000001
00000000
00000010
00000000
,
00000100
00010000
00000010
00000000
00000100
00000000
00000001
00000000
00001000
00000000
00000001
00000000
00000101
00000000
00000000
00000000
,
00000001
00000000
00000000
00001000
00000100
00000000
00001000
00000000
00000001
00000000
00000000
00001000
00000100
00000000
00001000
00000000
,
00000001
00000010
00001000
00000000
00010000
00000000
00011000
00000000
,
00001000
00000000
00000000
01001000
00000000
00000000
01000000
00000000
00100000
00000000
00000000
10100000
00000000
00000000
10000000
00000000
,
01000000
00000000
00000000
11000000
00000000
00000000
00100000
00000000
00001000
00000000
00010000
00000000
00011000
00000000
00000000
00000000
,
00000010
00000000
00000000
00000001
00000000
00000000
00000100
00000000
00001000
00000000
00000000
00010000
00000000
00000000
00100000
00000000
,
10000000
00000000
00000000
01000000
00000000
00000000
00010000
00000000
00001000
00000000
00000000
00000000
00011000
00000000
00000000
00000000
,
00100000
00000000
00000000
00010000
01000000
00000000
00010000
00000000
00100000
00000000
00000000
00010000
01000000
00000000
00010000
00000000
,
00100000
01000000
10000000
01000000
00100000
00000000
00010000
00000000
10010000
00000000
00000000
00000000
00100000
00000000
00000000
00000000
,
10000000
00000000
00000000
01000000
00000000
00000000
00010000
00000000
00001000
00000000
00000000
00000010
00000000
00000000
00000001
00000000
,
00000100
00000000
00000000
00001000
00000000
00000000
00010000
00000000
00001000
00000000
00000000
00000000
00011000
00000000
00000000
00000000
,
00000010
00000000
00000000
00001000
00000100
00000000
00001000
00000000
00000010
00000000
00000000
00000100
00000001
00000000
00000100
00000000
,
00000001
00000010
00000100
00000010
00000001
00000000
00001000
00000000
00001001
00000000
00000000
00000000
00000000
00000000
00000000
00000000
,
00010010
00000000
00000000
00000101
00000000
00000000
00000000
00000000
00000010
00000100
00010000
00001000
01000000
00100000
10000000
00010000
,
10000000
00100000
00000000
00000000
00000000
00000000
00000000
00000000
00000000
00100000
01000000
00010000
00100000
00001000
00010000
00001000
,
00100000
00000000
00001000
00010000
00000100
00000000
00001000
00000010
00000100
00000001
00000010
00000100
00001000
00000000
00000100
00000000
,
00010000
00000100
00001000
00000100
00010000
00000000
00001000
00000000
01000000
00001000
00010000
00001000
01000000
00000000
00001000
00000000
,
01001000
00000000
00000000
10100000
00000000
00000000
00000000
00000000
00000000
00000000
00100000
10000000
00100000
01000000
00001000
00010000
,
00100000
01000000
00000000
00000000
00000000
00000000
00000000
00000000
00000000
10000000
00100000
10000000
01000000
00010000
00001000
00000100
,
00000001
00000000
00000010
00000001
00000100
00000000
00000010
00001000
00000100
00000000
00000010
00000001
00000100
00000000
00000010
00001000
,
00000001
00001000
00000010
00001000
00000001
00000010
00001000
00010000
00100000
10000000
00100000
01000000
00100000
00000000
10000000
00000000
,
20200000
00000000
00000000
00000000
,
30300000
00000000
00000000
00000000
00000000
00000000
00000000
00000000
10000000
00000000
00000000
00010000
01000000
00000000
00010000
00000000
,
10000000
00000000
00000000
01000000
00100000
00000000
00001000
00000000
00100000
00000000
00000000
01000000
00100000
00000000
00001000
00000000
,
00200000
00000000
00301000
00010000
00010100
00000000
00000011
00000000
,
00000001
00000100
00000010
00000100
00000001
00000000
00001000
00000000
00000001
00000010
00000100
00000010
00000001
00000000
00001000
00000000
,
00000001
00000100
00000010
00000100
00000001
00000000
00001000
00000000
00000001
00000000
00000000
00000100
00000010
00000000
00000100
00000000
,
00000010
00000000
00000000
00010000
00001000
00000000
00010000
00000000
00000010
00000000
00000000
00010000
00001000
00000000
00010000
00000000
,
00000010
00000100
00001000
00000000
00010000
00001000
00011000
00000000
,
00100000
00010000
01000000
00010000
00100000
00000000
01000000
00000000
00100000
01000000
10000000
01000000
00100000
00000000
00010000
00000000
,
00100000
00010000
01000000
00010000
00100000
00000000
01000000
00000000
10000000
00010000
10000000
00000000
10010000
00000000
00000000
00000000
,
01000000
00001000
00010000
00001000
01000000
00000000
00001000
00000000
00010000
00000100
00001000
00000100
00010000
00000000
00001000
00000000
,
01000000
00001000
00010000
00001000
01000000
00000000
00001000
00000000
00010000
00000000
00000010
00000000
00000101
00000000
00000000
00000000
;

//---------------dance-single - ----------------
#NOTES:
     dance-single:
     :
     Beginner:
     3:
     0.138935,0.236190,0.000000,0.000000,0.000000,105.000000,105.000000,0.000000,0.000000,0.000000,0.000000,0.138935,0.236190,0.000000,0.000000,0.000000,105.000000,105.000000,0.000000,0.000000,0.000000,0.000000:
0000
0000
0000
0000
,
0000
0000
0000
0000
,
0000
0000
0000
0000
,
0000
0000
0000
0000
,
0100
0000
0100
0000
,
0010
0000
0100
0000
,
0100
0000
1000
0000
,
0100
0000
0000
0000
,
0010
0000
0010
0000
,
0100
0000
0010
0000
,
0010
0000
0001
0000
,
1000
0000
0010
0010
,
0010
0000
0000
0000
,
1000
0000
0000
0000
,
0001
0000
1000
0000
,
0001
0000
1000
0000
,
0001
0000
0000
0000
,
0001
0000
0000
0000
,
1000
0000
0010
0000
,
1000
0000
0010
0000
,
1000
0000
1000
0000
,
0001
0000
1000
0000
,
1000
0000
0100
0000
,
1000
0000
0000
0000
,
0001
0000
0001
0000
,
1000
0000
0001
0000
,
0001
0000
0010
0000
,
0001
0000
0010
0010
,
0010
0000
0000
0000
,
0100
0000
0000
0000
,
0010
0000
0100
0000
,
0010
0000
0100
0000
,
0010
0000
0000
0000
,
0010
0000
0000
0000
,
0100
0000
1000
0000
,
0100
0000
1000
0000
,
0001
0000
0000
0000
,
0001
0000
0000
0000
,
0001
0001
0001
0001
,
0001
0001
0001
0000
,
1000
0000
0000
0000
,
1000
0000
0000
0000
,
1000
1000
1000
1000
,
1000
1000
1000
0000
,
0010
0000
0000
0000
,
0010
0000
0000
0000
,
0100
0000
0010
0000
,
0100
0000
0010
0000
,
0001
0000
0000
0000
,
0001
0000
0000
0000
,
1000
0000
0001
0000
,
1000
0000
0001
0000
,
0000
0000
0000
0000
,
0000
0000
0100
0100
,
0100
0000
0000
0000
,
0001
0000
0000
0000
,
1000
0000
0010
0000
,
1000
0000
0010
0000
,
0100
0000
0000
0000
,
0001
0000
0000
0000
,
0010
0000
0001
0000
,
0010
0000
0001
0000
,
0100
0000
1000
0000
,
0100
0000
1000
1000
;

//---------------dance-single - ----------------
#NOTES:
     dance-single:
     :
     Easy:
     5:
     0.231559,0.295237,0.018525,0.240821,0.000000,175.000000,173.000000,2.000000,26.000000,0.000000,0.000000,0.231559,0.295237,0.018525,0.240821,0.000000,175.000000,173.000000,2.000000,26.000000,0.000000,0.000000:
// measure 0
0000
0000
0000
0000
,  // measure 1
0000
0000
0000
0000
,  // measure 2
0000
0000
0000
0000
,  // measure 3
0000
0000
0000
0000
,  // measure 4
1000
0100
1000
0000
,  // measure 5
1000
0010
1000
0010
,  // measure 6
2000
0000
3002
0000
,  // measure 7
2003
0000
3002
0003
,  // measure 8
0001
0010
0001
0000
,  // measure 9
0001
0100
0001
0100
,  // measure 10
0002
0000
2003
0000
,  // measure 11
3002
0000
1003
1000
,  // measure 12
2000
0000
0000
3010
,  // measure 13
0100
0001
0010
0001
,  // measure 14
0100
0000
0010
0000
,  // measure 15
1000
0000
0001
0000
,  // measure 16
0002
0000
0000
0103
,  // measure 17
0010
1000
0100
1000
,  // measure 18
0010
0000
0100
0000
,  // measure 19
0001
0000
1000
0000
,  // measure 20
0010
1000
0010
0000
,  // measure 21
0010
0100
0010
0100
,  // measure 22
0020
0030
0020
0030
,  // measure 23
0020
0030
0000
0000
,  // measure 24
0100
0001
0100
0000
,  // measure 25
0100
0010
0100
0010
,  // measure 26
0200
0000
0320
0000
,  // measure 27
0230
0000
0301
0001
,  // measure 28
0002
0000
0000
1003
,  // measure 29
0100
0010
0100
1000
,  // measure 30
0001
0000
0010
0000
,  // measure 31
0100
0000
1000
0000
,  // measure 32
2000
0000
0000
3001
,  // measure 33
0010
0100
0010
0001
,  // measure 34
1000
0000
0100
0000
,  // measure 35
0010
0000
0001
1000
,  // measure 36
0002
0000
0203
0000
,  // measure 37
0320
0000
2030
0000
,  // measure 38
3100
0010
0100
1000
,  // measure 39
0100
0010
0001
0000
,  // measure 40
2000
0000
3020
0000
,  // measure 41
0230
0000
0302
0000
,  // measure 42
0013
0100
0010
0001
,  // measure 43
0010
0100
1000
0000
,  // measure 44
1001
0000
0000
0010
,  // measure 45
0100
0000
0000
0010
,  // measure 46
0100
0100
0001
0001
,  // measure 47
1000
0010
0100
0001
,  // measure 48
1001
0000
0000
0100
,  // measure 49
0010
0000
0000
0100
,  // measure 50
0010
0010
1000
1000
,  // measure 51
0001
0100
0010
1000
,  // measure 52
0002
0000
0000
0003
,  // measure 53
0000
0000
1000
0100
,  // measure 54
0010
0100
0010
0100
,  // measure 55
0010
0001
0010
0000
,  // measure 56
0001
0001
1000
1000
,  // measure 57
0001
0001
1000
1000
,  // measure 58
0010
0100
0010
0100
,  // measure 59
0001
0100
0001
0000
,  // measure 60
1000
1000
0001
0001
,  // measure 61
1000
1000
0001
0001
,  // measure 62
0100
0100
0010
0010
,  // measure 63
0100
0100
0010
0010
;

//---------------dance-single - ----------------
#NOTES:
     dance-single:
     :
     Medium:
     7:
     0.297718,0.413332,0.064836,0.203772,0.055574,225.000000,218.000000,7.000000,22.000000,0.000000,0.000000,0.297718,0.413332,0.064836,0.203772,0.055574,225.000000,218.000000,7.000000,22.000000,0.000000,0.000000:
0000
0000
0000
0000
,
0000
0000
0000
0000
,
0000
0000
0000
0000
,
0000
0000
0000
0000
,
0001
0010
0001
0100
0001
0000
0010
0000
,
0100
0100
1000
1000
,
0020
0000
0030
0100
0020
0000
0030
0100
,
0010
1000
0001
0000
1000
0000
0001
0000
,
1000
0100
1000
0010
1000
0000
0100
0000
,
0010
0010
0001
0001
,
0100
0000
0000
0100
0000
0000
0000
0000
0100
0000
0000
0100
0000
0000
0000
0000
,
0100
0000
0000
0100
0000
0000
0000
0000
0001
0000
0000
0000
1000
0000
0010
0000
,
2020
0000
0000
3030
,
1000
0100
0010
0001
,
0001
0010
0000
0100
1000
0000
1000
0100
,
0010
0000
0001
0010
0100
0000
0010
0001
,
0022
0000
0000
0033
,
0001
0100
0010
1000
,
1000
0010
0000
0100
0001
0000
1001
0000
,
0001
0100
0000
0010
1000
0000
0000
0000
,
0010
0100
0010
1000
0010
0000
0100
0000
,
0001
0001
1000
1000
,
0002
0000
0003
1000
0002
0000
0003
1000
,
0002
0003
0100
0010
,
0100
0001
0100
0010
0100
0000
0001
0000
,
1000
1000
0001
0001
,
0020
0000
0230
0000
,
2300
0000
0000
0000
3001
0000
0100
0001
,
0202
0000
0000
0303
,
0100
0010
1000
0001
,
0001
1000
0000
0010
0100
0000
0010
0000
,
0100
0010
0000
1000
0001
0000
1000
0100
,
2200
0000
0000
3300
,
1000
0100
0010
0001
,
1000
0000
0000
1000
0000
0000
0000
0000
1000
0000
0000
1000
0000
0000
0000
0000
,
1000
0000
0000
1000
0000
0000
0000
0000
2000
0000
0000
0000
0000
0000
0000
0000
,
3001
0000
0000
0000
,
0100
0000
0000
0000
,
0010
1000
0010
1000
,
0001
0100
0001
0000
,
1000
0000
0000
0000
,
0100
0000
0000
0000
,
0010
0001
0010
0001
,
1000
0100
1000
0000
,
0010
0000
0000
0010
0000
0000
0000
0000
0000
0000
0000
0000
0000
0000
0000
0000
,
0100
0010
0000
0000
0000
0000
0000
0000
0000
0000
0000
0000
0000
0000
0000
0000
,
1000
0100
0010
0001
,
0010
0100
1000
0001
,
1000
0000
0000
1000
0000
0000
0000
0000
0000
0000
0000
0000
0000
0000
0000
0000
,
0001
1000
0000
0000
0000
0000
0000
0000
0000
0000
0000
0000
0000
0000
0000
0000
,
0010
0100
0001
1000
,
0001
0000
0100
0000
0010
1000
0010
1000
,
0000
0000
0000
0000
,
0000
0000
0000
0000
0010
0000
1000
0001
,
2002
0000
0000
3003
,
0100
0010
1000
0001
,
1000
0100
0010
0000
0100
0010
0001
0000
,
0010
0001
1000
0000
0001
1000
0100
0000
,
0220
0000
0000
0330
,
0001
1000
0010
0100
,
0010
0000
0000
0010
0000
0000
0000
0000
0010
0000
0000
0010
0000
0000
0000
0000
,
0100
0010
0000
0000
0200
0000
0000
0000
,
0301
0010
0100
0000
0010
0100
1000
0000
,
0100
1000
0001
0000
1000
0001
0100
0000
;

//---------------dance-double - ----------------
#NOTES:
     dance-double:
     :
     Easy:
     4:
     0.161429,0.206666,0.018525,0.055574,0.000000,122.000000,120.000000,2.000000,6.000000,0.000000,0.000000,0.161429,0.206666,0.018525,0.055574,0.000000,122.000000,120.000000,2.000000,6.000000,0.000000,0.000000:
00000000
00000000
00000000
00000000
,
00000000
00000000
00000000
00000000
,
00000000
00000000
00000000
00000000
,
00000000
00000000
00000000
00000000
,
10000000
01000000
10000000
00000000
,
01000000
00000000
00100000
00000000
,
00001000
00000000
00000000
00000000
,
00000000
00000000
00000000
00000000
,
00010000
00000100
00010000
00000000
,
00000100
00000000
00000010
00000000
,
00000002
00000000
00002003
00000000
,
00003002
00000000
00000103
00000100
,
00000100
00000000
00000000
00000000
,
00000010
00001000
00000010
00001000
,
00000010
00000000
00010000
00000000
,
00001000
00000000
01000000
01000000
,
01000000
00000000
00000000
00000000
,
00100000
10000000
00100000
10000000
,
00010000
00000000
01000000
00000000
,
00001000
00000000
00010000
00000000
,
00000100
00001000
00000100
00000000
,
00000010
00000000
00000000
00000000
,
00000001
00000000
00000001
00000000
,
00000001
00000000
00000000
00000000
,
00001000
00000100
00001000
00000000
,
00000100
00000000
00010000
00000000
,
00001000
00000000
00000000
00000000
,
00000000
00000000
01000000
01000000
,
01000000
00000000
00000000
00000000
,
00010000
00100000
00010000
00100000
,
00010000
00000000
01000000
00000000
,
00001000
00000000
00010000
00000000
,
00000100
00000000
00000000
00000000
,
00000010
00000001
00000010
00000001
,
00000010
00000000
00000010
00000000
,
00000010
00000000
00000010
00000000
,
00000100
00000000
00000000
00000000
,
00010000
00000000
00000000
00000000
,
00001000
00000000
01000000
00000000
,
00001000
00000000
00100000
00000000
,
01000000
00000000
00100000
00000000
,
00001000
00000000
00010000
00000000
,
00001000
00000000
00010000
00000000
,
00000100
00000000
00000010
00000000
,
00000002
00000000
00000003
00000000
,
00001001
00000000
00000000
00000000
,
00000010
00000000
00010000
00000000
,
00001000
00000000
00100000
00000000
,
00020000
00000000
00030000
00000000
,
10010000
00000000
00000000
00000000
,
01000000
00000000
00001000
00000000
,
00010000
00000000
00000100
00000000
,
00000020
00000000
00000000
00000000
,
00000030
00000000
00000001
00000001
,
00000001
00000000
00000000
00000000
,
00001000
00000100
00001000
00000100
,
00010000
00000000
00001000
00000000
,
00010000
00000000
00001000
00000000
,
01000000
00010000
01000000
00010000
,
00100000
00000000
00000000
00000000
,
00001000
00000000
00010000
00000000
,
00001000
00000000
00010000
00000000
,
00000010
00000000
00000100
00000000
,
00000010
00000000
00000100
00000100
;

//---------------dance-double - ----------------
#NOTES:
     dance-double:
     :
     Hard:
     12:
     0.525307,0.531427,0.166722,0.037049,0.213034,397.000000,379.000000,18.000000,4.000000,0.000000,0.000000,0.525307,0.531427,0.166722,0.037049,0.213034,397.000000,379.000000,18.000000,4.000000,0.000000,0.000000:
00000000
00000000
00000000
00000000
,
00000000
00000000
00000000
00000000
,
00000000
00000000
00000000
00000000
,
00000000
00000000
00000000
00000000
,
10000000
01000000
00100000
01000000
10000000
00000000
10000000
01000000
,
00010000
00001000
00010000
00001000
00000100
00000001
00000100
00000001
,
00001000
00000000
00000000
00001000
00000000
00000000
00000010
00000000
00000100
00000000
00000000
00000100
00000000
00000000
00000001
00000000
,
00000010
00000000
00000000
00000010
00000000
00000000
00000100
00000000
00010000
00000000
00000000
00010000
00000000
00000000
00000100
00000000
,
00000010
00000001
00000100
00000001
00000010
00000000
00000001
00000100
,
00001000
00010000
00001000
00010000
01000000
10000000
01000000
10000000
,
00100000
00000000
00000000
00100000
00000000
00000000
01000000
00000000
00100000
00000000
00000000
00100000
00000000
00000000
01000000
00000000
,
00100000
00000000
00000000
00100000
00000000
00000000
10000000
00000000
00010000
00000000
00000000
10000000
00010000
00000000
01000000
00000000
,
00010000
00000000
00000000
00100000
01000000
00000000
00100000
00000000
00010000
00000000
00000000
00100000
01000000
00000000
00100000
00000000
,
00010000
00000000
01000000
00100000
00020000
00000000
00031000
00000000
,
00000100
00000001
00000000
00000001
00001000
00000000
00001000
00000001
,
00000100
00000000
00000001
00000000
00000010
00000000
00000001
00000000
00001000
00000000
00000000
00000001
00000010
00000000
00000001
00000000
,
00001000
00000000
00000000
00000100
00000010
00000000
00000100
00000000
00001000
00000000
00000000
00000100
00000010
00000000
00000100
00000000
,
00001000
00000010
00000100
00000000
00001000
00000000
00010000
00000000
,
01000000
10000000
00000000
10000000
00100000
00000000
01000000
00010000
,
00100000
01000000
00000000
01000000
00100000
00010000
10000000
00000000
,
10010000
00010000
01000000
00100000
10000000
00000000
10000000
01000000
,
00010000
00001000
00010000
00001000
00000100
00000001
00000100
00000001
,
00002000
00000000
00000000
00000000
00003000
00000000
00001000
00000010
00002000
00000000
00000000
00000000
00003000
00000000
00001000
00000010
,
00001000
00000000
00000001
00000100
00000001
00000000
00000000
00000000
00000001
00000000
00000100
00000000
00000010
00000000
00001000
00000000
,
00001001
00000001
00000100
00000010
00001000
00000000
00000001
00000100
,
00001000
00010000
00001000
00010000
01000000
10000000
01000000
10000000
,
00010000
01000000
00100000
00000000
10000000
01000000
00100000
00000000
,
00010000
00000000
01000000
00000000
00100000
00000000
00000000
00000000
10000000
00000000
00000000
00010000
00100000
00000000
00010000
00000000
,
01000000
00000000
00000000
00001000
00010000
00000000
00001000
00000000
01000000
00000000
00000000
00001000
00010000
00000000
00001000
00000000
,
02000000
00000000
03100000
10000000
00010000
00000000
10010000
00000000
,
01000000
00001000
00000000
00010000
00000100
00000000
00001000
00000010
,
00000100
00000001
00000010
00000100
00000010
00000001
00001000
00000100
,
00010000
00000000
00000000
00000100
00001000
00000000
00000100
00000000
00010000
00000000
00000000
00000100
00001000
00000000
00000100
00000000
,
00010000
00000010
00000100
00000000
00000101
00000000
00001010
00000000
,
00000010
00000000
00000000
00000010
00000000
00000000
00010000
00000000
00001000
00000000
00000000
00001000
00000000
00000000
00100000
00000000
,
01000000
00000000
00000000
01000000
00000000
00000000
10000000
00000000
00010000
00000000
00100000
00000000
00110000
00000000
00000000
00000000
,
00010000
00000000
00000000
00010000
00000000
00000000
10000000
00000000
01000000
00000000
00000000
01000000
00000000
00000000
00100000
00000000
,
00001000
00000000
00000000
00010000
00000000
00000000
00000100
00000000
00000010
00000000
00000000
00000000
00001001
00000000
00000000
00000000
,
00000010
00000000
00000000
00000001
00001000
00000000
00000001
00000000
00000010
00000000
00000000
00000001
00001000
00000000
00000001
00000000
,
00000100
00000010
00000100
00000010
00000110
00000000
00000000
00000000
,
00001000
00000000
00000000
00001000
00000000
00000000
00000001
00000000
00000010
00000000
00000000
00000010
00000000
00000000
00000100
00000000
,
00010000
00000000
00000000
00001000
00000000
00000000
01000000
00000000
00100000
00000000
00000000
00000000
10010000
00000000
00000000
00000000
,
01000000
00000000
00000000
10000000
00010000
00000000
10000000
00000000
01000000
00000000
00000000
10000000
00010000
00000000
10000000
00000000
,
01000000
00010000
00001000
00000100
00000001
00000000
00000000
00000000
,
00000101
00000000
00000000
00001010
00000000
00000000
00000000
00000000
00000000
00000000
00000001
00000000
00000100
00000000
00000010
00000000
,
00001000
00000001
00000000
00000000
00000000
00000000
00000000
00000000
00000000
00000000
00000001
00000000
00000100
00000000
00000000
00000000
,
00001000
00010000
01000000
00000000
00010000
01000000
10000000
00000000
,
01000000
00010000
01000000
00000000
10000000
00010000
10000000
00000000
,
10100000
00000000
00000000
01010000
00000000
00000000
00000000
00000000
00000000
00000000
10000000
00000000
00100000
00000000
01000000
00000000
,
00010000
10000000
00000000
00000000
00000000
00000000
00000000
00000000
00000000
00000000
10000000
00000000
01000000
00000000
00000000
00000000
,
00010000
00001000
00000100
00000000
00001000
00000100
00000001
00000000
,
00000001
00000010
00000001
00000100
00000001
00000010
00000001
00001000
,
00001001
00000000
00000000
00000000
,
00000000
00000000
00000000
00000000
00000000
00000000
00000000
00000000
00000100
00000000
00000000
00010000
00001000
00000000
00010000
00000000
,
00001000
00000000
00000000
01000000
00100000
00000000
01000000
00000000
00001000
00000000
00000000
01000000
00100000
00000000
01000000
00000000
,
00001000
00000000
00100000
01000000
10000000
00000000
11000000
00000000
,
10000000
01000000
10000000
01000000
00010000
00001000
00000100
00000001
,
00000010
00000001
00000010
00000001
00001000
00000010
00000100
00000000
,
00000010
00000000
00000000
00010000
00001000
00000000
00010000
00000000
00000010
00000000
00000000
00010000
00001000
00000000
00010000
00000000
,
00000100
00000010
00000001
00000000
00000101
00000000
00001010
00000000
,
00000001
00000000
00000000
00001000
00000000
00000000
00000100
00000000
00010000
00000000
00000000
00001000
00000000
00000000
01000000
00000000
,
00010000
00000000
00000000
10000000
00000000
00000000
00100000
00000000
01000000
00000000
00010000
00000000
10000000
00000000
00000000
00000000
,
10000000
01000000
00010000
00001000
00000100
00000000
00001001
00000000
,
00000001
00000100
00001000
00010000
01000000
10000000
01000000
00000000
;

//---------------dance-double - ----------------
#NOTES:
     dance-double:
     :
     Medium:
     7:
     0.334768,0.442856,0.166722,0.175985,0.018525,253.000000,235.000000,18.000000,19.000000,0.000000,0.000000,0.334768,0.442856,0.166722,0.175985,0.018525,253.000000,235.000000,18.000000,19.000000,0.000000,0.000000:
00000000
00000000
00000000
00000000
,
00000000
00000000
00000000
00000000
,
00000000
00000000
00000000
00000000
,
00000000
00000000
00000000
00000000
,
10000000
01000000
10000000
00000000
00010000
00000000
01000000
00010000
,
01000000
00001000
00010000
00000100
,
00000010
00000000
00000010
00000000
,
00000001
00000000
00000010
00000000
,
00000001
00000100
00000001
00000000
00001000
00000000
00000100
00001000
,
00000100
00010000
00001000
01000000
,
00200000
00000000
02300000
00000000
,
03200000
00000000
00000000
00000000
10300000
00000000
00010000
10000000
,
20020000
00000000
00000000
00000000
30030000
00000000
10000000
01000000
,
00010000
00001000
00000100
00000001
,
00001000
00000001
00000000
00000001
00001000
00000000
00000000
00000000
,
00000001
00001000
00000000
00001000
00000001
00000000
00000100
00000000
,
00000202
00000000
00000000
00000000
00000303
00000000
00000001
00000100
,
00001000
00010000
01000000
10000000
,
11000000
00000000
00110000
00000000
,
01010000
00000000
10100000
00000000
,
01000000
00100000
01000000
00000000
00010000
00000000
00100000
00010000
,
00100000
00001000
00010000
00000010
,
00000100
00000000
00000000
00000100
00000001
00000000
00000000
00000100
,
00000001
00001000
00000001
00000000
00000100
00000010
00001000
00000001
,
00001000
00000010
00001000
00000000
00000100
00000000
00000010
00000001
,
00000010
00000100
00010000
00001000
,
02000000
00000000
03020000
00000000
,
20030000
00000000
00000000
00000000
30100000
00000000
10000000
00010000
,
20020000
00000000
00000000
00000000
30030000
00000000
10000000
00100000
,
00010000
00001000
00000010
00000001
,
00001000
00000100
00000000
00000100
00001000
00000000
00000000
00000000
,
00000001
00000010
00000000
00000010
00000001
00000000
00001000
00000001
,
00002002
00000000
00000000
00000000
00003003
00000000
00000001
00000010
,
00001000
00010000
00100000
10000000
,
10010000
00000000
01100000
00000000
,
10010000
00000000
01100000
00000000
,
00011000
00000000
00000000
00000000
,
00000110
00000000
00000000
00000000
,
00000001
00000000
00000100
00000000
00000001
00000100
00001000
00000000
,
00010000
01000000
10000000
01000000
10000000
00000000
00000000
00000000
,
11000000
00000000
01010000
00000000
,
00100000
01000000
10000000
00010000
,
10000000
00000000
01000000
00000000
10000000
01000000
00010000
00000000
,
00001000
00000100
00000001
00000100
00000001
00000000
00000000
00000000
,
00001000
00000000
00000000
00000001
00000000
00000000
00000000
00000000
00000000
00000000
00000000
00000000
00000000
00000000
00000000
00000000
,
00001000
00000001
00000000
00000000
00000000
00000000
00000000
00000000
00000000
00000000
00000010
00000000
00000100
00000000
00000010
00000000
,
00001000
00000100
00010000
00001000
,
01000000
00100000
01000000
00000000
00010000
10000000
00010000
00000000
,
10000000
00000000
00000000
00010000
00000000
00000000
00000000
00000000
00000000
00000000
00000000
00000000
00000000
00000000
00000000
00000000
,
10000000
00010000
00000000
00000000
00000000
00000000
00000000
00000000
00000000
00000000
01000000
00000000
00100000
00000000
01000000
00000000
,
00001000
00010000
00000100
00000010
,
00000001
00000100
00000001
00000000
00001000
00000010
00001000
00000000
,
00000002
00000000
00000000
00000000
,
00000003
00000000
00000000
00000000
00001000
00000000
00000100
00001000
,
00002200
00000000
00000000
00000000
00003300
00000000
00000001
00000100
,
00001000
00010000
01000000
10000000
,
00100000
01000000
00100000
00000000
01000000
00100000
01000000
00000000
,
00100000
01000000
00100000
00000000
01000000
00100000
01000000
00010000
,
02020000
00000000
00000000
00000000
03030000
00000000
10000000
01000000
,
00010000
00001000
00000100
00000001
,
00000100
00000010
00000000
00000010
00001000
00000000
00000000
00000000
,
00000001
00000100
00000000
00000100
00000010
00000000
00001000
00000000
,
00000001
00000100
00000010
00000000
00010000
00000000
00001000
00100000
,
01000000
00000000
10000000
00000000
01000000
00100000
00010000
00000000
;
