#TITLE:Agony for Glory;
#SUBTITLE:;
#ARTIST:RoughSketch;
#TITLETRANSLIT:;
#SUBTITLETRANSLIT:;
#ARTISTTRANSLIT:;
#GENRE:Hardcore;
#CREDIT:;
#BANNER:agonyforglory-bn.png;
#BACKGROUND:agonyforglory-bg.png;
#LYRICSPATH:;
#CDTITLE:;
#MUSIC:Agony for Glory.mp3;
#OFFSET:-0.040000;
#SAMPLESTART:79.580002;
#SAMPLELENGTH:12.000000;
#SELECTABLE:YES;
#BPMS:0.000000=175.000000
;
#STOPS:
;
#BGCHANGES:;
#KEYSOUNDS:;
#ATTACKS:;

//---------------dance-single - ----------------
#NOTES:
     dance-single:
     :
     Challenge:
     15:
     0.792093,0.877604,0.684081,0.207024,1.413167,616.000000,540.000000,76.000000,23.000000,0.000000,0.000000,0.792093,0.877604,0.684081,0.207024,1.413167,616.000000,540.000000,76.000000,23.000000,0.000000,0.000000:
// measure 0
0000
0000
0000
0000
,  // measure 1
0000
0000
0000
0000
,  // measure 2
0000
0000
0000
0000
,  // measure 3
0000
0000
0000
0000
,  // measure 4
0011
0000
0010
0000
0001
1000
0010
0000
0000
0000
0010
0000
,  // measure 5
1010
0000
1000
0000
0100
0010
0001
0000
0000
0000
0100
0000
,  // measure 6
0101
0000
0001
0000
0010
0000
0100
0000
1000
0000
0010
0000
,  // measure 7
1010
0000
0010
0000
0100
0010
0100
0000
0001
0000
1000
0000
,  // measure 8
1001
0000
0001
0100
0010
1000
0001
0000
0011
0000
1100
0000
,  // measure 9
1001
0000
1000
0010
0100
0001
1000
0000
1100
0000
0011
0000
,  // measure 10
1001
0000
0010
1000
0001
0100
0010
0000
0110
0000
1010
0000
,  // measure 11
1000
0000
0000
0000
0100
0000
0000
0000
0010
0000
0000
0000
0002
0000
0000
0000
0000
0000
0000
0000
0000
0003
0000
0000
,  // measure 12
1010
0000
1000
0010
0100
0001
0010
0000
0011
0000
1100
0000
,  // measure 13
0101
0000
0001
0100
0010
1000
0100
0000
1100
0000
0011
0000
,  // measure 14
0001
0000
0100
0000
0001
0000
1000
0000
0010
0000
0100
0000
,  // measure 15
0001
0000
0010
0100
1000
0100
1000
0100
1000
0100
1000
0100
,  // measure 16
1000
0000
0000
0100
0000
0000
0100
0000
0000
0100
0000
0010
,  // measure 17
0001
0000
0000
0000
0001
0000
1000
0000
0000
0000
1000
0000
0020
0000
0000
0000
0000
0000
0000
0000
0000
0030
0000
0000
,  // measure 18
1010
0000
0000
1100
0000
0000
1010
0000
0000
1000
0010
0100
,  // measure 19
0001
0000
0000
1000
0100
0001
0100
0000
0000
1000
0000
0010
,  // measure 20
0100
0001
0100
0001
0000
0000
0001
0010
0001
0010
0000
0100
,  // measure 21
1000
0000
0000
0001
0000
0000
1100
0000
0101
0000
1100
0000
,  // measure 22
1000
0001
1000
0001
0100
0000
0010
0000
0000
0000
0000
0000
0110
0000
0000
0000
0000
0000
0100
0000
0010
0000
1000
0000
,  // measure 23
0001
0000
0000
0001
0100
1000
0100
0000
0001
0000
0000
0000
,  // measure 24
1100
0000
0000
0010
0000
0000
0101
0000
1100
0000
0101
0000
,  // measure 25
1002
0000
0000
0000
0023
0000
0000
0030
,  // measure 26
0100
1000
0100
0010
0001
0010
0100
1000
0100
0010
0001
0010
,  // measure 27
0001
0100
0001
1000
0010
1000
0001
0100
0001
1000
0010
0000
,  // measure 28
0010
0100
0010
1000
0001
1000
0010
0100
0010
1000
0001
1000
,  // measure 29
0001
0100
0010
1000
0100
0010
0001
0100
0010
1000
1000
1000
,  // measure 30
0001
0100
0001
1000
0010
1000
0010
0100
0010
1000
0001
1000
,  // measure 31
0010
0000
1000
0000
0010
0000
0100
0000
0001
0000
0100
0000
0002
0000
0000
0000
2000
0000
0000
0000
0000
3003
0010
0100
,  // measure 32
0010
0000
0000
0000
0100
0000
0000
0000
0001
0000
0000
0010
0100
0000
0000
0000
1000
0000
0000
0000
0100
0000
0000
0000
,  // measure 33
1200
0000
0000
0000
0000
0000
1300
0001
1000
0001
1000
0001
,  // measure 34
2000
0000
0000
3000
0100
0010
0001
0000
0011
0000
0110
0000
,  // measure 35
1100
0000
0010
0000
0100
0000
0011
0000
0010
0000
0010
0001
,  // measure 36
2000
0000
0000
0000
3001
0100
0010
0000
1010
0000
1100
0000
,  // measure 37
0011
0000
0100
0000
0010
0100
1000
0000
0010
0000
0100
0010
,  // measure 38
0002
0000
0000
0000
0013
1000
0100
0000
0011
0000
0101
0000
,  // measure 39
0110
0000
1000
0000
0001
0000
0110
0000
0001
0000
1000
0000
,  // measure 40
0002
0000
0000
0000
0000
0000
0000
0000
0000
0003
0000
0000
0101
0000
0000
0000
1100
0000
0000
0000
0101
0000
0000
0000
,  // measure 41
1010
0000
0011
0000
1010
0000
0100
0000
0010
0000
1000
0001
,  // measure 42
0200
0001
1000
0301
,  // measure 43
0020
1000
0001
1030
,  // measure 44
0002
0100
1000
0103
,  // measure 45
2000
0010
3001
0000
,  // measure 46
1001
0000
0100
0001
1000
0010
0100
0000
0001
0000
1010
0000
,  // measure 47
1001
0000
0010
1000
0001
0100
0001
0000
1000
0000
0101
0000
,  // measure 48
1001
0000
0010
0100
0001
1000
0010
0000
1010
0000
1100
0000
,  // measure 49
0010
0000
0000
0000
0011
0000
0000
0000
0101
0000
0000
0000
0020
0000
0000
0000
0000
0000
0000
0000
0000
0030
0000
0000
,  // measure 50
0110
0000
1000
0001
0100
0010
1000
0000
0001
0000
1010
0000
,  // measure 51
0110
0000
0001
1000
0010
0100
0001
0000
1000
0000
0101
0000
,  // measure 52
0110
0000
0100
0000
0010
0000
1010
0000
0100
0000
0001
0000
,  // measure 53
0011
0000
0000
0000
0010
0000
0000
0000
0100
0000
0000
0000
2200
0000
0000
0000
0000
0000
0000
0000
0000
3300
0000
0000
,  // measure 54
0001
1000
0001
1000
,  // measure 55
0010
0000
0000
0100
0000
0000
0010
0000
0000
0100
0000
0001
,  // measure 56
1000
0001
1000
0001
1000
0001
1000
0001
1000
0001
1000
0001
,  // measure 57
0100
0000
0010
0000
0100
0000
0010
0000
0100
0000
0010
0000
0200
0000
0000
0000
0000
0000
0000
0000
0000
0300
0000
0000
,  // measure 58
0101
0000
0001
0100
1000
0100
0001
0000
1000
0000
0001
0000
,  // measure 59
1100
0000
1000
0100
0001
0100
1000
0000
0001
0000
1000
0001
,  // measure 60
0100
0000
0001
0010
0100
0010
0001
0000
0100
0000
0010
0100
,  // measure 61
0010
0000
1010
0000
1100
0000
0012
0000
0000
0103
0010
1000
,  // measure 62
1010
0000
1000
0010
0001
0010
1000
0000
0001
0000
1000
0001
,  // measure 63
0010
0000
0001
0010
1000
0010
0001
0000
1000
0000
0001
1000
,  // measure 64
0100
0000
0010
0000
0001
0000
0101
0000
0010
0000
1000
0001
,  // measure 65
1000
0000
0000
0000
0010
0000
0000
0000
0100
0000
0000
0000
2001
0000
0000
0000
0000
0000
0010
0000
0000
3000
0000
0000
,  // measure 66
1001
0000
0000
0010
0000
0000
0010
0000
0010
0100
0000
0100
,  // measure 67
0101
0000
0001
0010
0000
0010
0100
0000
0100
1000
0100
1000
,  // measure 68
0100
0000
0000
0100
0000
0000
1000
0000
1000
0010
0000
0010
,  // measure 69
0100
0001
0100
0010
1000
0010
0100
0001
0100
0020
0000
0000
,  // measure 70
1030
0000
1000
0100
0000
0100
1000
0000
1000
0001
0000
0001
,  // measure 71
1000
0000
0000
0000
0001
0010
0001
0000
0000
0000
1000
0010
1000
0000
0000
0000
0010
0000
0000
0000
0100
0000
0000
0000
,  // measure 72
0001
0010
0001
1000
0100
1000
0001
0010
0001
1000
0100
1000
,  // measure 73
0002
0000
0000
0000
0000
0000
0000
0000
0000
0103
0010
0100
0010
0000
0000
0000
1000
0100
1000
0000
0000
0000
0001
0100
,  // measure 74
0001
0000
0001
0000
1000
0010
0100
0000
0000
0000
0100
0000
,  // measure 75
0001
0000
0010
0000
0001
0100
0010
0000
0000
0000
0010
0000
,  // measure 76
1000
0000
0001
0000
0100
0000
0001
0000
1000
0000
0010
0000
,  // measure 77
1000
0010
0001
0010
1000
0100
0001
0100
1000
0010
0001
0010
,  // measure 78
1000
0000
0000
0000
;

//---------------dance-single - ----------------
#NOTES:
     dance-single:
     :
     Hard:
     13:
     0.663507,0.772291,0.279033,0.198023,1.192641,516.000000,485.000000,31.000000,22.000000,0.000000,0.000000,0.663507,0.772291,0.279033,0.198023,1.192641,516.000000,485.000000,31.000000,22.000000,0.000000,0.000000:
0000
0000
0000
0000
,
0000
0000
0000
0000
,
0000
0000
0000
0000
,
0000
0000
0000
0000
,
0001
0000
0100
0000
0001
0000
1000
0000
0000
0000
0010
0000
,
1000
0000
0100
0000
1000
0000
0001
0000
0000
0000
0100
0000
,
0010
0000
0100
0000
0001
0000
1000
0000
0100
0000
0010
0000
,
0001
0000
0001
0000
0001
0100
0010
0000
0010
0000
0010
0000
,
1010
0000
1000
0100
0010
0001
0100
0000
0010
0000
0100
0000
,
0101
0000
0001
0010
0100
1000
0010
0000
0100
0000
0010
0000
,
1010
0000
1000
0100
0010
0001
0100
0000
0100
0000
0100
0000
,
0001
0000
0000
0000
0010
0000
0000
0000
0100
0000
0000
0000
2000
0000
0000
0000
0000
0000
0000
0000
0000
3000
0000
0000
,
1001
0000
1000
0010
0100
0010
1000
0000
0100
0000
0010
0000
,
0011
0000
0001
0100
0010
0100
0001
0000
0010
0000
0100
0000
,
1000
0000
1000
0000
0010
0000
0100
0000
0001
0000
0010
0000
,
0001
0000
0001
0000
0100
0000
0020
0000
0000
0000
0000
0000
,
1030
0000
0000
0001
0000
0000
1000
0000
0000
0001
0000
0100
,
0010
0000
0100
0000
0020
0000
0000
0030
,
1010
0000
0000
0100
0000
0000
0101
0000
0000
0001
0100
0001
,
0010
0000
0000
0001
0010
0100
0010
0000
0000
0001
0000
0001
,
0100
0010
1000
0100
0000
0000
0010
0100
0010
0001
0000
0000
,
1000
0000
0000
0110
0000
0000
0001
0000
0001
0000
0001
0000
,
0100
0010
0100
0010
0000
0000
1010
0000
0000
1000
0010
0100
,
0010
0000
0000
1000
0100
0010
0100
0000
1000
0000
0000
0000
,
0101
0000
0000
0010
0000
0000
1000
0000
0001
0000
1000
0000
,
0002
0000
0203
0000
,
0301
0000
0001
0010
0000
0010
0001
0000
0001
1000
0000
1000
,
0010
0000
0010
0100
0000
0100
0010
0000
0010
0100
0001
0000
,
1000
0000
1000
0100
0000
0100
1000
0000
1000
0010
0000
0010
,
0100
0000
0100
0010
0000
0010
0100
0000
0100
0001
0010
0100
,
1000
0000
1000
0100
0000
0100
1000
0000
1000
0010
0000
0010
,
0100
0000
0000
0000
0100
0000
0001
0000
0000
0000
0001
0000
0200
0000
0000
0000
0020
0000
0000
0000
0000
0330
0000
0000
,
0101
0000
0001
0000
1000
0000
1100
0000
1000
0000
0001
0000
,
0202
0000
0000
0000
0000
0000
0000
0000
0000
0303
0000
0000
0100
0000
0010
0000
0100
0000
0010
0000
0100
0000
0010
0000
,
2000
0000
0000
3000
1000
0100
0010
0000
0001
0000
0010
0000
,
0001
0000
0100
0000
0001
0000
0200
0000
0000
0000
0000
0000
,
0302
0000
0000
0003
0001
0010
0100
0000
1000
0000
0010
0000
,
0100
0000
0010
0000
1000
0001
0100
0000
0100
0000
0100
0001
,
2000
0000
0000
3000
1000
0100
0010
0000
0001
0000
1000
0000
,
0010
0000
0100
0000
0010
0000
1000
0000
0100
0000
0010
0000
,
0002
0000
0000
0000
0000
0000
0000
0000
0000
0003
0000
0000
0001
0000
0000
0000
0100
0000
0000
0000
0010
0000
0000
0000
,
1000
0000
0010
0000
0100
0000
0001
0000
0010
0000
0001
0000
,
1000
0001
1000
0001
,
0100
0010
0100
0010
,
1000
0001
1000
0001
,
0100
0000
0010
0000
0200
0000
0000
0300
,
0101
0000
0001
0010
0100
1000
0010
0000
0010
0000
0010
0000
,
1010
0000
1000
0100
0010
0001
0100
0000
0100
0000
0100
0000
,
0101
0000
0001
0010
0100
1000
0010
0000
0100
0000
0010
0000
,
1000
0000
0000
0000
0001
0000
0000
0000
0010
0000
0000
0000
0002
0000
0000
0000
0000
0000
0000
0000
0000
0003
0000
0000
,
0011
0000
0001
1000
0010
0100
0010
0000
0010
0000
0010
0000
,
1010
0000
1000
0001
0100
0010
0100
0000
0100
0000
0100
0000
,
0101
0000
0001
0000
0010
0000
0100
0000
1000
0000
0010
0000
,
0100
0000
0001
0000
1000
0000
0020
0000
0000
0000
0000
0000
,
1030
0000
0000
0100
0000
0000
0010
0000
0000
0001
0000
1000
,
0001
0000
0000
0010
0000
0000
0100
0000
0000
1000
0000
0001
,
1000
0100
1000
0100
0010
0100
0010
0001
0010
0001
0100
0001
,
0100
0000
0010
0000
0100
0000
0010
0000
1000
0000
0010
0000
2000
0000
0000
0000
0000
0000
0000
0000
0000
3000
0000
0000
,
1001
0000
0010
1000
0001
0100
0010
0000
0100
0000
0001
0000
,
1001
0000
0100
0001
1000
0010
0100
0000
0001
0000
1000
0000
,
1001
0000
0010
1000
0001
0100
0010
0000
1000
0000
0100
0000
,
0010
0000
0010
0000
0001
0000
0012
0000
0000
1003
0000
0000
,
0101
0000
0001
0010
0100
0010
0001
0000
1000
0000
0100
0000
,
1100
0000
1000
0010
0100
0010
1000
0000
0100
0000
0010
0000
,
0011
0000
0001
0000
0010
0000
1000
0000
0010
0000
0001
0000
,
1000
0000
0100
0000
0010
0000
0210
0000
0000
1300
0000
0000
,
0001
0000
0001
0100
0000
0100
0001
0010
0100
1000
0000
0010
,
1000
0000
1000
0100
0000
0100
1000
0010
0100
0001
0100
0010
,
0100
0000
0100
0010
0000
0010
1000
0000
1000
0100
0000
0100
,
1000
0010
0100
0001
0010
0100
1000
0010
0100
0002
0000
0000
,
0013
0000
0010
0001
0000
0001
1000
0010
0100
0001
0000
0010
,
0100
0000
0100
1000
0000
1000
0100
0000
0010
0000
0001
0000
,
1000
0001
1000
0010
0100
0010
1000
0100
1000
0001
0010
0001
,
0200
0000
0310
1010
,
1001
0000
1000
0000
0100
0010
0001
0000
0000
0000
0000
0000
,
1001
0000
0001
0000
0010
0100
1000
0000
0000
0000
0010
0000
,
0100
0000
0001
0000
1000
0010
0100
0000
0010
0000
1000
0000
,
0001
0000
0100
0000
0001
0000
1000
0000
0010
0000
0100
0000
,
0110
0000
0000
0000
;

//---------------dance-single - ----------------
#NOTES:
     dance-single:
     :
     Medium:
     11:
     0.441052,0.596770,0.162019,0.360042,0.508560,343.000000,325.000000,18.000000,40.000000,0.000000,0.000000,0.441052,0.596770,0.162019,0.360042,0.508560,343.000000,325.000000,18.000000,40.000000,0.000000,0.000000:
0000
0000
0000
0000
,
0000
0000
0000
0000
,
0000
0000
0000
0000
,
0000
0000
0000
0000
,
2000
0000
0020
3030
,
0002
0000
0200
0303
,
0001
0000
0010
0000
0001
0000
1000
0000
0010
0000
1000
0000
,
0020
0000
0000
0000
0200
0000
0000
0330
,
0001
0000
0000
1000
0100
0010
0002
0000
0000
0000
0000
0000
,
1003
0000
0000
0001
0010
0100
2000
0000
0000
0000
0000
0000
,
3001
0000
0000
1000
0100
0010
0002
0000
0000
0000
0000
0000
,
0013
0000
0000
0000
0100
0000
0000
0000
0010
0000
0000
0000
0200
0000
0000
0000
0000
0000
0000
0000
0000
0300
0000
0000
,
1100
0000
0000
0000
0000
0000
1000
0000
0100
0000
0010
0000
0002
0000
0000
0000
0000
0000
0000
0000
0000
0003
0000
0000
,
0101
0000
0000
0001
0100
0010
2000
0000
0000
0000
0000
0000
,
3010
0000
0100
0000
0010
0000
0100
0000
0001
0000
0100
0000
,
0001
0000
0010
0000
0001
0000
0020
0000
0000
0000
0000
0000
,
0130
0100
0100
0100
,
1000
0000
0010
0000
0220
0000
0000
0330
,
1000
0000
0000
1000
0000
0000
0010
0000
0000
0100
0001
0100
,
0001
0000
0000
0010
0100
0010
0100
0000
0000
0010
0000
0000
,
0001
0100
0001
0100
0000
0000
0010
1000
0010
1000
0000
0000
,
0010
1000
0002
0000
,
0003
0000
0000
0101
0000
0000
0100
0000
0000
0001
0010
0001
,
0010
0000
0000
0100
1000
0100
1000
0000
0000
0000
0000
0000
,
1010
1000
0020
0000
,
0230
0000
0302
0000
,
0013
0100
0010
0100
,
0010
0011
0001
0010
,
0100
1100
1000
0100
,
1000
1010
0010
0000
,
0100
0110
0010
0100
,
0001
0011
0010
0000
,
0001
0000
1000
0000
0001
0000
1000
0000
0100
0000
1000
0000
,
0020
0000
0030
0000
,
0200
0000
0000
0000
0000
0000
0301
0000
0010
0000
0100
0000
,
2000
0000
0000
0000
0000
0000
3010
0000
0100
0000
0010
0000
,
0200
0000
0000
0000
0000
0000
0301
0000
1000
0000
0010
0000
,
0100
0000
0010
0000
1000
0000
0002
0000
0000
0000
0000
0000
,
0023
0000
0000
0000
0000
0000
0130
0000
0010
0000
0100
0000
,
0010
0000
0001
0000
0010
0000
0001
0000
1000
0000
0001
0000
,
2000
0000
0000
0000
0000
0000
3010
0000
1000
0000
0010
0000
,
1000
0000
0001
0000
1000
0000
0001
0000
0100
0000
0001
0000
,
0100
0010
0010
0010
,
1000
1000
1000
1000
,
0001
0001
0001
0001
,
0010
0010
0020
0030
,
0011
0000
0000
0000
0000
0000
0001
0000
1000
0000
0001
0000
,
1000
0000
0000
0000
0000
0000
1000
0000
0010
0000
1000
0000
,
0010
0000
0000
0000
0000
0000
0100
0000
0001
0000
0100
0000
,
0001
0000
0000
0000
0010
0000
0000
0000
0001
0000
0000
0000
0020
0000
0000
0000
0000
0000
0000
0000
0000
0030
0000
0000
,
0110
0000
0000
0000
0000
0000
0100
0000
1000
0000
0001
0000
,
0010
0000
0000
0000
0000
0000
0010
0000
0001
0000
1000
0000
,
0100
0000
0010
0000
0001
0000
0010
0000
0100
0000
1000
0000
,
0010
0000
0100
0000
0010
0000
0200
0000
0000
0000
0000
0000
,
0301
1000
0001
1000
,
0001
1000
0001
1000
,
0010
1010
0101
1010
,
0101
1010
0020
0000
,
1030
0000
0000
1000
0100
0010
0001
0000
0000
1000
0000
0000
,
0001
0000
0000
0001
0010
0100
1000
0000
0000
0001
0000
0100
,
0010
0000
0000
0100
0010
1000
0001
0000
0100
0000
0001
0000
,
0010
0000
0100
0000
0010
0000
0200
0000
0000
0300
0000
0000
,
1100
0000
0000
1000
0010
0100
0001
0000
0000
1000
0000
0001
,
0100
0000
0000
0001
0100
0010
1000
0000
0010
0000
1000
0000
,
0010
0000
0100
0000
0010
0000
0100
0000
0001
0000
0100
0000
,
0001
0000
0010
0000
0001
0000
0020
0000
0000
0000
0000
0000
,
0130
0000
0000
0100
0000
0000
1000
0000
0000
1000
0000
0010
,
0100
0000
0000
0100
0000
0000
0001
0000
0000
0001
1000
0001
,
1000
0000
0000
1000
0000
0000
0001
0000
0000
0001
0000
0100
,
0020
0230
0320
1030
,
0010
0000
0000
0010
0000
0000
1000
0000
0000
1000
0000
0001
,
0100
0100
0001
0000
,
1000
0001
1000
0001
1000
0001
1000
0001
1000
0001
1000
0001
,
2000
0000
3010
0010
,
0020
0000
0000
0000
0200
0000
0000
0330
,
0002
0000
0000
0000
2000
0000
0000
3003
,
0001
0000
0010
0000
,
1000
0000
0010
0000
,
0001
0000
0000
0000
;

//---------------dance-single - ----------------
#NOTES:
     dance-single:
     :
     Easy:
     5:
     0.277747,0.351041,0.117014,0.360042,0.000000,216.000000,203.000000,13.000000,40.000000,0.000000,0.000000,0.277747,0.351041,0.117014,0.360042,0.000000,216.000000,203.000000,13.000000,40.000000,0.000000,0.000000:
0000
0000
0000
0000
,
0000
0000
0000
0000
,
0000
0000
0000
0000
,
0000
0000
0000
0000
,
2000
0000
3200
0000
,
2300
0000
3020
0000
,
0130
0000
0001
0000
,
0010
0000
0010
0000
,
0110
0000
0200
0000
,
1300
0000
2000
0000
,
3010
0000
0020
0000
,
0130
0000
0101
0000
,
0001
0000
2000
0000
,
3001
0000
0002
0000
,
0023
0000
0230
0000
,
2300
0000
3002
0000
,
0103
0100
0100
0010
,
1000
1000
0002
0000
,
0103
0100
0001
0010
,
0001
0001
0100
0010
,
0010
1000
0001
1000
,
0010
0100
0020
0000
,
0030
1000
0001
1000
,
0001
0100
0001
0000
,
0010
0100
2000
0000
,
3002
0000
1003
0000
,
2002
3003
1000
0100
,
0100
0020
0031
0100
,
0100
0020
1030
0001
,
0001
0020
0130
0000
,
1000
0002
0103
0100
,
0001
2000
3010
0000
,
0100
0000
0100
0000
,
0110
0000
0000
0000
,
0002
0000
0103
0000
,
0001
0000
0010
0000
,
0200
0000
1300
0000
,
0010
0000
0010
0000
,
2000
0000
3001
0000
,
0001
0000
0100
0000
,
1010
0000
1000
0000
,
0001
0000
0010
0000
,
0011
0010
0010
0010
,
0001
0001
0001
0001
,
1000
1000
1000
1000
,
0010
0010
0020
0000
,
0130
0000
0001
0000
,
1001
0000
1000
0000
,
1001
0000
1000
0000
,
0010
0000
0200
0300
,
0110
0000
0010
0000
,
0110
0000
0100
0000
,
0001
0000
1000
0000
,
0010
0000
0020
0000
,
1030
1000
1000
1000
,
0100
0100
0100
0100
,
0010
0001
0010
0001
,
0100
0010
0200
0000
,
0301
0001
1000
0001
,
1000
1000
0010
1000
,
0010
0010
0100
0010
,
0200
0000
0300
0000
,
0010
0010
1000
0010
,
0100
0100
0001
0100
,
0001
0000
1000
0000
,
0110
0000
1001
0000
,
0001
0001
0001
0010
,
0100
1000
0100
1000
,
0010
0010
0010
0010
,
2000
0000
3002
0103
,
0001
0001
0001
1000
,
0010
0100
0010
0000
,
2002
0000
0000
3003
,
1000
0000
0001
0100
,
0010
0000
1000
0000
,
0100
0000
0010
0000
,
0002
0000
0203
0000
,
0320
0000
2030
0000
,
3001
0000
0000
0000
;

//---------------dance-single - ----------------
#NOTES:
     dance-single:
     :
     Beginner:
     3:
     0.133730,0.175521,0.018002,0.000000,0.000000,104.000000,102.000000,2.000000,0.000000,0.000000,0.000000,0.133730,0.175521,0.018002,0.000000,0.000000,104.000000,102.000000,2.000000,0.000000,0.000000,0.000000:
0000
0000
0000
0000
,
0000
0000
0000
0000
,
0000
0000
0000
0000
,
0000
0000
0000
0000
,
1000
0000
1000
0000
,
0001
0000
0001
0000
,
1000
0000
0000
0000
,
0001
0000
0000
0000
,
1001
0000
0000
0000
,
0010
0000
0000
0000
,
0100
0000
0000
0000
,
0010
0000
0000
0000
,
0110
0000
0000
0000
,
1000
0000
0000
0000
,
0001
0000
0000
0000
,
0010
0000
0000
0000
,
0001
0000
0000
0000
,
0000
0000
1000
0000
,
1000
0000
0000
0000
,
0010
0000
0010
0000
,
0100
0000
0100
0000
,
0010
0000
0000
0000
,
0000
1000
0000
0000
,
0001
0000
0100
0000
,
0001
0000
0001
0000
,
0010
0000
0010
0000
,
0100
0000
0000
0000
,
1000
1000
0000
0000
,
0001
0001
0000
0000
,
1000
1000
0000
0000
,
0010
0010
0000
0000
,
0100
0100
0000
0000
,
0010
0000
0000
0000
,
0010
0000
0000
0000
,
0001
0000
0000
0000
,
1000
0000
0001
0000
,
1000
0000
0000
0000
,
0010
0000
0000
0000
,
0100
0000
0000
0000
,
0001
0000
0010
0000
,
0001
0000
0000
0000
,
1000
0000
0010
0000
,
1000
0000
0000
0000
,
0001
0000
0000
0000
,
1000
0000
0000
0000
,
0001
0000
0000
0000
,
0100
0000
0000
0000
,
0100
0000
0000
0000
,
0010
0000
0000
0000
,
0010
0000
0010
0000
,
1000
0000
0000
0000
,
1000
0000
0000
0000
,
0001
0000
0001
0000
,
0001
0000
0001
0000
,
0000
0000
0000
0000
,
0100
0000
0000
0000
,
0100
0000
0000
0000
,
0000
0000
0100
0000
,
0010
0000
0010
0000
,
1000
0000
1000
0000
,
0010
0000
0010
0000
,
0100
0000
0100
0000
,
0001
0000
0001
0000
,
0100
0000
0100
0000
,
0001
0000
0001
0000
,
0001
0000
0001
0000
,
1000
0000
0000
0000
,
0001
0000
0000
0000
,
1000
0000
0000
0000
,
0010
0000
0000
0000
,
0100
0000
0000
0000
,
0010
0000
0000
0000
,
0100
0000
0000
0000
,
0001
0000
1000
0000
,
0001
0000
0000
0000
,
0010
0000
0000
0000
,
0100
0000
1000
0000
,
0100
0000
0000
0000
,
0010
0000
0000
0000
;

//---------------dance-double - ----------------
#NOTES:
     dance-double:
     :
     Easy:
     3:
     0.123443,0.210625,0.000000,0.099012,0.000000,96.000000,96.000000,0.000000,11.000000,0.000000,0.000000,0.123443,0.210625,0.000000,0.099012,0.000000,96.000000,96.000000,0.000000,11.000000,0.000000,0.000000:
00000000
00000000
00000000
00000000
,
00000000
00000000
00000000
00000000
,
00000000
00000000
00000000
00000000
,
00000000
00000000
00000000
00000000
,
00000010
00000000
00000010
00000000
,
00000100
00000000
00000100
00000000
,
00010000
00000000
00001000
00000000
,
01000000
00000000
01000000
00000000
,
00200000
00000000
00300000
00000000
,
02000000
00000000
03000000
00000000
,
20000000
00000000
30000000
00000000
,
00010000
00000000
00010000
00000000
,
00200000
00000000
00300000
00000000
,
00002000
00000000
00003000
00000000
,
00010000
00000000
00000000
00000000
,
00010000
00000000
00000010
00000000
,
00000100
00000000
00000000
00000000
,
00000000
00000000
00000100
00000000
,
00000100
00000000
00000000
00000000
,
00000001
00000000
00001000
00000000
,
00000001
00000000
00000000
00000000
,
00000100
00000000
00000010
00000000
,
00000000
00000100
00000000
00000000
,
00000010
00000000
00000000
00000000
,
00010000
00000000
00001000
00000000
,
00010000
00000000
00001000
00000000
,
00100000
00000000
00000000
00000000
,
00000000
01000000
00000000
00000000
,
00000000
10000000
00000000
00000000
,
00000000
00010000
00000000
01000000
,
00000000
01000000
00000000
00000000
,
00000000
00001000
00000000
00000000
,
00010000
00000000
00000000
00000000
,
00010000
00000000
00000000
00000000
,
00000020
00000000
00000030
00000000
,
00000200
00000000
00000300
00000000
,
00000002
00000000
00000003
00000000
,
00001000
00000000
00000100
00000000
,
00020000
00000000
00030000
00000000
,
00002000
00000000
00003000
00000000
,
00200000
00000000
00300000
00000000
,
01000000
00000000
01000000
00000000
,
10000000
00000000
00000000
00000000
,
00010000
00000000
00000000
00000000
,
10000000
00000000
00000000
00000000
,
00010000
00000000
00000000
00000000
,
00100000
00000000
00000000
00000000
,
00001000
00000000
00000000
00000000
,
00010000
00000000
00000000
00000000
,
00000010
00000000
00000000
00000000
,
00000100
00000000
00000000
00000000
,
00000001
00000000
00000000
00000000
,
00001000
00000000
00000000
00000000
,
00000100
00000000
00010000
00000000
,
00001000
00000000
00000000
00000000
,
00100000
00000000
00000000
00000000
,
01000000
00000000
00000000
00000000
,
00000000
00000000
00100000
00000000
,
00100000
00000000
00000000
00000000
,
00010000
00000000
00000000
00000000
,
10000000
00000000
00000000
00000000
,
00010000
00000000
01000000
00000000
,
00010000
00000000
00000000
00000000
,
00100000
00000000
00000000
00000000
,
00001000
00000000
00010000
00000000
,
00000100
00000000
00000010
00000000
,
00000001
00000000
00000000
00000000
,
00001000
00000000
00000000
00000000
,
00000010
00000000
00000000
00000000
,
00000100
00000000
00000000
00000100
,
00000100
00000000
00000000
00000000
,
00000010
00000000
00000000
00000000
,
00010000
00000000
00001000
00000000
,
00010000
00000000
00001000
00001000
,
00001000
00000000
00000000
00000000
,
01000000
00000000
00000000
00000000
,
01000000
00000000
00000000
00000000
,
01000000
00000000
00000000
00000000
,
01000000
00000000
00000000
00000000
;

//---------------dance-double - ----------------
#NOTES:
     dance-double:
     :
     Medium:
     11:
     0.429479,0.631875,0.270032,0.450053,0.423050,334.000000,304.000000,30.000000,50.000000,0.000000,0.000000,0.429479,0.631875,0.270032,0.450053,0.423050,334.000000,304.000000,30.000000,50.000000,0.000000,0.000000:
00000000
00000000
00000000
00000000
,
00000000
00000000
00000000
00000000
,
00000000
00000000
00000000
00000000
,
00000000
00000000
00000000
00000000
,
20000000
30000000
02000000
03000000
,
00020000
00030000
00002000
00003000
,
00000020
00000030
00000020
00000030
,
00000100
00000000
00001000
00000000
00000100
00000000
00001000
00000000
00000001
00000000
00001000
00000000
,
00000001
00000000
00000000
00000000
00000000
00000000
00000001
00000000
00000100
00000000
00000010
00000000
00002000
00000000
00000000
00000000
00000000
00000000
00000000
00000000
00000000
00003000
00000000
00000000
,
00001000
00000000
00000000
00000000
00000000
00000000
00001000
00000000
00000100
00000000
00000010
00000000
00000002
00000000
00000000
00000000
00000000
00000000
00000000
00000000
00000000
00000003
00000000
00000000
,
00000100
00000000
00000000
00000010
00010000
00000010
00020000
00000000
00000000
00000000
00000000
00000000
,
00032000
00000000
02003000
00000000
,
03010000
00000000
00000000
00010000
00100000
01000000
20000000
00000000
00000000
00000000
00000000
00000000
,
30010000
00000000
00000000
10000000
01000000
00100000
00020000
00000000
00000000
00000000
00000000
00000000
,
02030000
00000000
03002000
00000000
,
00023000
00000000
00030020
00000000
,
00000130
00000101
00001010
00001100
,
00000010
00000000
00000011
00000000
00002002
00000000
00000000
00003003
,
00001001
00000000
00000000
00000001
00000000
00000000
00000100
00000000
00000000
00000010
00001000
00000010
,
00001000
00000100
00000010
00001000
,
00010000
00001000
00010000
00001000
00000000
00000000
00001000
00100000
00001000
00100000
00000000
00000000
,
01000000
00000000
00000000
11000000
00000000
00000000
10000000
00000000
00100000
00000000
00200000
00000000
,
00000000
00000000
00000000
01300000
00000000
00000000
01010000
00000000
00000000
01000000
00010000
01000000
,
00010000
00000000
00000000
00010000
00100000
00010000
00200000
00000000
00000000
00000000
00000000
00000000
,
00301000
00000000
00000000
00010000
00000000
00000000
00000010
00000000
00000010
00000000
00000010
00000000
,
00000020
00000000
00000000
00000000
00000200
00000000
00000000
00000330
,
00000001
00000101
00000001
00000010
,
00001000
00000000
00000000
00020000
00000000
00000000
00130000
00000000
00000000
10000000
00010000
00000000
,
10000000
11000000
10000000
00100000
,
00010000
00002000
00003010
00000000
,
00000001
00000101
00000001
00000010
,
00001000
00020000
00130000
00000000
,
10000000
00000000
00010000
00000000
10000000
00000000
00010000
00000000
01000000
00000000
00010000
00000000
,
00200000
00000000
00300000
00000000
,
00011000
00000000
00000010
00000000
,
00000100
00000000
00000101
00000000
,
00000001
00000000
00001000
00000000
,
00000100
00000000
00001000
00000000
00000100
00000000
00000010
00000000
00000200
00000000
00000000
00000000
,
00020300
00000000
00031000
00000000
,
01000000
00000000
02200000
03300000
,
20200000
00000000
00000000
30300000
00000000
00000000
10000000
00000000
00010000
00000000
10000000
00000000
,
00010000
00000000
01000000
00000000
00010000
00000000
01000000
00000000
00001000
00000000
01000000
00000000
,
00001000
00001000
00010000
00010000
,
00000100
00000100
00000010
00000010
,
00000001
00001000
00000001
00001000
,
00000010
00000000
00000100
00000000
00002002
00000000
00000000
00003003
,
00001001
00000000
00000000
00000000
00000000
00000000
00000001
00000000
00000100
00000000
00000001
00000000
,
00000100
00000000
00000000
00000000
00000000
00000000
00001000
00000000
00010000
00000000
00001000
00000000
,
00010000
00000000
00000000
00000000
00000000
00000000
01000000
00000000
10000000
00000000
01000000
00000000
,
20000000
00000000
00000000
00000000
00020000
00000000
00000000
30030000
,
10010000
00000000
00000000
00000000
00000000
00000000
10000000
00000000
01000000
00000000
10000000
00000000
,
01000000
00000000
00000000
00000000
00000000
00000000
00010000
00000000
00001000
00000000
00010000
00000000
,
00001000
00000000
00000100
00000000
00000001
00000000
00000100
00000000
00000001
00000000
00001000
00000000
,
00000001
00000000
00000010
00000000
00000100
00000000
00002000
00000000
00000000
00000000
00000000
00000000
,
00003001
00000010
00001000
00010000
,
00100000
10000000
01000000
00010000
,
00001000
00010000
00001000
00010000
00001000
00010000
00001000
00010000
00001000
00010000
00001000
00010000
,
00001000
00000000
00010000
00000000
00022000
00000000
00000000
00033000
,
00011000
00000000
00000000
00010000
00000000
00000000
00000010
00000000
00000100
00000000
00000010
00000000
,
00000100
00000000
00000000
00001001
00000000
00000000
00000100
00000000
00010000
00000000
00001000
00000000
,
01000000
00000000
00000000
00100000
00000000
00000000
10000000
00000000
00010000
00000000
01000000
00000000
,
00100000
00000000
01000000
00000000
00001000
00000000
00020000
00000000
00000000
00030100
00000000
00000000
,
00010100
00000000
00000000
00000200
00000000
00000000
00001300
00000000
00000010
00000000
00000100
00000000
,
00000001
00000000
00000000
00000020
00000000
00000000
00000130
00000000
00001000
00000000
00000010
00000000
,
00000100
00000000
00000010
00000000
00010000
00000000
00001000
00000000
00010000
00000000
00100000
00000000
,
10000000
00000000
00010000
00000000
10000000
00000000
00020000
00000000
00000000
00000000
00000000
00000000
,
01030000
00010000
10100000
01010000
,
10000000
00000000
00000000
01000000
00000000
00000000
00101000
00000000
00000000
00100000
00001000
00100000
,
00001000
00010000
00011000
00010100
,
00000200
00002300
00003020
00000130
,
00000001
00001000
00001010
00000101
,
00000001
00000000
00000010
00000000
00002200
00000000
00000000
00003300
,
00000010
00010000
00001000
00100000
,
02000000
00000000
13000000
10000000
,
01000000
00000000
00010000
00000000
,
00001000
00000000
00000010
00000000
,
00000001
00000000
00001000
00000000
00000001
00000000
00001000
00000000
00000010
00000000
00001000
00000000
,
00000010
00000000
00000100
00000000
00000010
00000000
00000100
00000000
00000001
00000000
00000100
00000000
,
00000001
00000000
00000000
00000000
;

//---------------dance-double - ----------------
#NOTES:
     dance-double:
     :
     Hard:
     12:
     0.506631,0.631875,0.207024,0.270032,0.724586,394.000000,371.000000,23.000000,30.000000,0.000000,0.000000,0.506631,0.631875,0.207024,0.270032,0.724586,394.000000,371.000000,23.000000,30.000000,0.000000,0.000000:
00000000
00000000
00000000
00000000
,
00000000
00000000
00000000
00000000
,
00000000
00000000
00000000
00000000
,
00000000
00000000
00000000
00000000
,
00000001
00000000
00000100
00000000
00000010
00000000
00001000
00000000
00000000
00000000
00000000
00000000
,
00001000
00000000
00000100
00000000
00000010
00000000
00000001
00000000
00000000
00000000
00000000
00000000
,
00000001
00000000
00000100
00000000
00001000
00000000
00010000
00000000
01000000
00000000
10000000
00000000
,
00100000
00000000
01000000
00000000
00100000
00000000
10000000
00000000
00010000
00000000
10000000
00000000
,
00100000
00000000
00000000
10000000
01000000
00100000
00010000
00000000
10000000
00000000
00010000
00000000
,
10000000
00000000
00000000
00010000
00100000
01000000
10000000
00000000
00010000
00000000
10000000
00000000
,
00010000
00000000
00000000
10000000
01000000
10000000
01000000
00000000
00010000
00000000
00001000
00000000
,
00000200
00000000
00000302
00000000
,
00001003
00000000
00000000
00000001
00000010
00000100
00001000
00000000
00000001
00000000
00001000
00000000
,
00000001
00000000
00000000
00001000
00000100
00000010
00000001
00000000
00001000
00000000
00000001
00000000
,
00001000
00000000
00000100
00000000
00010000
00000000
00001000
00000000
00100000
00000000
00010000
00000000
,
01000000
00000000
00100000
00000000
10000000
00000000
00020000
00000000
00000000
00000000
00000000
00000000
,
01030000
01000000
01000000
01000000
,
00100000
00000000
10000000
00000000
20020000
00000000
00000000
30030000
,
11000000
00000000
00000000
00100000
00000000
00000000
00010000
00000000
00000000
10000000
00010000
10000000
,
00010000
00000000
00000000
01000000
00001000
01000000
00001000
00000000
00000000
00010000
00000000
00010000
,
00000100
00001000
00000100
00001000
00000000
00000000
00000010
00000100
00000010
00000100
00000000
00000000
,
00000001
00000000
00000000
00000101
00000000
00000000
00001000
00000000
00000010
00000000
00000020
00000000
,
00000000
00000030
00000000
00000110
00000000
00000000
00001001
00000000
00000000
00001000
00000100
00001000
,
00000100
00000000
00000000
00000100
00010000
00000100
00010000
00000000
00001000
00000000
00000000
00000000
,
01000000
00000000
00000000
00100000
00000000
00000000
10000000
00000000
10000000
00000000
10000000
00000000
,
00020000
00000000
02030000
00000000
,
03100000
11000000
00100000
11000000
,
00100000
00000000
00000000
01010000
00000000
00000000
00100000
00000000
00000000
00001000
00010000
00000000
,
00000100
00001010
00000100
00001010
,
00000100
00000011
00000100
00000000
,
00000001
00001100
00000001
00001100
,
00000010
00011000
00100000
00000000
,
01000000
00000000
10000000
00000000
01000000
00000000
00100000
00000000
00010000
00000000
01000000
00000000
,
00200000
00000000
20300000
00000000
,
30020000
00000000
00000000
00030000
00010000
10000000
00010000
00000000
01000000
00000000
00100000
00000000
,
01000000
00000000
00100000
00000000
00010000
00000000
00002000
00000000
00000000
00003000
00000000
00000000
,
00000020
00000000
00000000
00000030
00000001
00001000
00000001
00000000
00000100
00000000
00000010
00000000
,
00001000
00000000
00000100
00000000
00000010
00000000
00000002
00000000
00000000
00000000
00000000
00000000
,
00000203
00000000
00000000
00000300
00000100
00000010
00001000
00000000
00000100
00000000
00010000
00000000
,
00001000
00000000
00100000
00000000
01000000
00000000
10000000
00000000
00100000
00000000
01000000
00000000
,
00020000
00000000
00000000
00000000
00000000
00000000
10030000
00000000
00010000
00000000
01000000
00000000
,
00100000
00000000
00100000
00000000
10000000
00000000
00010000
00000000
00010000
00000000
01000000
00000000
,
00001000
00010000
00001100
00000010
,
00000001
00000100
00001010
00000100
,
00010000
00001000
01010000
00100000
,
10000000
00010000
01000000
00000000
,
00200000
00000000
00000000
00000000
00000000
00000000
10300000
00000000
00010000
00000000
01000000
00000000
,
00200000
00000000
00000000
00000000
00000000
00000000
00310000
00000000
00001000
00000000
00000010
00000000
,
00000002
00000000
00000000
00000000
00000000
00000000
00000103
00000000
00000010
00000000
00001000
00000000
,
00000001
00000000
00000100
00000000
00001000
00000000
00020000
00000000
00000000
00000000
00000000
00000000
,
00230000
00000000
00000000
00000000
00000000
00000000
10300000
00000000
00010000
00000000
01000000
00000000
,
00200000
00000000
00000000
00000000
00000000
00000000
10300000
00000000
01000000
00000000
00010000
00000000
,
00001000
00000000
00000010
00000000
00001000
00000000
00000010
00000000
00000001
00000000
00000010
00000000
,
00000001
00000000
00000100
00000000
00000001
00000000
00000020
00000000
00000000
00000000
00000000
00000000
,
00000130
00000100
00000100
00000100
,
00010000
00001000
00010000
00001000
,
01000000
00100000
01000000
00100000
01000000
00100000
01000000
00100000
01000000
00100000
01000000
00100000
,
01000000
00000000
00100000
00000000
20020000
00000000
00000000
30030000
,
01010000
00000000
00000000
10000000
00100000
01000000
00010000
00000000
00100000
00000000
00010000
00000000
,
00200000
00000000
00000000
00301000
00010000
00001000
00010000
00000000
00000100
00000000
00001000
00000000
,
00000010
00000000
00000000
00000010
00000100
00000001
00001000
00000000
00000100
00000000
00000010
00000000
,
00000001
00000000
00000100
00000000
00000010
00000000
00002000
00000000
00000000
00000000
00000000
00000000
,
00003010
00000000
00000000
00010000
00001000
00010000
00001000
00000000
01000000
00000000
00100000
00000000
,
20000000
00000000
00000000
30100000
01000000
00100000
01000000
00000000
00010000
00000000
10000000
00000000
,
00100000
00000000
10000000
00000000
00010000
00000000
01000000
00000000
00100000
00000000
01000000
00000000
,
00010000
00000000
00100000
00000000
00002000
00000000
00020000
00000000
00000000
00033000
00000000
00000000
,
00011000
00000000
00000000
00000100
00000000
00000000
00000010
00000000
00000000
00000001
00000000
00000100
,
00001000
00000000
00000000
00010000
00000000
00000000
00100000
00000000
00000000
10000000
01000000
10000000
,
01000000
00000000
00000000
00100000
00000000
00000000
00010000
00000000
00000000
01000000
00000000
01000000
,
00001000
00010000
00001100
00000010
,
00000001
00000000
00000001
00001000
00000000
00001000
00000001
00000000
00000010
00000100
00000000
00001000
,
00000001
00000000
00000000
00000100
00000000
00000000
00001000
00000000
00010000
00000000
00100000
00000000
,
10000000
00010000
01000000
00100000
,
11000000
00000000
00010000
00010000
,
01010000
00000000
00100000
00000000
,
00010000
00000000
00001000
00000000
00000010
00000000
00000001
00000000
00000000
00000000
00000000
00000000
,
00001000
00000000
00000001
00000000
00000100
00000000
00000010
00000000
00000100
00000000
00001000
00000000
,
00010000
00000000
00100000
00000000
10000000
00000000
00010000
00000000
01000000
00000000
00100000
00000000
,
10000000
00000000
00000000
00000000
;

//---------------dance-double - ----------------
#NOTES:
     dance-double:
     :
     Challenge:
     15:
     0.720085,0.807395,0.387046,0.261031,1.332157,560.000000,517.000000,43.000000,29.000000,0.000000,0.000000,0.720085,0.807395,0.387046,0.261031,1.332157,560.000000,517.000000,43.000000,29.000000,0.000000,0.000000:
00000000
00000000
00000000
00000000
,
00000000
00000000
00000000
00000000
,
00000000
00000000
00000000
00000000
,
00000000
00000000
00000000
00000000
,
10000000
00000000
01000000
00000000
00100000
00010000
00100000
00000000
00000000
00000000
00000000
00000000
,
00010000
00000000
01000000
00000000
00100000
00010000
00001000
00000000
00000000
00000000
00000000
00000000
,
00000010
00000000
00000001
00000000
00000010
00000000
00000001
00000000
00001000
00000000
00000001
00000000
,
00001000
00000000
00000100
00000000
00000010
00000001
00001000
00000000
00000010
00000000
00000100
00000000
,
00000010
00000000
00000010
00000100
00000001
00001000
00000010
00000000
00001000
00000000
00000001
00000000
,
00000100
00000000
00001000
00010000
01000000
10000000
00100000
00000000
01000000
00000000
00100000
00000000
,
10000000
00000000
10000000
00010000
01000000
00100000
01000000
00000000
01000000
00000000
00010000
00000000
,
00100000
00000000
00100000
00000000
01000000
00000000
20000000
00000000
00000000
00000000
00000000
00000000
,
30010000
00000000
00010000
01000000
00100000
10000000
01000000
00000000
10000000
00000000
01000000
00000000
,
00100000
00000000
01000000
00010000
00001000
00000100
00000001
00000000
00001000
00000000
00000001
00000000
,
00001000
00000000
00000100
00000000
00000010
00000000
00000010
00000000
00000001
00000000
00001000
00000000
,
00000010
00000000
00000100
00000000
00001000
00000000
00020000
00000000
00000000
00000000
00000000
00000000
,
00130000
00000000
00000000
10000000
00000000
00000000
10100000
00000000
00000000
10010000
00000000
00010000
,
01000000
00000000
00100000
00000000
10000000
00000000
01000000
00000000
00100000
00000000
00010000
00000000
02000000
00000000
00000000
00000000
00000000
00000000
00000000
00000000
00000000
03000000
00000000
00000000
,
20100000
00000000
00000000
00010000
00000000
00000000
30100000
00000000
00000000
10000000
01000000
00010000
,
00001000
00000000
00000000
00010000
00001000
00000100
00000001
00000000
00000000
00001000
00000000
00001000
,
00000001
00000100
00000010
00001000
00000000
00000000
00001000
00000010
00000100
00000001
00000000
00000000
,
00000012
00000000
00000000
00001003
00000000
00000000
00001001
00000000
00000101
00000000
00020020
00000000
,
00000000
00030030
00000000
00010100
00000000
00000000
00011000
00000000
00000000
00100000
01000000
10000000
,
00010000
00000000
00000000
10000000
01000000
00100000
00010000
00000000
01010000
00000000
00000000
00000000
,
10000000
00100000
01000000
00010000
00000000
00000000
10010000
00000000
11000000
00000000
00101000
00000000
,
00021000
00000000
00000000
00000000
00000000
00000000
00030020
00000000
00000000
00000130
00000001
00000100
,
00000001
00000010
00000001
00000100
00000001
00000010
00000001
00000100
00000001
00000010
00000000
00000000
,
00000100
00010000
00001000
00010000
00000100
00010000
00001000
00010000
00000100
00010000
00001000
00000000
,
01000000
00010000
01000000
00100000
01000000
00010000
01000000
00100000
01000000
00010000
00000000
00000000
,
10000000
00100000
10000000
01000000
10000000
00100000
10000000
01000000
10000000
00100000
00010000
00001000
,
00000010
00000100
00000010
00000001
00000010
00000100
00000010
00000001
00000010
00000100
00000000
00000000
,
00001000
00000000
00000010
00000000
00001000
00000000
00000100
00000000
00001000
00000000
00000010
00000000
00002000
00000000
00000000
00000000
00000000
00000000
00000000
00000000
00000000
00003000
00000001
00001000
,
00000001
00000000
00000000
00000000
00001000
00000000
00000000
00000000
00000001
00000000
00000010
00000100
00000010
00000000
00000000
00000000
00000100
00000000
00000000
00000000
00002000
00000000
00000000
00000000
,
00000002
00000000
00000000
00000000
00000000
00000000
00000000
00000000
00000000
00003003
00000000
00000000
00000001
00000000
00001000
00000000
00000001
00000000
00001000
00000000
00000001
00000000
00001000
00000000
,
00000002
00000000
00000000
00000003
00000100
00001000
00010000
00000000
00100000
00000000
00100000
00000000
,
10000000
00000000
10000000
00000000
00010000
00000000
00010000
00000000
01000000
00000000
00010000
01000000
,
00200000
00000000
00000000
00300000
00010000
00001000
00000010
00000000
00000001
00000000
00001000
00000000
,
00001010
00000000
00000100
00000000
00000001
00001000
00000100
00000000
00001000
00000000
00000010
00000100
,
00002000
00000000
00000000
00003000
00010000
01000000
10000000
00000000
00100000
00000000
01000000
00000000
,
01010000
00000000
10000000
00000000
00010000
00000000
01100000
00000000
00100000
00000000
10000000
00000000
,
20200000
00000000
00000000
30300000
00000000
00000000
10010000
00000000
01010000
00000000
10100000
00000000
,
10000000
00000000
00100000
00000000
00010000
00000000
00001000
00000000
00000100
00000000
00000001
00000100
,
00000001
00001000
00000001
00001000
,
00010000
00001000
00010000
00001000
,
00010000
10000000
00010000
10000000
,
00100000
00000000
01000000
00000000
02200000
00000000
00000000
03300000
,
10010000
00000000
00010000
01000000
00100000
10000000
01000000
00000000
00100000
00000000
00010000
00000000
,
10010000
00000000
10000000
01000000
00100000
00010000
01000000
00000000
00100000
00000000
10000000
00000000
,
10010000
00000000
10000000
01000000
00010000
00001000
00000100
00000000
00000001
00000000
00000100
00000000
,
00000001
00000000
00000000
00000000
00000010
00000000
00000000
00000000
00000001
00000000
00000000
00000000
00000022
00000000
00000000
00000000
00000000
00000000
00000000
00000000
00000000
00000033
00000000
00000000
,
00001001
00000000
00001000
00000100
00000010
00000001
00000100
00000000
00000010
00000000
00001000
00000000
,
00001001
00000000
00000001
00000010
00000100
00001000
00000010
00000000
00000100
00000000
00000001
00000000
,
00000100
00000000
00001000
00000000
00010000
00000000
00100000
00000000
10000000
00000000
00010000
00000000
,
01000000
00000000
00000000
00000000
00100000
00000000
00000000
00000000
01000000
00000000
00000000
00000000
20020000
00000000
00000000
00000000
00000000
00000000
00000000
00000000
00000000
30030000
00000000
00000000
,
10000000
00010000
10000000
00010000
,
00001000
00010000
00001000
00010000
,
00001000
00000001
00001000
00000001
00001000
00000001
00001000
00000001
00001000
00000001
00001000
00000001
,
00000100
00000000
00000010
00000000
00001000
00000000
00000001
00000000
00000100
00000000
00000010
00000000
00000200
00000000
00000000
00000000
00000000
00000000
00000000
00000000
00000000
00000300
00000000
00000000
,
00000101
00000000
00000001
00000100
00000010
00001000
00000100
00000000
00000010
00000000
00000001
00000000
,
00001001
00000000
00001000
00000010
00000100
00001000
00010000
00000000
01000000
00000000
10000000
00000000
,
10100000
00000000
10000000
00100000
01000000
00010000
00100000
00000000
01000000
00000000
10000000
00000000
,
10100000
00000000
00000000
00000000
01010000
00000000
00000000
00000000
10100000
00000000
00000000
00000000
01020000
00000000
00000000
00000000
00000000
00000000
10000000
00000000
00000000
00030000
00000000
00000000
,
11000000
00000000
10000000
01000000
00100000
00010000
01000000
00000000
00100000
00000000
10000000
00000000
,
11000000
00000000
10000000
01000000
00010000
00001000
00000100
00000000
00000001
00000000
00001000
00000010
,
00000100
00000000
00000001
00000000
00000010
00000000
00001100
00000000
00000010
00000000
00000001
00000000
,
00001001
00000000
00000000
00000000
00001100
00000000
00000000
00000000
00010100
00000000
00000000
00000000
00022000
00000000
00000000
00000000
00000000
00000000
00000000
00000000
00000000
00033000
00000000
00000000
,
00100000
00000000
00100000
00010000
00000000
00010000
01000000
00000000
00100000
10000000
00000000
00100000
,
10000000
00000000
01000000
00010000
00000000
00001000
00000100
00000000
00000010
00000100
00000010
00000100
,
00000010
00000000
00001000
00000001
00000000
00000100
00000010
00000000
00001000
00000001
00000000
00000100
,
00001000
00010000
00001000
00010000
01000000
00010000
01000000
10000000
01000000
20000000
00000000
00000000
,
30010000
00000000
00010000
01000000
00000000
01000000
00100000
00000000
10000000
01000000
00000000
10000000
,
01000000
00000000
00010000
00001000
00000000
00000010
00000001
00000000
00001000
00000000
00000010
00000000
,
00000100
00000001
00000100
00000010
00000100
00001000
00000100
00000010
00000100
00000001
00000100
00000010
,
00002000
00000000
00000000
00000000
00000000
00000000
00003000
00000000
00000000
00000000
00000100
00010000
00000100
00000000
00000000
00000000
00010000
00001000
00010000
00000000
00000000
00000000
00001000
01000000
,
00001000
00000000
01000000
00000000
00100000
10000000
00100000
00000000
00000000
00000000
00000000
00000000
,
10000000
00000000
01000000
00000000
00100000
00010000
00100000
00000000
00000000
00000000
00000000
00000000
,
00010000
00000000
01000000
00000000
00100000
00000000
00010000
00000000
00001000
00000000
00000010
00000000
,
00000001
00000010
00001000
00000010
00000001
00000100
00001000
00010000
01000000
10000000
00100000
00010000
,
00100000
00000000
00000000
00000000
;
