#TITLE:Affection;
#SUBTITLE:;
#ARTIST:ni-21;
#TITLETRANSLIT:;
#SUBTITLETRANSLIT:;
#ARTISTTRANSLIT:;
#GENRE:Trance;
#CREDIT:;
#BANNER:affection-bn.png;
#BACKGROUND:affection-bg.png;
#LYRICSPATH:;
#CDTITLE:;
#MUSIC:Affection.ogg;
#OFFSET:0.010000;
#SAMPLESTART:70.340004;
#SAMPLELENGTH:13.000004;
#SELECTABLE:YES;
#BPMS:0.000000=150.000000
;
#STOPS:
;
#BGCHANGES:;
#KEYSOUNDS:;
#ATTACKS:;

//---------------dance-single - ----------------
#NOTES:
     dance-single:
     :
     Hard:
     11:
     0.491456,0.525778,0.309927,0.113640,0.092978,333.000000,303.000000,30.000000,11.000000,0.000000,0.000000,0.491456,0.525778,0.309927,0.113640,0.092978,333.000000,303.000000,30.000000,11.000000,0.000000,0.000000:
0000
0000
0000
0000
,
0000
0000
0000
0000
,
0000
0000
0000
0000
,
0000
0000
0000
0000
,
1000
0100
0001
1001
,
0001
0100
1000
1001
,
1000
0010
0001
1001
,
0001
0000
0010
1000
0000
0000
0001
0000
,
1000
0000
0100
0010
0000
1000
0000
0000
,
0010
0000
0001
0100
0000
0010
0000
0000
,
0001
0000
0010
1000
0000
0001
0000
0000
,
0001
1000
0001
1000
0001
0000
0000
0000
0010
0000
0100
0000
1100
0000
0000
0000
,
1000
0000
0010
0100
0000
0110
0000
0100
,
0001
0000
0010
0100
0000
0110
0000
0100
,
1000
0000
0001
0010
0000
0011
0000
0001
,
1000
0000
0100
1000
0000
1100
0000
0010
,
0001
0000
0100
0001
0000
0101
0000
0100
,
0010
0000
0010
1000
0000
1010
0000
1000
,
0001
0000
0001
0100
0000
0110
0000
0100
,
0001
0000
0001
1000
0000
1001
0000
0000
,
0001
0100
0010
0200
0000
0301
0000
0001
,
1000
0100
0010
0200
0000
1300
0000
0010
,
1000
0001
1000
0200
0000
0310
0000
0001
,
0100
0010
1000
0020
0000
0130
0000
0001
,
0010
0100
1000
0200
0000
0310
0000
0100
,
1000
0010
0100
0002
0000
0013
0000
0100
,
0010
0001
1000
0200
0000
1300
0000
0001
,
1000
0000
0010
0010
0000
0000
0000
0000
,
1000
0100
1000
0100
0000
0010
0001
1000
,
0001
0100
0001
0100
0000
0010
1000
0001
,
1000
0010
1000
0010
0000
0100
0001
1000
,
0001
0010
0001
0010
0000
0100
1000
0001
,
1000
0010
0100
0001
0000
0001
0100
0010
,
0100
0001
1000
0010
0000
0010
1000
0001
,
0010
0001
1000
0100
0000
0100
1000
0001
,
0100
0010
1000
0001
0100
0001
1001
0000
,
0001
0000
0000
0000
0100
0000
0000
0000
0010
0000
0000
0100
0000
0000
0001
0000
,
1000
0000
0100
0000
0010
0100
0000
0000
,
1000
0000
0000
0000
0010
0000
0000
0000
0100
0000
0000
0010
0000
0000
1000
0000
,
0001
0100
0000
0000
1000
0000
0100
0000
,
0001
0000
0000
0000
0010
0000
0000
0000
1000
0000
0000
0010
0000
0000
0001
0000
,
0100
0010
0000
0000
0020
0000
0230
0000
,
0301
0000
0000
0100
0000
0000
0010
0000
1000
0000
0001
0000
1000
0001
1000
0000
,
0100
0010
0000
0000
0001
0000
1000
0000
,
0010
0000
1000
0100
0000
1100
0000
0010
,
0001
0000
0001
0100
0000
0101
0000
0010
,
1000
0000
1000
0001
0000
1001
0000
0010
,
0100
0000
0100
1000
0000
2200
0000
3300
,
1000
0000
0001
0010
0000
0011
0000
0100
,
1000
0000
1000
0010
0000
1010
0000
0100
,
0001
0000
1000
0100
0000
0110
0000
0010
,
0001
0100
0001
1000
0010
1000
0100
0000
,
0010
0001
0000
0101
0000
1001
0000
0101
,
0000
0010
0000
1010
0000
1001
0000
1010
,
0000
0100
0000
0110
0000
0101
0000
0110
,
0000
0010
0000
1010
0000
1000
0001
0000
,
0000
0000
0100
0010
0000
0000
0100
0001
0000
0000
0100
0010
0000
0000
0100
1000
,
0000
0000
0100
0010
0000
0000
0100
0001
0000
0000
0100
0010
0000
0000
0100
0001
,
0000
0000
0100
0010
0000
0000
0100
1000
0000
0000
0100
0010
0000
0000
0001
0000
,
1000
0010
0100
0000
0100
0010
1000
0001
;

//---------------dance-single - ----------------
#NOTES:
     dance-single:
     :
     Medium:
     8:
     0.399953,0.463922,0.196287,0.123971,0.020662,271.000000,252.000000,19.000000,12.000000,0.000000,0.000000,0.399953,0.463922,0.196287,0.123971,0.020662,271.000000,252.000000,19.000000,12.000000,0.000000,0.000000:
0000
0000
0000
0000
,
0000
0000
0000
0000
,
0000
0000
0000
0000
,
0000
0000
0000
0000
,
1000
0100
1000
1100
,
0001
0100
0001
0101
,
1000
0010
1000
1010
,
0001
0000
0010
0000
0001
1000
0000
0000
,
0001
0100
0010
0000
1000
0000
0000
0000
,
1000
0100
0010
0000
0001
0000
0000
0000
,
0001
1000
0010
0000
0100
0000
0000
0000
,
0010
1000
0010
0000
0100
0010
0110
0000
,
0001
0000
0010
0100
0000
0010
0000
0001
,
1000
0000
0100
0010
0000
0100
0000
1000
,
0010
0000
0100
0001
0000
0100
0000
0010
,
1000
0000
0001
1000
0000
0100
0000
1000
,
0010
0000
0100
0001
0000
0010
0000
0001
,
0100
0000
0010
1000
0000
0100
0000
1000
,
0010
0000
0100
0001
0000
1000
0000
0100
,
1000
0000
0001
0010
0000
0001
0000
0000
,
0100
0000
0001
1000
0000
1100
0000
0000
,
1000
0000
0001
0100
0000
0101
0000
0000
,
0010
0000
1000
0010
0000
1010
0000
0000
,
0001
0000
0010
0001
0000
0011
0000
0001
,
1000
0000
0010
1000
0000
1100
0000
0000
,
0010
0000
0001
0100
0000
0101
0000
0000
,
0001
0000
0010
0100
0000
1100
0000
0000
,
1000
0000
0100
0010
0000
0000
0000
0000
,
0001
0000
0010
0100
0000
1000
0001
0000
,
0100
0000
0010
1000
0000
0001
0100
0000
,
0010
0000
1000
0100
0000
0010
0001
0000
,
0100
0000
0001
1000
0000
0010
0100
0000
,
0010
0000
1000
0100
1000
0000
0010
0000
,
0100
0000
0001
0010
0001
0000
0100
0000
,
0001
0000
0100
0010
0100
0000
0001
0000
,
1000
0100
0010
0000
0000
0000
0010
0000
,
1000
0000
0000
0000
0001
0000
0000
0000
1000
0000
0000
0001
0000
0000
1000
0000
,
0001
0000
0010
0000
0001
0010
0000
0000
,
0010
0000
0000
0000
0100
0000
0000
0000
0010
0000
0000
0100
0000
0000
0010
0000
,
0100
1000
0000
0000
0001
0000
0001
0000
,
1000
0000
0000
0000
0100
0000
0000
0000
1000
0000
0000
0100
0000
0000
1000
0000
,
0100
0010
0100
0100
,
0010
0000
0000
0001
0000
0000
0010
0000
0001
0000
0000
0000
0010
0000
0000
0000
,
0100
1000
0000
0000
0001
0000
0001
0000
,
1000
0000
0100
0010
0000
0010
0000
0001
,
0100
0000
0100
0010
0000
0010
0000
1000
,
0100
0000
0010
0001
0000
0001
0000
0100
,
0010
0000
0100
0001
0000
0001
0000
0000
,
0010
0000
0100
1000
0000
1000
0000
0010
,
0100
0000
0100
0001
0000
0001
0000
0010
,
0001
0000
0001
1000
0000
1000
0000
0010
,
0100
0000
0100
0001
0000
0001
0000
0000
,
0000
2000
0000
3200
0000
0302
0000
0103
,
0000
2000
0000
3020
0000
0032
0000
0013
,
0000
1000
0000
1100
0000
0110
0000
0011
,
0000
0001
0000
0101
0000
0001
1000
0000
,
0000
0002
0000
0203
0000
2300
0000
3100
,
0000
0002
0000
0023
0000
2030
0000
3010
,
0000
0101
0000
1010
0000
0101
0000
1001
,
0000
0010
0100
0000
0100
0001
1000
0001
;

//---------------dance-double - ----------------
#NOTES:
     dance-double:
     :
     Hard:
     11:
     0.513593,0.556706,0.299596,0.092978,0.051654,348.000000,319.000000,29.000000,9.000000,0.000000,0.000000,0.513593,0.556706,0.299596,0.092978,0.051654,348.000000,319.000000,29.000000,9.000000,0.000000,0.000000:
00000000
00000000
00000000
00000000
,
00000000
00000000
00000000
00000000
,
00000000
00000000
00000000
00000000
,
00000000
00000000
00000000
00000000
,
00000001
00000001
00000100
00001000
,
00010000
00010000
00100000
10000000
,
01000000
01000000
00010000
00001000
,
00000010
00000000
00000010
00000000
00001000
00010000
01000000
10000000
,
00100000
00000000
01000000
00001000
00000000
01100000
00000000
00000000
,
00001000
00000000
00010000
00000100
00000000
00000110
00000000
00000000
,
00000001
00000000
00001000
00000100
00000000
00011000
00000000
00000000
,
01000000
00100000
00010000
00001000
00000100
00000000
00011000
00000000
,
00000010
00000000
00000100
00002000
00000000
00013000
00000000
00100000
,
00100000
00000000
10000000
02000000
00000000
03010000
00000000
00001000
,
00001000
00000000
00000100
00000020
00000000
00001030
00000000
00000100
,
00000100
00000000
00000001
00000200
00000000
00001300
00000000
00000010
,
00010000
00000000
01000000
20000000
00000000
30100000
00000000
00010000
,
00010000
00000000
00001000
00000200
00000000
00000301
00000000
00000010
,
00000010
00000000
00001000
00020000
00000000
00130000
00000000
10000000
,
02000000
00000000
03010000
00001000
00000000
00001100
00000000
00000000
,
00000100
00000001
00000010
00000001
00000000
00001000
00000000
00000010
,
00000100
00001000
00010000
00100000
00000000
11000000
00000000
00100000
,
00001000
00010000
00001000
00100000
00000000
01000000
00000000
00100000
,
00010000
01000000
00100000
10000000
00000000
10010000
00000000
01000000
,
00100000
00000000
00010000
00001000
00000100
00000001
00000000
00001000
,
00000001
00000100
00000010
00000100
00000000
00000110
00000000
00001000
,
00010000
01000000
10000000
01000000
00000000
00100000
00000000
00010000
,
10000000
00000000
00100000
01000000
00000000
00000000
00000000
00000000
,
10010000
00000000
01000000
00010000
00001000
00000100
00000001
00000001
,
00000001
00000000
00000100
00001000
00010000
01000000
10000000
10000000
,
10000000
00000000
00100000
00010000
00001000
00000010
00000001
00000001
,
00000001
00000000
00000010
00001000
00010000
00100000
10000000
10000000
,
10000000
00000000
01000000
00100000
01000000
00010000
00001000
00000010
,
00000001
00000000
00000010
00000100
00000010
00001000
00010000
01000000
,
10000000
00010000
10000000
00010000
01000000
00100000
01000000
00100000
,
00010000
00001000
00000100
00000001
00001001
00000000
00000110
00000000
,
00000001
00000000
00000000
00000000
00000110
00000000
00000000
00000000
00000001
00000000
00000000
00000100
00000000
00000000
00001000
00000000
,
00010000
00000000
01100000
00000000
10000000
00010000
00000000
00000000
,
10000000
00000000
00000000
00000000
01100000
00000000
00000000
00000000
10000000
00000000
00000000
00100000
00000000
00000000
00010000
00000000
,
00001000
00000100
00000000
00000000
00001001
00000000
00000110
00000000
,
00000001
00000000
00000000
00000100
00000010
00000000
00000000
00000010
00010000
00000000
00000000
00001000
00000000
00000000
01000000
00000000
,
00100000
00000000
00000000
10000000
00010000
00000000
00000000
00000000
01010000
00000000
00000000
00000000
10100000
00000000
00000000
00000000
,
10000000
00000000
00000000
01000000
00000000
00000000
00010000
00000000
01000000
00000000
10000000
00000000
00010000
00100000
00010000
00100000
,
00010000
01000000
00000000
00000000
00011000
00000000
00010100
00000000
,
00010000
00000000
00000010
00000100
00000000
00000110
00000000
00000010
,
00001000
00000000
00001000
00000001
00000000
00001001
00000000
00000001
,
00000100
00000000
00000100
00001000
00000000
00011000
00000000
00010000
,
01000000
00000000
01000000
10000000
00000000
10100000
00000000
00000000
,
01100000
00000000
01000000
00010000
00000000
01010000
00000000
00010000
,
00100000
00000000
00100000
00001000
00000000
00101000
00000000
00001000
,
00000100
00000000
00000100
00000001
00000000
00001001
00000000
00000001
,
00000010
00000000
00000010
00001000
00000000
00011000
00000000
00000000
,
00010000
01000000
10000000
00010000
10000000
00010000
10000000
01000000
,
00000000
01000000
10000000
00100000
00010000
00001000
00000010
00000001
,
00000100
00000010
00001000
00000001
00001000
00000001
00000010
00000100
,
00000000
00000100
00000010
00000001
00000100
00001000
00010000
00000000
,
01000000
10000000
00100000
10000000
01000000
00010000
00001000
00010000
,
00000010
00000100
00000001
00000100
00000010
00010000
00001000
00010000
,
00100000
10000000
00010000
10000000
01000000
00010000
00001000
00000100
,
00000001
00000000
00001000
00000000
00000001
00000000
00001000
00000000
00000010
00001000
00000010
00000000
00000020
00000000
00000130
00000000
;

//---------------dance-single - ----------------
#NOTES:
     dance-single:
     :
     Beginner:
     3:
     0.160867,0.246909,0.072316,0.000000,0.000000,109.000000,102.000000,7.000000,0.000000,0.000000,0.000000,0.160867,0.246909,0.072316,0.000000,0.000000,109.000000,102.000000,7.000000,0.000000,0.000000,0.000000:
// measure 0
0000
0000
0000
0000
,  // measure 1
0000
0000
0000
0000
,  // measure 2
0000
0000
0000
0000
,  // measure 3
0000
0000
0000
0000
,  // measure 4
1000
1000
1000
1000
,  // measure 5
1000
1000
1000
0000
,  // measure 6
0001
0001
0001
0001
,  // measure 7
0001
0001
0001
0000
,  // measure 8
0100
0100
0100
0100
,  // measure 9
0100
0100
0100
0000
,  // measure 10
0010
0010
0010
0010
,  // measure 11
0010
0000
0100
0000
,  // measure 12
1000
0000
0000
0000
,  // measure 13
0100
0000
0000
0000
,  // measure 14
0001
0000
0000
0000
,  // measure 15
0100
0000
0000
0000
,  // measure 16
1001
0000
0000
0000
,  // measure 17
0010
0000
0000
0000
,  // measure 18
0001
0000
0000
0000
,  // measure 19
0010
0000
0000
0000
,  // measure 20
1001
0000
0000
0000
,  // measure 21
0010
0000
0000
0000
,  // measure 22
1000
0000
0000
0000
,  // measure 23
0100
0000
0000
0000
,  // measure 24
0110
0000
0000
0000
,  // measure 25
0001
0000
0000
0000
,  // measure 26
0010
0000
0000
0000
,  // measure 27
0100
0000
0000
0000
,  // measure 28
1000
1000
0000
0000
,  // measure 29
0001
0001
0000
0000
,  // measure 30
1000
1000
0000
0000
,  // measure 31
0001
0001
0000
0000
,  // measure 32
0100
0000
0100
0000
,  // measure 33
0010
0000
0010
0000
,  // measure 34
0100
0000
0100
0000
,  // measure 35
0010
0010
0010
0000
,  // measure 36
1000
0000
1000
0000
,  // measure 37
0100
0000
1000
0000
,  // measure 38
0001
0000
0001
0000
,  // measure 39
0100
0000
1001
0000
,  // measure 40
0010
0000
0010
0000
,  // measure 41
1000
0000
1001
0000
,  // measure 42
0100
0000
0010
0000
,  // measure 43
0100
0000
1000
0000
,  // measure 44
1000
0000
0000
0000
,  // measure 45
0010
0000
0000
0000
,  // measure 46
0100
0000
0000
0000
,  // measure 47
0001
0000
0000
0000
,  // measure 48
0110
0000
0000
0000
,  // measure 49
0100
0000
0000
0000
,  // measure 50
1000
0000
0000
0000
,  // measure 51
0001
0000
1001
0000
,  // measure 52
1000
0000
1000
0000
,  // measure 53
0001
0000
0001
0000
,  // measure 54
1000
0000
1000
0000
,  // measure 55
0001
0000
0001
0000
,  // measure 56
0100
0000
0100
0000
,  // measure 57
0010
0000
0010
0000
,  // measure 58
0100
0000
0100
0000
,  // measure 59
0010
0000
0010
0010
;

//---------------dance-single - ----------------
#NOTES:
     dance-single:
     :
     Easy:
     6:
     0.283362,0.309281,0.000000,0.103309,0.000000,192.000000,192.000000,0.000000,10.000000,0.000000,0.000000,0.283362,0.309281,0.000000,0.103309,0.000000,192.000000,192.000000,0.000000,10.000000,0.000000,0.000000:
0000
0000
0000
0000
,
0000
0000
0000
0000
,
0000
0000
0000
0000
,
0000
0000
0000
0000
,
1000
1000
1000
1000
,
1000
1000
1000
1000
,
0010
0010
0010
0010
,
0010
0010
0010
0010
,
0100
0100
0100
0100
,
0100
0100
0100
0100
,
0001
0001
0001
0001
,
0002
0000
0103
0000
0010
1000
0010
0000
,
1000
0000
0000
0100
0000
0010
0000
0000
,
0001
0000
0000
1000
0000
0010
0000
0000
,
0100
0000
0000
0010
0000
0100
0000
0000
,
0001
0000
0000
0100
0000
0000
0000
0001
,
1000
0000
0000
0100
0000
0010
0000
0000
,
0100
0000
0000
0010
0000
0001
0000
0000
,
0010
0000
0000
0100
0000
1000
0000
0000
,
0001
0000
0000
0100
0000
0001
0000
0000
,
0010
0000
0000
0001
0000
0001
0000
0000
,
0100
0000
0000
0010
0000
0010
0000
0000
,
1000
0000
0000
0100
0000
0100
0000
0000
,
0010
0000
0000
0100
0000
0100
0000
0010
,
0001
0000
0000
1000
0000
1000
0000
0000
,
0001
0000
0000
0100
0000
0100
0000
0000
,
0010
0000
0000
0001
0000
0001
0000
0000
,
0010
0000
0000
1000
0000
0000
0000
0000
,
2000
0000
3010
0100
,
0002
0000
0013
0100
,
2000
0000
3001
0010
,
0002
0000
1003
0100
,
1000
0010
0100
0001
,
0100
0010
1000
0001
,
0010
0010
0001
0001
,
0100
0010
0200
0301
,
1000
0100
0002
0003
,
0001
0100
1000
0000
,
0001
0100
2000
3000
,
1000
0000
0100
0001
,
1000
0010
0200
0000
,
0301
0000
0010
0010
,
0100
1000
0002
0000
,
0103
0000
0010
0010
,
1000
0100
0010
0000
,
0010
0010
0001
1000
,
0001
0010
0100
0000
,
0100
0100
1000
0001
,
0100
0001
0010
0000
,
0010
0100
1000
0000
,
1000
0001
0100
0000
,
0100
0001
0010
0100
,
0000
1000
0000
0010
0000
1000
0000
0010
,
0000
1000
0000
0010
0000
1000
0000
0010
,
0000
1000
0000
0100
0000
1000
0000
0100
,
0000
1000
0000
0100
0000
1000
0000
0000
,
0000
0001
0000
0100
0000
0001
0000
0100
,
0000
0001
0000
0100
0000
0001
0000
0100
,
0000
0001
0000
0010
0000
0001
0000
0010
,
0000
0001
0000
0000
1000
0001
1000
0010
;

//---------------dance-double - ----------------
#NOTES:
     dance-double:
     :
     Easy:
     6:
     0.281886,0.308636,0.020662,0.082647,0.000000,191.000000,189.000000,2.000000,8.000000,0.000000,0.000000,0.281886,0.308636,0.020662,0.082647,0.000000,191.000000,189.000000,2.000000,8.000000,0.000000,0.000000:
00000000
00000000
00000000
00000000
,
00000000
00000000
00000000
00000000
,
00000000
00000000
00000000
00000000
,
00000000
00000000
00000000
00000000
,
00000001
00000100
00001000
00001000
,
00010000
01000000
10000000
10000000
,
00100000
00010000
00001000
00001000
,
00000010
00000001
00000100
00000000
,
00010000
01000000
10000000
00100000
,
00010000
00001000
00000100
00000001
,
00000010
00001000
00010000
01000000
,
20000000
00000000
30020000
00000000
,
00130000
00000000
00000000
01000000
00000000
00010000
00000000
00000000
,
00001000
00000000
00000000
00000100
00000000
00000001
00000000
00000000
,
00001000
00000000
00000000
00000010
00000000
00010000
00000000
00000000
,
00001000
00000000
00000000
01000000
00000000
00001000
00000000
00000000
,
00010000
00000000
00000000
00000100
00000000
00000010
00000000
00000000
,
00000001
00000000
00000000
00000010
00000000
00001000
00000000
00000000
,
00010000
00000000
00000000
01000000
00000000
10000000
00000000
00000000
,
00100000
00000000
00000000
00010000
00000000
00001000
00000000
00000000
,
00010000
00000000
00000000
00000010
00000000
00000100
00000000
00000000
,
00001000
00000000
00000000
01000000
00000000
00100000
00000000
00000000
,
00010000
00000000
00000000
00000100
00000000
00001000
00000000
00000000
,
00000010
00000000
00000000
00010000
00000000
00001000
00000000
00000000
,
00100000
00000000
00000000
01000000
00000000
10000000
00000000
00000000
,
00010000
00000000
00000000
00100000
00000000
00001000
00000000
00000000
,
00010000
00000000
00000000
00000010
00000000
00001000
00000000
00000000
,
00000010
00000000
00000000
00011000
00000000
00000000
00000000
00000000
,
01000000
00010000
00010000
00010000
,
00100000
00001000
00001000
00001000
,
00010000
00000100
00000100
00000100
,
00000010
00000001
00000001
00000001
,
00000100
00001000
00010000
01000000
,
01000000
00010000
00001000
00000100
,
00001000
00100000
00001000
00010000
,
00000100
00010000
00022000
00033000
,
00100000
00010000
01000000
00000000
,
00001000
00000000
00000000
00000000
00010000
00000100
00000000
00000000
,
00001000
00000010
00000100
00000000
,
00001000
00010000
00000000
00000000
00010000
00000000
00001000
00000000
,
01000000
00010000
10000000
00000000
,
00010000
00000000
00100000
00001000
,
00020000
00000000
00002000
00033000
,
00001000
00010000
00000000
00000000
00010000
00000000
00001000
00000000
,
00010000
00100000
10000000
00000000
,
01000000
00010000
00001000
00000000
,
00000010
00000001
00000100
00000000
,
00001000
00010000
00001000
00000000
,
00100000
01000000
00010000
00010000
,
00001000
00000100
00000001
00000001
,
00000010
00001000
00010000
00010000
,
00000100
00010000
00001000
00000000
,
00000000
00100000
00000000
00010000
00000000
00100000
00000000
01000000
,
00000000
00100000
00000000
10000000
00000000
00100000
00000000
01000000
,
00000000
00100000
00000000
00001000
00000000
00100000
00000000
01000000
,
00000000
00100000
00000000
00001000
00000000
00010000
00010000
00000000
,
00000000
00000010
00000000
00000100
00000000
00000010
00000000
00000001
,
00000000
00000010
00000000
00000100
00000000
00000010
00000000
00010000
,
00000000
00000010
00000000
00000100
00000000
00000010
00000000
00010000
,
00002000
00000000
00020000
00033000
;

//---------------dance-double - ----------------
#NOTES:
     dance-double:
     :
     Medium:
     8:
     0.439801,0.556706,0.361581,0.175625,0.015496,298.000000,263.000000,35.000000,17.000000,0.000000,0.000000,0.439801,0.556706,0.361581,0.175625,0.015496,298.000000,263.000000,35.000000,17.000000,0.000000,0.000000:
00000000
00000000
00000000
00000000
,
00000000
00000000
00000000
00000000
,
00000000
00000000
00000000
00000000
,
00000000
00000000
00000000
00000000
,
00010000
00100000
01000000
00010000
,
00001000
00000100
00000010
00001000
,
00000100
00000001
00000100
00001000
,
00010000
00000000
01000000
00000000
10000000
01000000
00010000
00000000
,
00001000
00000000
00010000
00000100
00000000
00000010
00000000
00000000
,
00000010
00000000
00000100
00010000
00000000
00001000
00000000
00000000
,
01000000
00000000
00100000
00010000
00000000
00001000
00000000
00000000
,
00000010
00000100
00000010
00000000
00010000
00001000
00010000
00000000
,
00001000
00000000
00100000
01000000
00000000
11000000
00000000
00000000
,
10000000
00000000
01000000
00100000
00000000
00101000
00000000
00001000
,
00010000
00000000
00000010
00000100
00000000
00000101
00000000
00000000
,
00000001
00000000
00000010
00000100
00000000
00010100
00000000
00010000
,
00001000
00000000
00000100
00000001
00000000
00000010
00000000
00001000
,
00010000
00000000
01000000
10000000
00000000
00100000
00000000
00010000
,
00001000
00000000
00010000
00100000
00000000
10000000
00000000
01000000
,
00010000
00000000
00001000
00000100
00000000
00000001
00000000
00000000
,
00000001
00001000
00000001
00001000
00000000
00000110
00000000
00000100
,
00001000
00000000
00001000
00010000
00000000
01000000
00000000
00000000
,
10000000
00010000
10000000
00010000
00000000
01100000
00000000
00100000
,
00010000
00000000
00010000
00001000
00000000
00000010
00000000
00000001
,
00001000
00000100
00001000
00000100
00000000
00000110
00000000
00000100
,
00001000
00000000
00010000
01000000
00000000
10000000
00000000
00000000
,
00010000
00100000
00010000
00100000
00000000
01000000
00000000
00010000
,
00001000
00000000
00000100
00000001
00000000
00000000
00000000
00000000
,
00001001
00000000
00000001
00001000
00000100
00000000
00001000
00000001
,
00000100
00000000
00001000
00010000
01000000
00000000
10000000
00010000
,
10010000
00000000
10000000
00010000
01000000
00000000
00010000
10000000
,
01000000
00000000
00010000
00001000
00000100
00000000
00000001
00001000
,
00000001
00000010
00001000
00000000
00010000
01000000
10000000
00000000
,
01000000
00010000
00001000
00000000
00000100
00001000
00010000
00000000
,
00100000
00010000
00001000
00000000
00010000
00001000
00000010
00000000
,
00001000
00010000
00011000
00010010
,
00000100
00000000
00000000
00000000
00010000
00000000
00000000
00000000
00001000
00000000
00000000
00001000
00000000
00000000
00001000
00000000
,
01000000
00000000
00001000
00000000
00010000
00000100
00000000
00000000
,
00000010
00000000
00000000
00000000
00001000
00000000
00000000
00000000
00010000
00000000
00000000
00010000
00000000
00000000
00010000
00000000
,
00001000
01000000
00000000
00000000
00100000
00000000
00100000
00000000
,
00010000
00000000
00000000
00000000
00001000
00000000
00000000
00000000
00010000
00000000
00000000
00010000
00000000
00000000
00010000
00000000
,
00000010
00000100
00002000
00023000
,
02030000
00000000
00000000
00000000
13000000
00010000
10000000
00000000
,
00100000
00010000
00000000
00000000
00001000
00000000
00010000
00000000
,
00011000
00000000
00000010
00000100
00000000
00000110
00000000
00000000
,
00000101
00000000
00000010
00001000
00000000
00001010
00000000
00000000
,
00010100
00000000
00010000
00001000
00000000
00011000
00000000
00000000
,
01001000
00000000
00001000
00010000
00000000
00011000
00000000
00000000
,
00101000
00000000
00100000
01000000
00000000
11000000
00000000
10000000
,
00010000
00000000
00010000
01000000
00000000
01100000
00000000
00100000
,
00010000
00000000
00010000
00001000
00000000
00010100
00000000
00000010
,
00000001
00000000
00000001
00000100
00000000
00000110
00000000
00000000
,
00000000
00000200
00000000
00002300
00000000
00023000
00000000
02030000
,
00000000
03200000
00000000
00302000
00000000
00023000
00000000
00030020
,
00000000
00000230
00000000
00002300
00000000
00023000
00000000
00230000
,
00000000
20300000
00000000
32000000
00000000
03010000
00001000
00000000
,
00000000
00000110
00000000
00000011
00000000
00000101
00000000
00001010
,
00000000
00010100
00000000
00011000
00000000
01001000
00000000
01100000
,
00000000
10100000
00000000
10010000
00000000
01010000
00000000
00100000
,
00001000
00010000
00001000
00000000
00010000
00000100
00000010
00000001
;
