#TITLE:Absolute;
#SUBTITLE:(kors k Remix);
#ARTIST:dj TAKA;
#TITLETRANSLIT:;
#SUBTITLETRANSLIT:;
#ARTISTTRANSLIT:;
#GENRE:Trance;
#CREDIT:;
#BANNER:absolutekorskremix-bn.png;
#BACKGROUND:absolutekorskremix-bg.png;
#LYRICSPATH:;
#CDTITLE:;
#MUSIC:Absolute (kors k remix).mp3;
#OFFSET:-0.047000;
#SAMPLESTART:29.993002;
#SAMPLELENGTH:12.000000;
#SELECTABLE:YES;
#BPMS:0.000000=160.000000
;
#STOPS:
;
#BGCHANGES:;
#KEYSOUNDS:;
#ATTACKS:;

//---------------dance-single - ----------------
#NOTES:
     dance-single:
     :
     Challenge:
     14:
     0.723508,0.824309,0.258983,0.163063,0.446026,528.000000,501.000000,27.000000,17.000000,0.000000,0.000000,0.723508,0.824309,0.258983,0.163063,0.446026,528.000000,501.000000,27.000000,17.000000,0.000000,0.000000:
0000
0000
0000
0000
,
0000
0000
0000
0000
,
0000
0000
0000
0000
,
0000
0000
0000
0000
,
0001
0000
0100
0010
0100
0000
0001
0000
1000
0000
0100
0010
0100
0000
1000
0000
,
0002
0000
0000
0000
0000
0000
0000
0000
0003
0000
0000
0000
0001
0010
0100
1000
,
0010
0000
0100
0001
0100
0000
0010
0000
0100
0000
0010
1000
0010
0000
0100
0000
,
0020
0000
0000
0130
0010
0000
1001
0000
,
1000
0000
0010
0100
0010
0000
1000
0000
0001
0000
0010
0100
0010
0000
0001
0000
,
0200
0000
0000
0000
0010
0000
0000
0000
0310
0000
0000
0000
0010
0100
0001
1000
,
0100
0000
1000
0001
1000
0000
0100
0000
0010
0000
0001
1000
0001
0000
0010
0000
,
0022
0000
0000
0033
,
0001
0000
0010
0100
0000
0000
1000
0000
0001
0000
0100
0010
0000
0000
1000
0000
,
0001
0000
0001
0000
0000
0000
1100
0000
0000
0000
0001
1000
0001
0000
1000
0001
,
1000
0000
0100
0010
0000
0000
0001
0000
1000
0000
0010
0100
0000
0000
0001
0000
,
1000
0000
1000
0000
0000
0000
0101
0000
0000
0000
1000
0001
1000
0000
0001
1000
,
0001
0000
0100
0010
0000
0000
0001
0000
0010
0000
1000
0001
0000
0000
1000
0000
,
0100
0000
0010
1000
0000
0000
0010
0000
0001
0000
0100
0010
0000
0000
0001
0000
,
0010
1000
0010
0000
1000
0001
1000
0000
0001
0100
0001
0000
0100
0010
0100
0000
,
0001
0000
0100
0000
0001
0000
0100
0000
0001
0000
0100
0000
0010
1000
0000
0000
,
0001
0000
1000
0100
1000
0000
0001
0000
1000
0000
0001
0100
0001
0000
1000
0000
,
0020
0000
0000
0000
1000
0000
0000
0000
0130
0000
0000
0000
1000
0100
0010
0001
,
1000
0000
0001
0100
0001
0000
1000
0000
0001
0000
1000
0100
1000
0000
0001
0000
,
0200
0000
0310
1000
1000
0000
1001
0000
,
0001
0000
1000
0010
1000
0000
0001
0000
1000
0000
0001
0010
0001
0000
1000
0000
,
0002
0000
0000
0000
0100
0000
0000
0000
0013
0000
0000
0000
0100
0010
1000
0001
,
1000
0000
0001
0010
0001
0000
1000
0000
0001
0000
1000
0010
1000
0000
0001
0000
,
0100
0000
0100
0000
0010
0000
0010
0000
0100
0010
1000
0010
0100
0001
0010
0001
,
0200
0000
0000
0000
0300
0000
0100
0010
0100
0000
0000
0000
0110
0000
0000
0000
,
0002
1000
0103
0001
,
1000
0000
0010
1000
0000
0000
0001
0000
1000
0000
0010
1000
0000
0000
0001
0000
,
1000
0100
0001
0100
1000
0000
1001
0000
,
0001
0000
0010
0001
0000
0000
1000
0000
0001
0000
0010
0001
0000
0000
1000
0000
,
0001
0100
1000
0100
0001
0000
1001
0000
,
1000
0010
1000
0010
1000
0010
1000
0000
0001
0010
0001
0010
0001
0010
0001
0000
,
0100
0010
1000
0001
1001
0000
0110
0000
,
0001
0000
1000
0100
1000
0000
0001
0100
0001
0000
1000
0100
0010
0000
0001
0000
,
0201
0010
0000
2300
,
3200
0001
0001
0000
0310
0100
0100
0000
,
0110
1000
0001
1000
0120
0000
0001
0001
,
0000
1000
1000
0000
0001
0001
0000
1030
,
1000
0100
0001
0000
0001
0100
1000
0000
,
0001
0010
1000
0000
1000
0010
0001
0000
,
1000
0000
0100
0010
0100
0000
1000
0000
0001
0000
0000
0000
0001
0000
0100
0000
,
0000
0000
0100
0000
0000
1000
0000
0000
0100
0000
0001
0000
1000
0000
0010
0000
,
1020
0000
0100
0000
0000
0000
0130
0010
,
1000
0010
0100
0001
0010
0100
1000
0000
,
0001
0010
0001
0100
0001
0010
0100
0010
,
0001
0100
0010
1000
0010
0120
0000
0000
,
0031
0000
0010
0000
1000
0000
0000
0010
1000
0001
1000
0000
0001
0000
0000
0000
,
0100
0000
0010
1000
0100
0010
0001
0000
,
1000
0000
0100
0010
0001
0000
1000
0000
2001
0000
0000
0000
3001
0000
0010
0000
,
0000
0000
1000
0000
0000
0010
0000
0000
0001
0000
0100
0000
0010
0000
1000
0000
,
1010
0000
0000
1000
0001
0000
0000
0001
0100
0000
0000
0100
0001
0000
0000
0000
,
0101
0000
0000
0000
1100
0000
0000
0000
0101
0000
0000
0000
1001
0000
0001
1000
,
0001
0000
0000
0001
1000
0000
0000
1000
0100
0000
0000
0100
1000
0000
0000
0000
,
1010
0000
0011
0000
1010
0000
1001
1000
,
0001
0100
0010
0100
0001
0100
0010
0100
,
0010
1000
0100
1000
0010
1000
0100
1000
,
0100
0010
0100
0000
0010
0001
0010
0000
0001
1000
0001
0000
1000
0100
1000
0000
,
0001
0000
0100
0000
0010
0000
1000
0000
0010
0000
0100
0001
1000
0000
0010
0000
,
1000
0000
0100
0001
0100
0000
1000
0000
0001
0000
0100
1000
0100
0000
0001
0000
,
1000
0000
0100
0000
0010
0000
0000
0000
0010
0000
0100
0000
1000
0100
0010
0001
,
1000
0000
0010
0001
0010
0000
1000
0000
0001
0000
0010
1000
0010
0000
0001
0000
,
0100
0010
1000
0010
0010
0000
0101
0000
,
1000
0000
0010
0001
0010
0000
1000
0000
0001
0000
0010
1000
0010
0000
0001
0000
,
1000
0000
0010
0000
0100
0000
0001
0000
0010
0000
0100
0000
1000
0010
0100
0001
,
1000
0000
0100
0001
0100
0000
1000
0000
0001
0000
0100
1000
0100
0000
0001
0000
,
1001
0000
1000
0001
0000
1000
0001
0000
0100
0010
0100
0010
0100
0000
0000
0000
;

//---------------dance-single - ----------------
#NOTES:
     dance-single:
     :
     Hard:
     12:
     0.533039,0.659447,0.105512,0.422046,0.230207,389.000000,378.000000,11.000000,44.000000,0.000000,0.000000,0.533039,0.659447,0.105512,0.422046,0.230207,389.000000,378.000000,11.000000,44.000000,0.000000,0.000000:
0000
0000
0000
0000
,
0000
0000
0000
0000
,
0000
0000
0000
0000
,
0000
0000
0000
0000
,
1000
0100
0100
1000
0001
0100
0100
0001
,
2002
0000
0000
0000
3003
0000
0010
0100
,
0001
0010
0010
0001
1000
0010
0010
1000
,
2002
0000
3003
0001
0100
0000
1010
0000
,
1000
0000
0010
0100
0010
0000
1000
0000
0001
0000
0100
0010
0100
0000
0001
0000
,
2002
0000
0000
0000
3003
0000
0100
0010
,
1000
0000
0100
0010
0100
0000
1000
0000
0001
0000
0100
0010
0100
0000
0001
0000
,
0000
0000
0000
0000
,
1000
0000
0010
1000
0000
0000
0001
0000
1000
0000
0010
1000
0000
0000
0002
0000
,
0000
0000
0000
0000
0000
0000
0000
0003
,
0100
0000
0001
0100
0000
0000
0010
0000
0100
0000
0001
0100
0000
0000
0020
0000
,
0000
0000
0000
0000
0000
0000
0000
0030
,
1000
0000
0001
0100
0000
0000
0010
0000
1000
0000
0001
0100
0000
0000
0010
0000
,
1000
0000
0001
0100
0000
0000
0010
0000
1000
0000
0001
0100
0000
0000
0010
0000
,
1000
0100
0001
0100
1000
0100
0001
0100
,
1000
0000
0001
0000
0100
0000
0010
0000
1000
0000
0001
0000
0100
0010
0000
0000
,
1000
0000
0001
0100
0001
0000
1000
0000
0001
0000
0100
0001
0100
0000
0001
0000
,
2000
0000
0000
0000
0000
0000
3010
1000
,
0001
0000
1000
0100
1000
0000
0001
0000
1000
0000
0100
1000
0100
0000
1000
0000
,
0002
0000
0003
0100
0010
0000
0110
0000
,
0001
0000
1000
0010
1000
0000
0001
0000
1000
0000
0010
1000
0010
0000
1000
0000
,
0002
0000
0000
0000
0000
0000
0103
0010
,
1000
0000
0001
0100
0001
0000
1000
0000
0001
0000
0100
0001
0100
0000
0001
0000
,
1000
1000
0001
0001
0100
0010
1000
0001
,
1002
0000
0203
0000
,
0320
0000
0000
0030
,
0010
0000
0100
0001
0000
0000
0100
0000
0010
0000
0100
0001
0000
0000
0020
0000
,
0000
0000
0000
0030
,
0100
0000
1000
0001
0000
0000
1000
0000
0100
0000
1000
0001
0000
0000
2000
0000
,
0000
0000
0000
3000
,
0010
0000
0100
0001
0000
0000
0100
0000
0010
0000
1000
0010
0000
0000
0100
0000
,
0010
1000
0010
0100
0001
0010
0001
0000
,
2002
0000
0000
0000
0000
0000
0000
0000
3003
0000
0001
1000
0001
0000
1000
0000
,
0200
0010
0000
0010
,
2300
0001
3002
1000
,
0003
0101
0000
0100
0010
0000
0010
1000
,
0000
1000
0001
0000
0001
1000
0000
1000
,
0020
0100
0000
0100
,
2030
0001
3002
1000
,
0003
0000
1000
0001
1000
0000
0010
0000
0200
0000
0000
0000
0310
0000
0200
0000
,
0000
0000
0310
0000
0000
0100
0000
0000
0001
0000
0010
0000
0100
0000
1000
0000
,
0002
1000
0000
2003
,
3200
0320
0032
2003
,
3001
0100
0010
1000
0100
0010
0001
1000
,
0010
0100
0001
1000
0020
2000
0000
3030
,
2000
0001
0000
0001
,
0000
3002
0023
0230
,
1300
0000
0001
1000
0001
0000
1000
0000
0010
0000
0000
0000
0010
0000
0100
0000
,
0000
0000
0100
0000
0000
0001
0000
0000
1000
0000
0010
0000
0100
0000
0001
0000
,
0022
0000
0000
0000
0000
0000
0000
0000
0033
0000
0000
0000
0001
0000
0000
0001
,
1000
0000
0000
0000
1000
0000
0000
1000
0010
0000
0000
0000
0210
0000
0000
0000
,
0001
0000
0000
0000
0010
0000
0000
0000
0301
0000
0000
0000
1000
0000
0000
0001
,
0100
0000
0000
0000
0100
0000
0000
0100
0010
0000
0000
0010
1000
0000
0000
1000
,
0010
0100
0001
0100
0010
1000
0100
1000
,
0010
0100
0001
0010
0001
1000
0001
0100
,
0010
0100
0001
1000
0010
0100
0001
1000
,
0100
0000
0010
0000
0001
0000
0010
0000
0100
0000
1000
0001
1000
0000
0001
0000
,
0100
0000
0001
1000
0001
0000
0100
0000
0010
0000
1000
0001
1000
0000
0010
0000
,
0200
0000
0000
0000
0000
0000
0301
0010
,
0100
0000
1000
0100
1000
0000
0010
0000
0100
0000
0001
0100
0001
0000
1000
0000
,
0002
0000
0003
0001
0100
0000
1010
0000
,
0001
0000
0100
0010
0100
0000
0010
0000
1000
0000
0100
0010
0100
0000
0010
0000
,
0002
0000
0000
0000
0000
0000
0103
0010
,
1000
0000
0001
0010
0001
0000
1000
0000
0100
0000
1000
0010
1000
0000
0001
0000
,
0100
0000
0000
0010
0000
0000
1000
0000
0001
0000
0100
0000
0010
0000
0000
0000
;

//---------------dance-single - ----------------
#NOTES:
     dance-single:
     :
     Medium:
     9:
     0.396011,0.527558,0.134287,0.450822,0.000000,289.000000,275.000000,14.000000,47.000000,0.000000,0.000000,0.396011,0.527558,0.134287,0.450822,0.000000,289.000000,275.000000,14.000000,47.000000,0.000000,0.000000:
0000
0000
0000
0000
,
0000
0000
0000
0000
,
0000
0000
0000
0000
,
0000
0000
0000
0000
,
1000
0100
0010
0001
1000
0100
0010
0001
,
2000
0000
0000
3001
,
0001
0010
0100
1000
0001
0010
0100
1000
,
0002
0000
0003
0001
1000
0000
1001
0000
,
1000
0001
0100
0010
1000
0001
0100
0010
,
0200
0000
0000
0310
,
0010
0100
0001
1000
0010
0100
0001
1000
,
0000
0000
0000
0000
,
0001
1000
0000
0000
1000
0001
0000
2002
,
0000
0000
0000
3003
,
0100
0001
0000
0000
0001
0010
0000
0022
,
0000
0000
0000
0033
,
0100
1000
0000
0000
1000
0010
0000
0000
,
0010
0100
0000
0000
0100
0001
0000
0000
,
0001
0000
1000
0000
0001
1000
0001
0000
,
2001
0000
0000
3010
,
1000
0100
1000
0001
0100
0001
1000
0100
,
2000
0000
0000
3001
,
0001
0010
0001
1000
0010
1000
0001
0010
,
0002
0000
0003
0001
1000
0000
1001
0000
,
0001
0100
0001
1000
0010
1000
0001
0100
,
0002
0000
0000
1003
,
1000
0100
1000
0001
0010
0001
1000
0100
,
1000
0000
0001
0000
1000
0001
0200
0000
,
0320
0000
1030
0001
,
2002
0000
0000
3003
,
0001
1000
0000
0000
1000
0010
0000
2020
,
0000
0000
3030
0000
,
1000
0100
0000
0000
0100
0010
0000
0022
,
0000
0000
0000
0033
,
0001
0100
0000
0000
0100
0010
0000
0220
,
0000
0000
0000
0330
,
0000
0000
0000
0000
0000
1000
0001
0000
,
2000
0100
0000
3010
,
0200
0301
0002
1003
,
0000
1001
0000
1000
0010
0000
0010
0100
,
0000
0100
0001
0000
0001
1000
0000
1000
,
0002
0100
0000
0013
,
0200
1000
0000
0310
,
0000
0010
0001
1000
1000
0000
0001
1000
,
0000
0002
0000
0000
0103
0010
0100
0010
,
0200
0001
0000
0302
,
0203
0320
2030
3001
,
1000
0100
0000
0010
0001
0000
0001
0100
,
0000
0010
1000
0000
2000
0002
0000
3003
,
2000
0100
0000
0001
,
0000
3200
0320
0032
,
1003
0001
1000
0001
0100
0000
0100
0010
,
0000
0020
0000
0000
1000
0000
1030
0000
,
2002
0000
3003
1000
,
0100
0001
0100
1000
,
2001
0000
0000
3020
,
0000
0130
0001
1000
,
1002
0010
0010
0010
,
0013
0001
0100
0010
,
1000
0001
1000
0000
0001
1000
0001
0000
,
0100
0010
1000
0010
0100
0001
0100
0000
,
0001
0010
0001
1000
0001
1000
0100
1000
,
0200
0000
0000
1300
,
1000
0010
1000
0001
1000
0001
0100
0001
,
0200
0000
0300
0100
0001
0000
1001
0000
,
0001
0100
0001
0100
0010
0100
0010
1000
,
0020
0000
0000
1030
,
1000
0100
1000
0100
0010
0100
0010
0001
,
0010
0000
0001
0000
1000
0001
0100
0000
;

//---------------dance-single - ----------------
#NOTES:
     dance-single:
     :
     Beginner:
     3:
     0.146620,0.197834,0.028776,0.038368,0.000000,107.000000,104.000000,3.000000,4.000000,0.000000,0.000000,0.146620,0.197834,0.028776,0.038368,0.000000,107.000000,104.000000,3.000000,4.000000,0.000000,0.000000:
0000
0000
0000
0000
,
0000
0000
0000
0000
,
0000
0000
0000
0000
,
0000
0000
0000
0000
,
1000
0000
1000
0000
,
1000
0000
0000
0000
,
0001
0000
0001
0000
,
0001
0000
0010
0000
,
0100
0000
0100
0000
,
0100
0000
0000
0000
,
0010
0000
0010
0000
,
0000
0000
0000
0000
,
0001
0000
1000
0000
,
0000
0000
0000
0000
,
1000
0000
0010
0000
,
0000
0000
0000
0000
,
0100
0000
0001
0000
,
0001
0000
1000
0000
,
0001
0000
0001
0000
,
0001
0000
0000
0000
,
1000
0000
0100
0000
,
1000
0000
0000
0000
,
0001
0000
0100
0000
,
0010
0000
0010
0000
,
0100
0000
0001
0000
,
0100
0000
0000
0000
,
0010
0000
1000
0000
,
0001
0000
1000
0000
,
1001
0000
0000
0000
,
0010
0000
0000
0000
,
1000
0000
1000
0000
,
0000
0000
0000
0000
,
0001
0000
0001
0000
,
0000
0000
0000
0000
,
0100
0000
0100
0000
,
0000
0000
0000
0000
,
0000
0000
0000
0010
,
0020
0000
0030
0000
,
1000
0000
0001
0000
,
0000
0000
1000
0000
,
0010
0000
0100
0000
,
0002
0000
0003
0000
,
2000
0000
3000
0000
,
0000
0000
0001
0000
,
0000
0000
0010
0010
,
0010
0000
0000
0010
,
0000
0100
0000
1000
,
1000
0000
1000
0000
,
1000
0000
1000
0000
,
2000
0000
3000
0000
,
0000
0001
0001
0001
,
0001
0000
0000
0100
,
0100
0000
0010
0010
,
0010
0000
0000
1000
,
1000
0000
0001
0000
,
1000
0000
0000
0010
,
0000
0100
0100
0100
,
0100
0000
0000
0000
,
0000
0001
0001
0001
,
0001
0000
0000
0000
,
1001
0000
0000
0010
,
0010
0000
0100
0000
,
0001
0000
0000
0000
,
0010
0000
0100
0000
,
1000
0000
0010
0000
,
1000
0000
0001
0000
,
0010
0000
0000
0000
,
0001
0000
0100
0000
,
0010
0000
0000
0110
;

//---------------dance-single - ----------------
#NOTES:
     dance-single:
     :
     Easy:
     5:
     0.272686,0.329724,0.268575,0.239799,0.000000,199.000000,171.000000,28.000000,25.000000,0.000000,0.000000,0.272686,0.329724,0.268575,0.239799,0.000000,199.000000,171.000000,28.000000,25.000000,0.000000,0.000000:
0000
0000
0000
0000
,
0000
0000
0000
0000
,
0000
0000
0000
0000
,
0000
0000
0000
0000
,
1000
0100
0010
0001
,
1001
0000
0000
0000
,
0001
0100
0010
1000
,
1001
0000
0010
0010
,
0100
0001
1000
0010
,
1010
0000
0000
0000
,
0100
0001
1000
0001
,
0000
0000
0000
0000
,
1010
0000
0000
0000
1001
0000
0000
0202
,
0000
0000
0303
0000
,
0101
0000
0000
0000
0110
0000
0000
2020
,
0000
0000
3030
0000
,
1001
0000
0101
0000
,
1001
0000
1100
0000
,
1000
0001
0100
0010
,
1000
1000
1000
1000
,
0001
0100
0010
1000
,
1100
0000
0000
0000
,
1000
0010
0100
0001
,
0101
0000
0010
0010
,
1000
0001
0100
0010
,
0110
0000
0000
0000
,
0010
0100
0001
1000
,
1000
0100
0010
0001
,
2000
0000
3002
0000
,
0203
0000
0300
0000
,
0001
0000
0000
0000
0100
0000
0010
0200
,
0000
0000
0300
0000
,
0010
0000
0000
0000
1000
0000
0001
2000
,
0000
0000
3000
0000
,
0100
0000
0000
0000
0010
0000
0001
0020
,
0000
0000
0030
0000
,
0000
0000
0000
1001
,
2000
0100
0000
3100
,
0020
0030
0002
0003
,
0000
1001
0000
0000
0010
0000
0100
0000
,
0000
0010
0100
0000
,
0002
0010
0000
0013
,
0200
1000
0000
1300
,
0000
1001
0000
0000
1000
0000
0010
0000
,
0000
0200
0000
0000
0301
0000
0001
0000
,
2002
0000
3003
0001
,
0010
0100
1000
0001
,
1000
0100
0010
0001
,
0100
0010
2000
3000
,
0200
0010
0000
0010
,
0000
0310
0001
1000
,
0001
0100
0010
1000
,
0000
2002
0000
0000
0000
0000
3003
0000
,
1001
0000
0000
0001
,
0100
0010
1000
0001
,
1001
0000
0000
2000
,
0000
3100
0010
0001
,
1001
0000
0000
0000
,
0000
0001
1000
0001
,
1001
0100
0010
0100
,
0002
0000
0000
1003
,
0010
0100
0001
0010
,
0011
0000
0000
0000
,
0100
1000
0010
0100
,
0101
0000
0001
1000
,
0010
0010
1000
1000
,
1001
0000
0000
0000
,
0100
0100
0001
0001
,
2000
0000
3001
0010
;

//---------------dance-double - ----------------
#NOTES:
     dance-double:
     :
     Easy:
     5:
     0.250761,0.296751,0.009592,0.249391,0.000000,183.000000,182.000000,1.000000,26.000000,0.000000,0.000000,0.250761,0.296751,0.009592,0.249391,0.000000,183.000000,182.000000,1.000000,26.000000,0.000000,0.000000:
00000000
00000000
00000000
00000000
,
00000000
00000000
00000000
00000000
,
00000000
00000000
00000000
00000000
,
00000000
00000000
00000000
00000000
,
10000000
01000000
00100000
00010000
,
00100000
00000000
00000000
00000000
,
00001000
00010000
00000100
00000010
,
00000001
00000000
00001000
00001000
,
00000001
00000100
00000010
00001000
,
00000100
00000000
00000000
00000000
,
00010000
00001000
01000000
00100000
,
00000000
00000000
00000000
00000000
,
10000000
00000000
01000000
00000000
00010000
00000000
00000000
00002000
,
00000000
00003000
00000000
00000000
,
00000001
00000000
00000100
00000000
00001000
00000000
00000000
00020000
,
00000000
00030000
00000000
00000000
,
10000000
00100000
00010000
00001000
,
00000010
00000001
00000100
00001000
,
00010000
00001000
00010000
00001000
,
02000000
00000000
00000000
03100000
,
10000000
00010000
01000000
00100000
,
10000000
00000000
00000000
00010000
,
00100000
00001000
00010000
00000010
,
00000100
00000000
00000001
00000001
,
00001000
00000001
00000100
00000010
,
00001000
00000000
00000000
00000100
,
00010000
00001000
01000000
00100000
,
10000000
00010000
10000000
00010000
,
02000000
00000000
03020000
00000000
,
00230000
00000000
00300000
00000000
,
00001000
00000000
00010000
00000000
00001000
00000000
00000000
00020000
,
00000000
00000000
00030000
00000000
,
00000010
00000000
00001000
00000000
00000010
00000000
00000000
00000200
,
00000000
00000000
00000300
00000000
,
00000010
00000000
00010000
00000000
00001000
00000000
00000000
00200000
,
00000000
00000000
00300000
00000000
,
00000000
00000000
00000000
01000000
,
20000000
00010000
00000000
30010000
,
00020000
01030000
02000000
03001000
,
00010000
00000100
00001000
00000010
,
00000100
00000001
00001000
00000000
,
00000002
00000010
00000000
00000013
,
00000020
00000100
00000000
00000130
,
00000000
00010000
00001000
01000000
,
00000000
00200000
00000000
00000000
10000000
00000000
10300000
00000000
,
00020000
00100000
00000000
00130000
,
00001000
00010000
00000010
00000100
,
00000001
00000010
00001000
00010000
,
00100000
20000000
00020000
30030000
,
20000000
00010000
00000000
00010000
,
00000000
30020000
02030000
03200000
,
10300000
01000000
00010000
00001000
,
00000000
00000200
00000000
00000000
00000001
00000000
00000301
00000000
,
00000101
00000000
00000000
00000010
,
00010000
00001000
00100000
01000000
,
10000000
00000000
00000000
00010000
,
00000000
10000000
00010000
01000000
,
00100000
00000000
00000000
00000000
,
00000000
00100000
00001000
00010000
,
00000200
00000000
00000000
00000000
,
00001300
00000001
00001000
00000010
,
00000100
00000001
00001000
00000010
,
00001000
00000000
00000000
00000000
,
00000100
00010000
00001000
01000000
,
00100000
00000000
00100000
00100000
,
10000000
00010000
10000000
00010000
,
02000000
00000000
03000000
00000000
,
00001000
00010000
00000100
00000010
,
00000002
00000000
00000000
00001003
;

//---------------dance-double - ----------------
#NOTES:
     dance-double:
     :
     Medium:
     9:
     0.406973,0.527558,0.086328,0.393270,0.038368,297.000000,288.000000,9.000000,41.000000,0.000000,0.000000,0.406973,0.527558,0.086328,0.393270,0.038368,297.000000,288.000000,9.000000,41.000000,0.000000,0.000000:
00000000
00000000
00000000
00000000
,
00000000
00000000
00000000
00000000
,
00000000
00000000
00000000
00000000
,
00000000
00000000
00000000
00000000
,
00100000
10000000
00100000
00000000
10000000
01000000
00010000
00001000
,
00000200
00000000
00000000
00000301
,
00001000
00000010
00001000
00000000
00000001
00000100
00001000
00010000
,
02000000
00000000
03000000
10000000
00010000
00000000
10010000
00000000
,
00010000
01000000
00010000
00000000
10000000
01000000
00010000
00001000
,
00000200
00000000
00000000
00000301
,
00001000
00000010
00000100
00000000
00001000
00010000
01000000
00000000
,
20000000
00000000
00000000
30000000
,
00010000
00000000
00100000
00000000
11000000
00000000
10000000
00020000
,
01000000
01000000
01000000
01030000
,
00100000
00000000
00001000
00000000
00011000
00000000
00010000
00000200
,
00001000
00001000
00001300
00000010
,
00000100
00000001
00001000
00000000
00000010
00001000
00000001
00000000
,
00000100
00000001
00001000
00000000
00000010
00001000
00000001
00000000
,
00002000
00003200
00020300
00032000
,
00103000
01000000
00100000
01000000
00100000
01000000
10000000
00000000
,
00010000
01000000
00100000
00000000
10000000
00100000
00010000
00001000
,
00000020
00000000
00000000
00000031
,
00001000
00000010
00000100
00000000
00000001
00000010
00000100
00001000
,
00000002
00000000
00000003
00001000
00000001
00000000
00000110
00000000
,
00001000
00000010
00000100
00000000
00000001
00000010
00001000
00010000
,
00200000
00000000
00000000
10300000
,
00010000
01000000
00100000
00000000
10000000
00100000
01000000
00010000
,
00100000
00010000
01000000
00001000
,
00021000
00000000
00030200
00000000
,
00002300
00000000
00000000
00003000
,
00000010
00000100
00000001
00000000
00000010
00000100
00000001
00002000
,
00000000
00000000
00003000
00000000
,
00000100
00010000
00001000
00000000
00000100
00010000
00001000
00200000
,
00000000
00000000
00000000
00300000
,
01000000
10000000
00010000
00000000
01000000
10000000
00010000
00200000
,
00000000
00000000
00000000
00300000
,
00000000
00000000
00000000
00000000
00000000
00010000
10000000
00000000
,
10020000
01000000
00000000
01030000
,
00200000
00301000
00002000
00013000
,
00000000
00011000
00000000
00010000
00000100
00000000
00000100
00001000
,
00000000
00001000
00000010
00000000
00000010
00000100
00000000
00000100
,
00000002
00000010
00000000
00000013
,
00000200
00010000
00000000
00010300
,
00000000
00010000
00001000
00010000
00001000
00000000
00001000
01000000
,
00000000
01000000
00100000
00000000
10000000
00010000
10000000
00010000
,
02000000
00100000
00000000
03200000
,
20300000
30020000
02030000
03002000
,
00013000
00000100
00000010
00000000
00000001
00000100
00000010
00000000
,
00010000
00000100
00000010
00000001
00001000
00000002
00000000
00000000
,
00000203
00000010
00000000
00000010
,
00000000
00000320
00020030
00032000
,
00103000
01000000
10000000
00010000
01000000
00000000
00100000
01000000
,
00000000
00200000
00000000
00000000
10300000
00010000
10000000
00010000
,
00200000
00000000
00000000
00000000
00000000
00000000
00000000
00000000
00000000
00000000
00000000
00000000
00301000
00000000
00000000
00001000
,
00010000
00000000
00000000
00000000
00010000
00000000
00000000
00000000
00000100
00000000
00000000
00000100
00000010
00000000
00000000
00000000
,
00000010
00000000
00000000
00001001
,
00000000
00000000
00000000
00000000
00000100
00000000
00000000
00000100
00010000
00000000
00000000
00010000
00001000
00000000
00000000
00001000
,
00010000
00000000
00000000
00000000
,
00000000
00000000
00000000
00000000
00001000
00000000
00000000
00001000
00100000
00000000
00000000
00100000
01000000
00000000
00000000
01000000
,
00200000
00000000
00000000
00000000
,
01300000
10000000
00010000
01000000
00100000
01000000
00010000
00100000
,
00001000
00010000
00000100
00000000
00000100
00010000
00001000
01000000
,
00200000
00000000
00000000
01300000
,
01000000
00001000
00010000
00000000
00010000
00000100
00001000
00000010
,
00000200
00000000
00000000
00000301
00001000
00000000
00001001
00000000
,
00000001
00000100
00001000
00000000
00010000
01000000
10000000
01000000
,
20000000
00000000
00000000
30010000
,
10000000
01000000
00010000
00000000
00001000
00000100
00000001
00000100
,
00000001
00000000
00001000
00000000
00000010
00000100
00000001
00000000
;

//---------------dance-double - ----------------
#NOTES:
     dance-double:
     :
     Challenge:
     15:
     0.770097,0.890254,0.374086,0.124695,0.541946,562.000000,523.000000,39.000000,13.000000,0.000000,0.000000,0.770097,0.890254,0.374086,0.124695,0.541946,562.000000,523.000000,39.000000,13.000000,0.000000,0.000000:
// measure 0
00000000
00000000
00000000
00000000
,  // measure 1
00000000
00000000
00000000
00000000
,  // measure 2
00000000
00000000
00000000
00000000
,  // measure 3
00000000
00000000
00000000
00000000
,  // measure 4
10000000
00000000
00010000
01000000
00100000
00000000
00010000
00000000
00001000
00000000
00000100
00000001
00001000
00000000
00000010
00000000
,  // measure 5
00000210
00000000
00000000
00000000
00000000
00000000
00000000
00000000
00000000
00000000
00000000
00000000
00000301
00001000
00000001
00000100
,  // measure 6
00000001
00000000
00001000
00000010
00000100
00000000
00001000
00000000
00010000
00000000
01000000
10000000
00100000
00000000
01000000
00000000
,  // measure 7
01020000
00000000
00000000
10000000
10030000
00000000
00101000
00000000
,  // measure 8
00010000
00000000
00000100
00001000
00000010
00000000
00000100
00000000
00001000
00000000
00010000
01000000
10000000
00000000
00100000
00000000
,  // measure 9
01020000
00000000
00000000
00000000
00100000
00000000
00000000
00000000
01000000
00000000
00000000
00000000
00130000
00010000
00001000
00000010
,  // measure 10
00000001
00000000
00001000
00000010
00000100
00000000
00000001
00000000
00000010
00000000
00001000
00010000
00100000
00000000
10000000
00000000
,  // measure 11
10010000
00000000
00000000
00000000
,  // measure 12
00001001
00000000
00000010
00000100
00000000
00000000
00000010
00000000
00001001
00000000
00000010
00000100
00000000
00000000
00001000
00000000
,  // measure 13
00010000
00000000
00010000
00000000
00000000
00000000
01000000
00000000
00000000
00000000
10000000
00000000
00010000
10000000
00010000
00000000
,  // measure 14
10010000
00000000
00100000
01000000
00000000
00000000
00100000
00000000
10010000
00000000
00100000
01000000
00000000
00000000
01000000
00000000
,  // measure 15
00100000
00000000
00010000
00000000
00000000
00000000
00001000
00000000
00000000
00000000
00000010
00000000
00000001
00001000
00000001
00000000
,  // measure 16
00000100
00000000
00000100
00001000
00000000
00000000
00010000
00000000
01000000
00000000
01000000
10000000
00000000
00000000
10000000
00000000
,  // measure 17
01000000
00000000
01000000
00010000
00000000
00000000
00001000
00000000
00000100
00000000
00000001
00001000
00000000
00000000
00000001
00000100
,  // measure 18
00001000
00010000
01000000
00000000
00010000
00001000
00000100
00000000
00001000
00010000
01000000
00000000
00010000
00001000
00000100
00000000
,  // measure 19
00001000
00000000
00010000
00000000
01000000
00000000
10000000
00000000
00100000
00000000
00010000
00000000
00001000
00000010
00000000
00000000
,  // measure 20
00000001
00000000
00001000
00000001
00001000
00000000
00000001
00000000
00000100
00000000
00000001
00000010
00001000
00000000
00010000
00000000
,  // measure 21
00200000
00000000
00000000
00000000
10000000
00000000
00000000
00000000
00010000
00000000
00000000
00000000
10300000
01000000
00100000
00010000
,  // measure 22
01000000
00000000
00100000
10000000
00100000
00000000
10000000
00000000
00010000
00000000
01000000
00100000
00010000
00000000
00001000
00000000
,  // measure 23
00012000
00000000
00003010
00000001
00001000
00000000
00001001
00000000
,  // measure 24
00000100
00000000
00000001
00001000
00000001
00000000
00000100
00000000
00001000
00000000
00010000
01000000
10000000
00000000
00100000
00000000
,  // measure 25
10200000
00000000
00000000
00000000
01000000
00000000
00000000
00000000
00010000
00000000
00000000
00000000
01300000
10000000
00100000
00010000
,  // measure 26
00001000
00000000
00010000
01000000
10000000
00000000
01000000
00000000
00010000
00000000
00001000
00000100
00000001
00000000
00000100
00000000
,  // measure 27
00001000
00000000
00001000
00000000
00010000
00000000
00010000
00000000
01000000
10000000
01000000
10000000
00100000
00010000
00100000
00010000
,  // measure 28
00002000
00000000
00000000
00000010
00003010
00000000
00000011
00000000
,  // measure 29
00000102
00001000
00000100
00001003
,  // measure 30
00000001
00000000
00000100
00001000
00000000
00000000
00010000
00000000
01000000
00000000
10000000
00100000
00000000
00000000
00100000
00000000
,  // measure 31
01000000
00000000
00010000
10000000
00010000
00000000
10000000
00010000
10000000
00000000
00010000
10000000
00010000
00000000
10000000
00010000
,  // measure 32
10000000
00000000
00100000
00010000
00000000
00000000
00001000
00000000
00000010
00000000
00000001
00001000
00000000
00000000
00000001
00000000
,  // measure 33
00000201
00000000
00000010
00000000
00001300
00010000
01000000
00000000
,  // measure 34
10010000
00000000
10000000
00010000
00000000
00000000
01000000
00000000
00100000
00000000
00010000
00001000
00000000
00000000
00000010
00000000
,  // measure 35
00000001
00000000
00001000
00000010
00000100
00000000
00001000
00010000
01000000
00000000
10000000
00010000
01000000
00000000
00100000
00000000
,  // measure 36
20010000
00000000
00000000
00000000
00100000
00000000
00000000
00000000
31000000
00000000
00010000
10000000
00010000
00000000
01000000
00000000
,  // measure 37
01200000
10000000
00000000
10300000
,  // measure 38
00100000
00010000
00001000
00000000
00000010
00000001
00001000
00000000
,  // measure 39
00000010
00001001
00000000
00001001
00000010
00000000
00000100
00011000
,  // measure 40
00000000
00011000
01000000
00000000
01000000
10100000
00000000
10100000
,  // measure 41
00010000
00000000
01000000
00100000
00010000
00000000
00000000
00001000
00000000
00000100
00000001
00000000
00001000
00000000
00000000
00000000
,  // measure 42
00001010
00000000
00000100
00000000
00000001
00000000
00000000
00000000
00001000
00000000
00000010
00000100
00001000
00000000
00010000
00000000
,  // measure 43
00000000
00000000
01000000
10000000
01000000
00000000
11000000
00000000
10000000
00000000
00000000
00000000
00100000
00000000
00010000
00000000
,  // measure 44
00000000
00000000
00001000
00000000
00000000
00000010
00000000
00000000
00000001
00000000
00001000
00000000
00010000
00000000
10000000
00000000
,  // measure 45
10010000
00000000
00000000
10000000
00010000
00000000
00000000
00000000
01010000
00000000
00000000
01000000
00010000
00000000
00000000
00000000
,  // measure 46
00100000
00010000
00001000
00000010
00000001
00000100
00001000
00000000
,  // measure 47
00010000
01000000
00010000
01000000
10000000
00100000
10000000
00100000
,  // measure 48
00010000
00001000
00000010
00000001
00000200
00000020
00000000
00000330
,  // measure 49
00001001
00000000
00000001
00000000
00001000
00000000
00000000
00000010
00000100
00000010
00001000
00000000
00000100
00000000
00000000
00000000
,  // measure 50
00010000
00000000
00001000
00000000
00100000
01000000
10000000
00000000
00100000
01000000
00010000
00000000
00100000
01000000
10000000
00000000
,  // measure 51
10010000
00000000
00100000
01000000
00100000
00000000
00001000
00000000
00011000
00000000
00000000
00000000
00011000
00000000
00001000
00000000
,  // measure 52
00010000
00000000
00001000
00000000
00000000
00000100
00000000
00000000
00000001
00000000
00001000
00000000
00010000
00000000
10000000
00000000
,  // measure 53
10010000
00000000
00000000
10000000
00010000
00000000
00000000
00010000
10000000
00000000
00000000
10000000
00100000
00000000
00000000
00010000
,  // measure 54
00001000
00000000
00000000
00000010
00000001
00000000
00000000
00000100
00000010
00000000
00000000
00000100
00001000
00000000
00000000
00010000
,  // measure 55
01000000
00000000
10000000
01000000
10000000
00000000
00000000
00000000
00010000
00000000
00100000
00010000
00100000
00000000
00000000
00010000
,  // measure 56
01000000
00000000
00000000
00100000
00010000
00000000
00000000
00001000
00000100
00000000
00000000
00000001
00001000
00000000
00000010
00000100
,  // measure 57
00000010
00000010
00000100
00000100
00001000
00001000
00010000
00010000
,  // measure 58
01000000
01000000
10000000
10000000
00010000
00010000
01000000
01000000
,  // measure 59
00100000
10000000
00010000
10000000
00100000
01000000
00001000
01000000
00010000
00100000
00001000
00100000
00001000
00010000
00000100
00001000
,  // measure 60
00000010
00000000
00000100
00000000
00000001
00000000
00000010
00000000
00001000
00000000
00010000
00100000
10000000
00000000
00010000
00000000
,  // measure 61
10010000
00000000
10000000
01000000
00100000
00000000
00010000
00000000
10010000
00000000
00010000
01000000
00100000
00000000
10000000
00000000
,  // measure 62
01000000
00000000
00010000
00000000
00001000
00000000
00000100
00000000
00000001
00000000
00001000
00000000
00000010
00000100
00000001
00001000
,  // measure 63
00000001
00000000
00000100
00000010
00001000
00000000
00000001
00000000
00001001
00000000
00001000
00000010
00000100
00000000
00000001
00000000
,  // measure 64
00000010
00001000
00010000
00100000
10000000
00000000
10010000
00000000
,  // measure 65
01010000
00000000
00010000
01000000
00100000
00000000
10000000
00000000
11000000
00000000
10000000
01000000
00100000
00000000
00010000
00000000
,  // measure 66
01000000
00000000
00100000
00000000
00010000
00000000
00001000
00000000
00000100
00000000
00000001
00000000
00001000
00000010
00000100
00000001
,  // measure 67
00001000
00000000
00000001
00000010
00001000
00000000
00010000
00000000
00100000
00000000
10000000
01000000
00010000
00000000
01000000
00000000
,  // measure 68
10000000
00000000
00010000
01000000
00000000
01000000
00100000
00000000
10000000
00100000
10000000
00100000
10000000
00000000
00000000
00000000
;

//---------------dance-double - ----------------
#NOTES:
     dance-double:
     :
     Hard:
     13:
     0.661845,0.692419,0.143879,0.211023,0.345311,483.000000,468.000000,15.000000,22.000000,0.000000,0.000000,0.661845,0.692419,0.143879,0.211023,0.345311,483.000000,468.000000,15.000000,22.000000,0.000000,0.000000:
00000000
00000000
00000000
00000000
,
00000000
00000000
00000000
00000000
,
00000000
00000000
00000000
00000000
,
00000000
00000000
00000000
00000000
,
00000001
00000000
00001000
00000100
00001000
00000000
00000001
00000000
00001000
00000000
00000001
00000100
00000001
00000000
00000100
00000000
,
00002000
00000000
00000000
00000000
00000000
00000000
00013000
01000000
,
10000000
00000000
00010000
00100000
00010000
00000000
10000000
00000000
00010000
00000000
10000000
00100000
10000000
00000000
01000000
00000000
,
00020000
00000000
00000000
00001000
00030100
00000000
00000101
00000000
,
00001000
00000000
00000001
00000010
00000001
00000000
00001000
00000000
00000001
00000000
00001000
00000010
00001000
00000000
00000010
00000000
,
00000200
00000000
00002300
00000000
00023000
00000000
01030000
10000000
,
00010000
00000000
10000000
01000000
10000000
00000000
00010000
00000000
10000000
00000000
00010000
01000000
00010000
00000000
10000000
00000000
,
10010000
00000000
00100000
00000000
00100000
00000000
00200000
00000000
00000000
00000000
00000000
00000000
,
10300000
00000000
00010000
01000000
00000000
00000000
00100000
00000000
00010000
00000000
00001000
00000010
00000000
00000000
00000001
00000000
,
00001000
00001000
00000000
00001000
00000000
00001000
00000001
00000100
,
00000010
00000000
00000100
00001000
00000000
00000000
00010000
00000000
01000000
00000000
10000000
00010000
00000000
00000000
00100000
00000000
,
01000000
01000000
00000000
01000000
00000000
01000000
10000000
00010000
,
10000000
00000000
00010000
01000000
00000000
00000000
00100000
00000000
00010000
00000000
00001000
00000010
00000000
00000000
00000001
00000000
,
00000100
00000000
00001000
00010000
00000000
00000000
01000000
00000000
10000000
00000000
00100000
01000000
00000000
00000000
00100000
00000000
,
00010000
00010000
00001000
00001000
00000010
00000010
00000001
00000001
,
00001000
00000000
00000010
00000000
00000100
00000000
00000001
00000000
00000010
00000000
00000100
00000000
00001000
00000001
00000000
00000000
,
00001000
00000000
00000010
00000100
00000010
00000000
00001000
00000000
00000001
00000000
00000010
00000100
00000010
00000000
00000001
00000000
,
00000100
00001000
00010000
00000000
00100000
00010000
00001000
01000000
,
00100000
00000000
10000000
00010000
10000000
00000000
00100000
00000000
01000000
00000000
00010000
10000000
00010000
00000000
01000000
00000000
,
00100000
00000000
00010000
00001000
00000010
00000000
00000011
00000000
,
00000001
00000000
00000100
00000010
00000100
00000000
00000010
00000000
00001000
00000000
00000010
00000100
00000010
00000000
00000100
00000000
,
00001000
00010000
00100000
00000000
00010000
00001000
00000100
00001000
,
00010000
00000000
00001000
01000000
00001000
00000000
01000000
00000000
00100000
00000000
10000000
00010000
10000000
00000000
00100000
00000000
,
01000000
00010000
01000000
00100000
00010000
00001000
00000010
00000001
,
00000012
00000000
00000000
00001000
00001003
00000000
00001001
00000000
,
00000010
00000100
00000010
00001000
00000010
00000000
00001001
00000000
,
00000001
00000000
00000100
00000001
00000000
00000000
00000100
00000000
00001000
00000000
00010000
01000000
00000000
00000000
10000000
00000000
,
00010000
01000000
00100000
00000000
10000000
00100000
01000000
00010000
,
10000000
00000000
01000000
10000000
00000000
00000000
01000000
00000000
00010000
00000000
00001000
00000100
00000000
00000000
00000001
00000000
,
00001000
00000010
00000100
00000000
00000001
00000010
00000100
00001000
,
00000010
00000000
00000100
00000010
00000000
00000000
00001000
00000000
00000100
00000000
00010000
00001000
00000000
00000000
00010000
00000000
,
00001000
00000000
00010000
00001000
00010000
00000000
00001000
00010000
00001000
00000000
00010000
00001000
00010000
00000000
00001000
00000000
,
01000000
00000000
00000000
00000000
00100000
00000000
00000000
00000000
10000000
00000000
00010000
01000000
00010000
00000000
10000000
00000000
,
10020000
00000000
00100000
00000000
00000000
00000000
00130000
00001000
,
00010000
00000100
00000100
00001000
00000010
00000100
00000100
00000000
,
00000001
00000002
00000000
00000103
00001000
00000000
00010000
01000000
,
00000000
10000000
00010000
00000000
01000000
00100000
00000000
10000000
,
10020000
01000000
00000000
01030000
,
00100000
00010000
00001000
00000000
00000010
00000001
00000100
00000010
,
00001000
00000000
00000010
00000100
00000001
00000000
00000010
00000000
00001000
00000000
00000000
00000000
00010000
00000000
00100000
00000000
,
00000000
00000000
10000000
00000000
00000000
01000000
00000000
00000000
00010000
00000000
00001000
00000000
00000100
00000000
00000001
00000000
,
00002001
00000100
00000000
00003200
,
00020300
00032000
00203000
02300000
,
13000000
00100000
00010000
00100000
10000000
01000000
00010000
00001000
,
00000100
00000001
00000100
00001000
00000200
00000020
00000000
00000330
,
00001002
00000010
00000000
00000010
,
00000000
00000023
00000032
00002003
,
00003001
00000000
00000100
00000010
00001000
00000000
00000010
00000000
00000100
00000000
00000000
00000000
00001000
00000000
00010000
00000000
,
00000000
00000000
01000000
00000000
00000000
10000000
00000000
00000000
00100000
00000000
01000000
00000000
00010000
00000000
10000000
00000000
,
10010000
00000000
00000000
10000000
00010000
00000000
00000000
00010000
00100000
00000000
00000000
00100000
01000000
00000000
00000000
01000000
,
10000000
00000000
00000000
10000000
00100000
00000000
00000000
00100000
00010000
00000000
00000000
00010000
00001000
00000000
00000000
00001000
,
00000010
00000000
00000000
00000001
00001000
00000000
00000000
00000010
00000100
00000000
00000000
00000001
00001000
00000000
00000000
00001000
,
00000010
00000000
00000000
00000010
00000100
00000000
00000000
00000100
00001000
00000000
00000000
00001000
00010000
00000000
00000000
00010000
,
01000000
10000000
01000000
10000000
00100000
01000000
00100000
01000000
,
00010000
00100000
00010000
01000000
00010000
10000000
00010000
01000000
,
00001000
00000000
00010000
00001000
00010000
00000000
00001000
00010000
00001000
00000000
00010000
00001000
00010000
00000000
00001000
00000000
,
00010000
00000000
00000010
00000000
00000100
00000000
00000001
00000000
00000010
00000000
00000100
00001000
00000010
00000000
00000100
00000000
,
00000001
00000000
00001000
00000100
00000010
00000000
00000001
00000000
00000010
00000000
00000100
00010000
00001000
00000000
01000000
00000000
,
00100000
00000000
10100000
00000000
01100000
00000000
00100000
01000000
,
00010000
00000000
00100000
01000000
10000000
00000000
00100000
00000000
01000000
00000000
00001000
00010000
00000100
00000000
00001000
00000000
,
00000010
00000000
00000010
00000100
00000001
00000000
00001001
00000000
,
00001000
00000000
00000010
00000100
00000010
00000000
00000100
00000000
00000001
00000000
00001000
00000010
00001000
00000000
00000010
00000000
,
00000100
00000000
00001000
00000000
00000000
00000000
00010000
00000000
00000000
00000000
01000000
00000000
00000000
00000000
10000000
00010000
,
10000000
00000000
00010000
00100000
01000000
00000000
10000000
00000000
00100000
00000000
01000000
00010000
00100000
00000000
00001000
00000000
,
00010000
00000000
00000100
00001000
00000000
00001000
00000010
00000000
00000100
00000000
00000001
00000000
00001001
00000000
00000000
00000000
;
