#TITLE:A-Jax;
#SUBTITLE:(3-Way Mix);
#ARTIST:Mr.T;
#TITLETRANSLIT:;
#SUBTITLETRANSLIT:;
#ARTISTTRANSLIT:;
#GENRE:VGM;
#CREDIT:;
#BANNER:ajax-bn.png;
#BACKGROUND:ajax-bg.png;
#LYRICSPATH:;
#CDTITLE:;
#MUSIC:A-Jax (3-Way Mix).mp3;
#OFFSET:-0.240000;
#SAMPLESTART:31.910000;
#SAMPLELENGTH:12.000000;
#SELECTABLE:YES;
#BPMS:0.000000=62.000000
,4.000000=224.000000
,188.000000=174.000000
,288.000000=154.000000
,292.000000=308.000000
,460.000000=296.000000
,468.000000=284.000000
;
#STOPS:
;
#BGCHANGES:;
#KEYSOUNDS:;
#ATTACKS:;

//---------------dance-single - ----------------
#NOTES:
     dance-single:
     :
     Challenge:
     17:
     0.925640,1.225821,0.611422,0.222335,0.516135,816.000000,739.000000,77.000000,28.000000,0.000000,0.000000,0.925640,1.225821,0.611422,0.222335,0.516135,816.000000,739.000000,77.000000,28.000000,0.000000,0.000000:
0000
0000
0000
0000
,
1000
0000
0001
0000
0000
0101
0000
0010
,
1000
0000
0000
1100
0000
0010
0001
0000
,
0000
1001
0000
0100
0010
0000
1000
0100
,
0001
0000
0100
1000
0000
1000
0001
0000
,
0001
0000
1000
0000
0000
0101
0000
0010
,
1000
0000
0000
1100
0000
0010
0001
0000
,
0000
0110
0000
1000
0001
0000
0100
1000
,
0100
0001
0100
0000
1001
0000
0010
0001
,
0010
0100
1000
0000
0100
0010
0001
0100
,
1000
0100
0001
0000
0001
0010
0001
0000
,
1000
0100
0010
0001
0000
0110
0000
0001
,
1000
0010
1000
0100
0001
0100
1000
0000
,
1000
0010
1000
0000
0001
0010
0001
0100
,
1000
0100
0001
0000
0001
1000
0100
0000
,
0010
0001
1000
0100
0000
1100
0000
1000
,
0001
0000
0100
0001
0010
0001
0010
0001
,
0011
0000
0001
0000
0010
0100
0000
1100
,
0000
0001
1000
0000
0100
0010
0001
0000
,
0101
0000
0010
1000
0000
1100
0000
0011
,
0000
0100
0001
0000
0100
0000
0010
1000
,
1010
0000
0100
0000
0001
0010
0000
1100
,
0000
0010
0001
0000
1000
0010
1000
0000
,
1001
0000
0002
0200
0000
0303
1001
0000
,
2000
0020
0000
3030
0100
0000
0100
0010
,
1000
0100
0010
0100
0001
0100
0010
0100
,
1000
0010
0100
0010
0001
0010
0100
0010
,
1000
0001
0010
0001
0000
1010
0000
0012
,
0000
0100
1000
0103
,
2002
0000
3003
0000
1000
0010
0100
0001
,
1000
0000
0001
0000
0001
0010
0100
1000
,
0001
0010
0001
1000
0000
0011
0000
2010
,
0000
0100
0001
3100
,
2002
0000
3003
0000
1000
0010
0100
0001
,
0010
0000
0001
0010
0100
1000
0100
1000
,
0010
0100
0010
0001
0000
0011
0000
2010
,
0000
0001
0010
3100
,
1000
0010
0100
0010
0000
1100
0000
0102
,
0000
1000
0100
0013
,
0001
0100
1000
0100
0000
0101
0000
1020
,
0000
0001
1000
0130
,
2002
0000
3003
0000
0010
0100
0001
0000
,
1001
0000
0001
0010
0100
0010
0100
0010
,
0001
0100
0010
1000
0001
0010
0100
1000
,
0001
0100
0010
1000
0001
0010
0100
1000
,
1000
0100
0010
0001
1000
0010
0100
0001
,
1000
0100
0010
0001
1000
0010
0100
0001
,
1001
0000
1001
0000
0000
0001
1000
0000
1000
0001
0000
0000
,
1000
0100
0010
0100
0000
0001
0100
1000
0100
0020
0000
0000
,
0031
0100
0010
0100
0000
0000
1000
0100
0010
0100
0000
0000
,
0001
0010
0100
1000
0100
0010
0001
0000
0100
0000
0010
0000
,
1000
0000
0010
0000
0100
0000
0001
0010
1000
0001
0100
1000
,
0100
0000
0010
0001
0000
0000
0100
0000
0010
0001
0000
0000
,
0010
1000
0010
1000
0100
1000
0010
0100
0010
0100
1000
0100
,
0001
0000
0001
0000
0001
0100
0010
0000
0010
0000
0010
0100
,
1000
0000
1000
0000
1000
0100
0001
0010
1000
0001
0100
1000
,
0010
1000
0010
1000
1010
0000
1001
0000
0101
0000
0110
0000
,
0100
0001
0100
0001
0101
0000
1001
0000
1100
0000
1010
0000
,
0010
1000
0100
0001
0100
1000
0001
0010
1000
0010
0001
0100
,
0010
1000
0010
0001
0010
1000
0001
0100
1000
0100
0001
1000
,
0001
0010
0001
0010
0011
0000
0101
0000
1001
0000
1100
0000
,
1000
0010
1000
0010
1010
0000
0110
0000
0101
0000
1001
0000
,
0001
0100
0010
0001
0010
1000
0100
0010
1000
0010
0001
0100
,
0010
0001
0010
1000
0010
0100
0001
0010
0100
1000
0100
0010
,
0001
0000
0010
1000
0000
0010
0001
0000
0100
0010
0000
1000
,
1010
0000
0000
0101
0000
0000
1001
0000
0000
1000
0100
0010
,
0001
0000
0001
1000
0000
0000
0110
0000
0000
0001
0010
0100
,
1000
0000
1000
0001
0000
0000
0110
0010
0100
0010
1000
0001
,
0100
0000
1000
0100
0000
0001
0100
0000
0010
0100
0000
0100
,
0101
0000
0000
1010
0000
0000
1100
0000
0000
1000
0100
0010
,
0001
0000
0001
1000
0000
0000
1001
0000
0000
0001
0100
0010
,
1000
0000
1000
0001
0000
0000
0110
0100
0010
0100
0001
1000
,
0020
0000
0000
0000
0000
0000
0000
0000
1030
0100
0010
0001
0010
0100
1000
0000
,
1001
0000
0001
0010
0001
0100
0001
0100
,
0010
0100
0010
0100
1000
0100
1000
0100
,
0001
0100
0010
1000
0000
0100
0010
0001
,
0010
0000
0100
1000
0000
0010
0000
0000
,
1001
0000
1000
0010
1000
0010
0100
0010
,
0100
0010
0001
0010
1000
0010
0100
0010
,
1000
0100
0010
0100
0001
0100
1000
0100
,
1000
0010
0100
0001
0010
0000
0010
0100
,
1000
0001
1000
0001
0100
0001
0100
0001
,
0010
0001
0010
0001
1000
0001
0100
0010
,
2000
0000
3000
2020
0000
3030
0202
0000
,
0000
0000
0303
0000
0001
1000
0001
1000
,
0010
0100
0010
0100
0001
0100
0001
0100
,
0010
0100
0001
1000
0010
0100
0001
1000
,
0000
0010
0000
0100
0000
0001
0000
1000
,
0010
0000
0000
0000
1001
0000
0000
0120
,
0000
0000
0002
0030
,
0020
0000
0003
0000
2000
0000
3030
1001
,
0000
0000
0000
0000
0000
0000
0000
1000
,
0100
0010
0001
0100
0010
1000
0000
0001
,
0010
0100
1100
1000
,
0010
0000
0100
0000
0101
0000
0010
1000
,
0100
0010
0001
0100
0010
1000
0100
0010
,
0001
0100
0001
0100
0010
0100
0010
0100
,
0010
0000
0000
0000
0000
0000
1000
0100
,
0010
0001
0010
0001
0100
0001
0100
0001
,
1000
0010
1000
0010
0100
0010
0100
0010
,
1000
0100
1000
0100
1000
0001
1000
0001
,
0010
0100
0010
0100
1000
0100
1000
0100
,
0010
0001
0100
0001
0010
0100
1000
0100
,
0010
0001
1000
0001
0100
0010
1000
0010
,
0100
0001
0100
0001
1000
0010
1000
0010
,
1000
0001
0000
0010
0000
1000
0000
0010
,
0000
0001
0000
0100
0010
0000
0100
0000
,
1001
0000
1000
0001
0000
0010
0000
0100
,
1000
0100
0001
0100
,
1100
0000
1000
0100
0000
0010
0000
0001
,
0100
0010
0100
0000
0010
0000
0100
0000
,
1001
0000
0001
0100
0000
0010
0000
1000
,
0100
0010
0001
0100
0010
1000
0010
0100
,
0001
1000
0000
0000
0000
0000
1000
0001
,
0000
0000
0000
0000
0001
1000
0000
0000
,
0101
0010
1100
0010
,
0101
0000
0010
1000
0000
0100
0010
0001
,
0010
0100
0000
1100
0000
0000
2002
0000
,
0000
0000
0000
3003
;

//---------------dance-single - ----------------
#NOTES:
     dance-single:
     :
     Hard:
     15:
     0.762292,1.228402,0.555838,0.492314,0.460551,672.000000,602.000000,70.000000,62.000000,0.000000,0.000000,0.762292,1.228402,0.555838,0.492314,0.460551,672.000000,602.000000,70.000000,62.000000,0.000000,0.000000:
0000
0000
0000
0000
,
0101
0000
1001
0000
0000
0101
0000
0001
,
1000
0000
0000
0101
0000
0001
0010
0000
,
0000
0101
0000
0001
1000
0000
0010
0100
,
0010
0000
0010
0100
0000
0010
1000
0000
,
1100
0000
1001
0000
0000
1100
0000
1000
,
0001
0000
0000
1100
0000
1000
0010
0000
,
0000
1100
0000
1000
0001
0000
0100
0010
,
0100
0001
1000
0000
0010
0000
0100
0001
,
1000
0000
0100
0000
1000
0000
0100
0010
,
0000
0001
0100
0001
,
0100
0001
0010
0001
0000
0100
0000
0010
,
2000
0000
0000
3200
0000
0000
0310
0100
,
1000
0000
0010
0000
1000
0000
0010
0100
,
0000
0001
0010
0001
,
0010
0001
1000
0010
0000
0100
0000
0010
,
2000
0000
0000
3001
0100
0001
0100
0001
,
0200
0000
0000
0000
0310
0100
0000
0220
,
0000
0000
0330
0000
1000
0001
1000
0001
,
1000
0000
1000
0100
0000
0010
0000
0002
,
0000
0000
0000
0000
0103
0000
0010
1000
,
0020
0000
0000
0000
0130
0010
0000
0220
,
0000
0000
0330
0000
0001
1000
0001
1000
,
0001
0000
0010
0001
0000
0000
1000
0000
,
0010
1000
0000
0000
0010
0000
0100
0010
,
0100
0001
1000
0010
0100
0001
1000
0010
,
1000
0100
0010
0001
1000
0100
0010
0001
,
0100
0010
0100
0001
0000
0101
0000
2001
,
0000
0010
0010
3010
,
2020
0000
3030
0000
1000
0100
0010
0002
,
0000
0000
0000
0000
0013
0100
1000
0000
,
0010
0100
0010
1000
0000
1010
0000
1002
,
0000
0100
0100
0103
,
0202
0000
0303
0000
0001
0010
0100
0000
,
2000
0000
3000
0020
0000
0030
0100
0000
,
0001
0010
0001
0100
0000
0101
0000
2001
,
0000
0010
0010
3010
,
1000
0100
1000
0010
0000
1010
0000
1002
,
0000
0100
0100
0103
,
0001
0010
0001
0100
0000
0101
0000
2001
,
0000
0010
0010
3010
,
2020
0000
3030
0000
1000
0001
0010
0000
,
0022
0000
0033
0002
0000
0003
2000
0000
,
3020
0000
0000
0000
0032
0000
0000
0023
,
0000
0230
0000
0000
,
0300
0002
0000
0000
0203
0000
0300
0020
,
0000
0000
0032
0000
0000
0000
0000
0003
,
0110
0000
0110
0000
0000
1000
0001
0000
0000
1001
0000
0000
,
1000
0100
0001
0100
0000
0100
1000
0000
1000
0001
0000
0000
,
0101
0000
0100
0010
0000
0001
0010
0000
1000
0010
0000
0000
,
1200
0000
0000
0000
0010
0000
0000
0000
0001
0300
0000
0000
0201
0000
0000
0000
0010
0000
0000
0000
1000
0300
0000
0000
,
1200
0000
0000
0000
0010
0000
0000
0000
0001
0300
0000
0000
0100
0000
0001
0000
0100
0000
0010
0000
0100
0000
1000
0000
,
0100
0010
0001
0010
0000
0000
0001
0000
1000
0001
0000
0000
,
0101
0000
0100
0010
0000
0000
1010
0000
0010
0100
0000
0000
,
0201
0000
0000
0000
0010
0000
0000
0000
1000
0300
0000
0000
1200
0000
0000
0000
0010
0000
0000
0000
0001
0300
0000
0000
,
0201
0000
0000
0000
0010
0000
0000
0000
1000
0300
0000
0000
0100
0000
0010
0000
0100
0000
0001
0000
0100
0000
0010
0000
,
1000
0100
0010
0001
1000
0000
0001
0000
1000
0000
0001
0000
,
0100
0010
1000
0001
1000
0000
0001
0000
1000
0000
0001
0000
,
1000
0010
1000
0010
0100
0010
0100
0001
0100
0001
0010
0001
,
0010
0100
0010
0100
1000
0100
1000
0010
1000
0010
0100
0010
,
0100
0001
1000
0010
0100
0000
0010
0000
0100
0000
0010
0000
,
1000
0001
0100
0010
0100
0000
0010
0000
0100
0000
0010
0000
,
1000
0001
1000
0001
0010
0001
0100
0010
0100
0010
1000
0010
,
0100
0001
0100
0001
0010
0001
1000
0100
1000
0010
0100
0010
,
0110
0000
0100
0001
0000
0100
1000
0000
0100
0001
0000
0001
,
1000
0000
0000
1010
0000
0000
0101
0000
0000
0001
0010
0001
,
0010
0000
0010
0001
0000
0000
1001
0000
0000
1000
0010
1000
,
0010
0000
0010
1000
0000
0000
1000
0100
0010
0001
0010
0100
,
1000
0000
0100
0001
0000
0100
1000
0000
0100
0010
0000
0010
,
0001
0000
0000
0101
0000
0000
1001
0000
0000
0001
0100
0001
,
0100
0000
0100
0001
0000
0000
1001
0000
0000
1000
0100
1000
,
0100
0000
0100
1000
0000
0000
0010
0100
0010
0100
0001
1000
,
0020
0000
0000
0000
0000
0000
0000
0000
0130
0010
0100
0010
0100
0000
0010
0000
,
1010
0000
2000
0002
0000
0000
0000
0000
,
0000
0000
3003
0000
0000
0000
0001
0100
,
0001
0010
0100
1000
0000
0100
1000
0100
,
1000
0010
0100
0001
0000
0002
0000
0000
,
2000
0000
0000
0000
,
3003
0000
1000
0100
0010
0001
0010
0100
,
1000
0010
1000
0010
1000
0001
1000
0001
,
0100
0001
0100
0001
0020
0000
0030
2200
,
0000
0000
0000
0000
,
0000
0000
0000
0000
3300
0000
1000
0001
,
2000
0000
3000
2200
0000
3300
0220
0000
,
0000
0000
0330
0000
0010
0001
0100
0001
,
0020
0000
0000
0000
,
0030
0000
0001
0100
0010
1000
0010
0100
,
0000
0101
0000
1001
0000
0110
0000
0100
,
0002
0000
0003
0000
2002
0000
3003
1020
,
0000
0000
0001
0000
,
0100
0000
0000
0000
1030
0000
0000
1001
,
0000
0000
0000
0000
0000
0000
0000
0010
,
0100
0001
1000
0001
0100
0010
0000
1000
,
0001
0010
0011
1100
,
1000
0000
0010
0000
1010
0000
0000
0101
,
0000
0001
1000
0010
0100
0010
1000
0001
,
0010
0100
0010
0100
1000
0100
1000
0100
,
1000
0000
0000
0000
0000
0000
0010
0100
,
0001
0100
0001
0100
0010
1000
0010
1000
,
0100
1000
0100
1000
0001
0010
0001
0010
,
0001
0100
0010
1000
0010
0100
0001
0100
,
0010
1000
0100
1000
0010
0100
0001
0100
,
0010
1000
0001
1000
0100
0010
0001
0010
,
0100
1000
0100
1000
0001
0010
0001
0010
,
0001
0100
0010
1000
0001
0010
0100
1000
,
1100
0000
0000
0000
,
0000
0000
0110
0000
,
0011
0000
0000
0000
,
0001
1000
0001
1000
,
1001
0000
0000
0000
,
0000
0000
0110
0000
,
1010
0000
0000
0000
,
0010
1000
0001
0100
0001
1000
0010
0100
,
0001
1000
0000
0000
0000
0000
1000
0001
,
0000
0000
0000
0000
0001
1000
0000
0000
,
0101
0010
1100
0010
,
0101
0000
0010
1000
0000
0100
0010
0001
,
0010
0100
0000
1100
0000
0000
2002
0000
,
0000
0000
0000
0000
,
3003
0000
0000
0000
;

//---------------dance-single - ----------------
#NOTES:
     dance-single:
     :
     Medium:
     13:
     0.592138,0.848645,0.269978,0.722589,0.313651,522.000000,488.000000,34.000000,91.000000,0.000000,0.000000,0.592138,0.848645,0.269978,0.722589,0.313651,522.000000,488.000000,34.000000,91.000000,0.000000,0.000000:
0000
0000
0000
0000
,
1000
0000
0001
0000
0000
0100
0000
0001
,
0100
0000
0000
0010
0000
1000
0010
0000
,
0000
0100
0000
0001
0100
0000
0001
0000
,
0020
0000
0030
0200
0000
0300
0000
0000
,
1000
0000
0001
0000
0000
1000
0000
0100
,
1000
0000
0000
0001
0000
0010
0001
0000
,
0000
1000
0000
0100
1000
0000
0010
0000
,
0200
0000
0300
0002
0000
0000
0003
0000
,
0010
0000
0001
0000
1000
0000
0001
0100
,
0000
0010
1000
0010
,
0100
0001
0100
0010
0000
1000
0000
0001
,
2000
0000
3000
0002
0000
0003
0000
0000
,
0100
0000
0001
0000
1000
0000
0010
1000
,
0000
0010
0100
0010
,
0100
0001
1000
0001
0000
1000
0000
0100
,
0020
0000
0030
0002
0000
0003
0000
0000
,
0022
0000
0033
0000
0001
1000
0000
2002
,
0000
3003
0001
0000
1000
0000
0001
0000
,
1000
0100
0000
0010
0000
0100
0000
2000
,
0000
3000
0100
1000
,
2200
0000
3300
0000
1000
0001
0000
2002
,
0000
0000
0000
3003
,
0001
0000
0100
0010
0000
0000
1000
0000
,
0100
0010
0000
0000
0002
0000
1003
0001
,
1000
0100
0010
0001
,
0100
0000
0010
0000
1000
0001
1000
0001
,
1000
0100
0010
0002
0000
0100
0000
0203
,
0000
0010
0010
0310
,
2020
0000
3030
0000
1000
0001
1000
0002
,
0000
0000
0003
0000
0100
0010
0100
0000
,
0001
0010
0100
2000
0000
0010
0000
3020
,
0000
0100
0100
0130
,
0202
0000
0303
0000
0001
1000
0001
0000
,
2000
0000
3000
0002
0000
0003
0200
0000
,
0310
1000
0010
0100
0000
0001
0000
2002
,
0000
3003
1000
0000
0001
0000
1000
0000
,
0100
0010
0100
1000
0000
0001
0000
2002
,
0000
3003
0001
0000
1000
0000
0001
0000
,
1000
0100
0010
0001
0000
0100
0000
0220
,
0000
0330
1000
0000
0001
0000
0100
0000
,
0020
0000
0030
0000
0100
0010
0100
0000
,
0002
0000
0003
0020
0000
0030
0200
0000
,
2300
0000
3000
0000
2200
0000
3300
0220
,
0000
0330
0022
0000
0000
0000
0000
0000
,
0033
2002
0000
3003
0202
0000
0303
2020
,
0000
3030
2002
0000
0000
0000
3003
0000
,
0001
0000
1000
0000
0000
1000
0001
0000
0000
0110
0000
0000
,
0001
0010
0100
1000
0000
1000
0001
0000
0000
0100
0000
0000
,
0010
1000
0010
1000
0000
0000
1000
0100
1000
0100
0000
0000
,
1000
0000
0010
0000
1000
0000
0100
0000
0010
0000
0100
0000
,
0010
0000
0001
0000
0010
0000
0002
0000
0000
2003
0000
0000
,
3001
0010
0100
1000
0000
1000
0001
0000
0000
0010
0000
0000
,
0001
1000
0001
1000
0000
0000
1000
0010
1000
0010
0000
0000
,
0100
0000
0001
0000
0100
0000
0010
0000
0100
0000
0010
0000
,
1000
0000
0010
0000
1000
0000
0002
0000
0000
0023
0000
0000
,
0130
1000
0100
1000
0100
0000
1000
0000
0100
0000
1000
0000
,
0001
0010
0001
0010
0001
0000
0010
0000
0001
0000
0010
0000
,
0002
0000
0000
2003
0000
0000
3010
0000
0100
0010
0000
0000
,
0200
0320
2030
0000
,
3001
0010
0001
0010
0001
0000
0010
0000
0001
0000
0010
0000
,
0100
1000
0100
1000
0100
0000
1000
0000
0100
0000
1000
0000
,
0020
0000
0000
0230
0000
0000
0302
0000
0000
0003
1000
0000
,
2000
0000
0000
3200
0000
0000
0310
0000
0001
0010
0001
0010
,
0001
0000
0001
0100
0000
0100
0010
0000
0000
0010
0000
0010
,
1000
0000
0000
1001
0000
0000
0110
0000
0000
0100
0001
1000
,
0010
0000
0010
1000
0000
0000
1001
0000
0000
0010
1000
0001
,
0100
0000
0100
0001
0000
0000
1000
0000
0001
0100
0010
1000
,
0001
0000
0001
0100
0000
0100
1000
0000
1000
0100
0000
0100
,
0001
0000
0000
1001
0000
0000
0110
0000
0000
1000
0001
1000
,
0001
0000
0100
0010
0000
0000
0110
0000
0000
0001
1000
0001
,
1000
0000
0010
0100
0000
0000
0010
0100
0001
1000
0010
0100
,
0002
0000
0000
0000
1003
0001
1000
1001
,
0010
0000
0100
0020
0000
0000
0000
0000
,
0000
0000
0000
0000
0000
0000
1030
0001
,
1000
0001
1000
0010
0000
0100
0010
0100
,
0001
0000
0010
0100
0000
2000
0000
3000
,
0002
0000
0000
0000
,
0000
0000
0013
0001
0010
0001
0010
0001
,
0100
0010
1000
0001
,
0100
0000
0010
0000
2000
0000
0000
0002
,
0000
0000
0000
0000
,
0000
0000
0000
0000
3003
0000
0001
0100
,
0020
0000
0030
0200
0000
0300
0002
0000
,
0000
0000
0000
0000
0013
0100
0010
0100
,
2000
0000
0000
0000
,
3000
0000
1000
0000
0010
0000
0100
0001
,
0000
0010
0000
0001
0000
0100
0000
0001
,
0010
0000
0000
0000
0100
0000
0000
0120
,
0000
0000
0032
0000
,
2003
0000
0000
0000
3020
0000
0030
0220
,
0000
0000
0000
0000
0330
0000
0000
1000
,
0001
0000
0100
0010
0000
1000
0000
0001
,
1000
0100
0010
0001
,
0100
0000
0010
0000
1000
0000
0000
0001
,
1000
0100
1000
0100
,
0010
0001
0010
0001
,
0011
0000
0000
0000
0000
0000
0001
0100
,
0001
0100
0010
0100
,
0001
0100
0010
0100
,
0001
0000
0100
0000
0010
1000
0010
1000
,
0010
1000
0100
1000
,
0010
1000
0100
1000
,
0010
0100
0010
0100
,
0001
1000
0010
0100
,
0110
0000
0000
0000
,
0000
0000
2000
0000
,
3002
0000
0003
0000
,
0001
0100
0010
1000
,
1001
0000
0000
0000
,
0000
0000
2000
0000
,
3002
0000
0003
0000
,
0100
0010
1000
0001
,
1000
0001
0000
0000
0000
0000
0001
1000
,
0000
0000
0000
0000
1000
0001
0000
0000
,
0101
0010
1100
0010
,
0101
0000
0010
1000
0000
0100
0010
0001
,
0010
0100
0000
1100
0000
0000
2002
0000
,
0000
0000
0000
3003
;

//---------------dance-single - ----------------
#NOTES:
     dance-single:
     :
     Easy:
     11:
     0.402699,0.707204,0.158811,0.516135,0.095286,355.000000,335.000000,20.000000,65.000000,0.000000,0.000000,0.402699,0.707204,0.158811,0.516135,0.095286,355.000000,335.000000,20.000000,65.000000,0.000000,0.000000:
0000
0000
0000
0000
,
1000
0000
0100
0000
0000
0010
0000
0000
,
0100
0000
0000
1000
0000
0000
0100
0000
,
0000
0010
0000
0000
0100
0000
1000
0000
,
0001
0000
0000
0001
0000
0000
0000
0000
,
0001
0000
0100
0000
0000
0010
0000
0000
,
0100
0000
0000
0001
0000
0000
0100
0000
,
0000
0010
0000
0000
0100
0000
0001
0000
,
1000
0000
0000
1000
0000
0000
0000
0000
,
0002
0000
0000
0000
0000
0000
0003
0200
,
0000
0000
0300
0000
,
0010
0000
1000
0001
0000
0100
0000
0001
,
1000
0000
0000
0001
0000
0000
0000
0000
,
2000
0000
0000
0000
0000
0000
0000
3200
,
0000
0000
0300
0000
,
0010
0000
0001
1000
0000
0100
0000
1000
,
0001
0000
0000
0010
0000
0000
0000
0000
,
0002
0000
0003
0000
0001
0100
0000
0020
,
0000
0000
0030
0000
,
1000
0000
0000
0100
0000
0010
0000
0002
,
0000
0000
0013
0100
,
2000
0000
3000
0000
1000
0010
0000
0200
,
0000
0000
0300
0000
,
0001
0000
0000
0010
0000
0000
0001
0000
,
0010
0000
0100
0000
,
1000
0010
0100
0001
,
0001
0100
0010
1000
,
0001
0000
0010
0000
0000
0100
0000
0100
,
0000
1000
0001
1000
,
0001
0000
0100
0000
,
0010
0000
1000
0000
,
1000
0000
0010
0000
0000
0100
0000
0100
,
0000
0001
1000
0001
,
1000
0000
0100
0000
,
0010
0000
0000
0001
0000
0000
1000
0000
,
0001
0000
0100
0000
0000
0010
0000
0010
,
0000
1000
0001
0000
,
1000
0000
0100
0000
0000
0010
0000
0010
,
0000
0001
1000
0000
,
0001
0000
0100
0000
0000
0010
0000
0010
,
0000
1000
0001
0000
,
1000
0000
0001
0000
,
0100
0000
0000
0010
0000
0000
0100
0000
,
0002
0000
0003
0000
0020
0000
0030
0200
,
0000
0300
2000
0000
3000
0000
0000
0000
,
0000
2000
0000
3000
0020
0000
0030
0200
,
0000
0300
0002
0000
0003
0000
0000
0000
,
0000
0000
0000
0000
,
1000
0200
0000
0310
,
1000
0010
0001
1000
,
0002
0003
0200
0300
,
0020
0000
0000
0030
0000
0000
1000
0001
1000
0001
0000
0000
,
0001
0200
0000
0310
,
0001
0010
1000
0001
,
0202
0303
2020
3030
,
2002
0000
0000
3003
0000
0000
0100
0010
0100
0010
0000
0000
,
2000
0000
0000
3000
0000
0000
1000
0000
0001
0000
1000
0000
,
0002
0000
0000
0003
0000
0000
0001
0000
1000
0000
0001
0000
,
2000
3020
0230
0300
,
0002
0203
0320
0030
,
0200
0000
0000
0300
0000
0000
0100
0000
0010
0000
0100
0000
,
0020
0000
0000
0030
0000
0000
0010
0000
0100
0000
0010
0000
,
0200
0302
2003
3000
,
0020
2030
3002
0003
,
2000
0000
3100
0010
,
0011
0000
0000
0110
0000
0000
1100
0000
0000
1000
0001
1000
,
0001
0000
0000
0100
0000
0000
0000
0000
0000
0001
1000
0001
,
1000
0000
0000
0100
0000
0000
0000
0000
0000
1000
0100
0010
,
0001
0101
1000
1100
,
0002
0000
0000
0203
0000
0000
0320
0000
0000
1030
0001
1000
,
0001
0000
0000
0010
0000
0000
0000
0000
0000
0001
1000
0001
,
1000
0000
0000
0010
0000
0000
0000
0000
0000
1000
0100
0010
,
0001
0000
0000
0000
,
0001
0000
2000
0002
0000
0000
0000
0000
,
0000
3003
0000
0100
,
0010
1000
0000
0001
,
0100
0000
0010
1000
0000
0001
0000
0000
,
2002
0000
0000
3003
,
0000
1000
0100
1000
,
0001
0000
0001
0000
,
1000
0000
0000
0000
1000
0000
0000
2002
,
0000
0000
0000
0000
,
3003
0000
0000
0001
,
1000
0000
0000
0010
0000
0000
1000
0000
,
0000
0000
0100
0010
,
2002
0000
0000
3003
,
0000
0000
1000
0000
0100
0000
0010
0001
,
0000
1000
0000
0001
0000
1000
0000
0000
,
0002
0000
0003
0000
2000
0000
3000
2002
,
0000
3003
2000
3000
,
0200
0000
0300
0000
0020
0000
0030
1001
,
0000
0000
0000
0000
,
0001
0000
0010
0100
0000
0000
0000
0000
,
1000
0100
0010
0001
,
0100
0010
1000
0000
,
0001
0010
0001
0010
,
0001
1000
0001
1000
,
0001
0000
0000
1000
,
0100
1000
0100
1000
,
0001
1000
0001
1000
,
0010
0100
0010
0100
,
0110
0000
0100
0010
,
0100
0001
0100
0001
,
1000
0001
1000
0001
,
1000
0010
0001
0010
,
1000
0000
0000
0000
,
0000
0000
1001
0000
,
0101
0000
0000
0000
,
0001
1000
0001
1000
,
1001
0000
0000
0000
,
0000
0000
1001
0000
,
1100
0000
0000
0000
,
1000
0100
0010
0001
,
1000
0001
0000
0000
0000
0000
0001
1000
,
0000
0000
0000
0000
1000
0001
0000
0000
,
1000
0100
0001
0100
,
1000
0000
0000
0001
0000
0000
0100
0000
,
0010
0000
0000
0100
0000
0000
0220
0000
,
0000
0000
0000
0330
;

//---------------dance-single - ----------------
#NOTES:
     dance-single:
     :
     Beginner:
     5:
     0.220066,0.377176,0.150870,0.023822,0.000000,194.000000,175.000000,19.000000,3.000000,0.000000,0.000000,0.220066,0.377176,0.150870,0.023822,0.000000,194.000000,175.000000,19.000000,3.000000,0.000000,0.000000:
0000
0000
0000
0000
,
1000
0000
0000
0000
,
0001
0000
0000
1000
,
0000
0000
0001
0000
,
0100
0000
0000
0000
,
0010
0000
0000
0000
,
0100
0000
0000
0010
,
0000
0000
0100
0000
,
0001
0000
0000
0000
,
1000
0000
0000
0000
,
1000
0000
0000
0000
,
0001
0000
0001
0000
,
0001
0000
0001
0000
,
0010
0000
0000
0000
,
0010
0000
0000
0000
,
0100
0000
0100
0000
,
0100
0000
0010
0000
,
0001
0000
1000
0000
,
1000
0000
0000
0000
,
1001
0000
0000
0000
,
0010
0000
0000
0000
,
0100
0000
0100
0000
,
0001
0000
0000
0000
,
0100
0000
0000
0000
,
0010
0000
0000
0000
,
1000
0000
1000
0000
,
1000
0000
1000
0000
,
1000
0000
0000
0000
,
0100
0000
0010
0000
,
0010
0000
0001
0000
,
0001
0000
1000
0000
,
0001
0000
0000
0000
,
0100
0000
0010
0000
,
0010
0000
1000
0000
,
1000
0000
0001
0000
,
1000
0000
0000
0000
,
0100
0000
0000
0000
,
0001
0000
0000
0000
,
0100
0000
0000
0000
,
1000
0000
0000
0000
,
0100
0000
0000
0000
,
0010
0000
0010
0000
,
0001
0000
0001
0000
,
2000
0000
0000
0000
,
0000
0000
3000
0000
,
0002
0000
0000
0000
,
0000
0000
0003
0000
,
0000
0000
0000
0000
,
0100
0000
0000
0010
,
0010
0010
0010
0010
,
0010
0000
1000
0000
,
0001
0000
0100
0100
,
0100
0000
0000
0001
,
0001
0001
0001
0001
,
0001
0000
1000
0000
,
0010
0000
0100
0000
,
0110
0000
0000
0000
,
1001
0000
0000
0000
,
0010
0010
0010
0000
,
1000
1000
1000
0000
,
1001
0000
0000
0000
,
0110
0000
0000
0000
,
0100
0100
0100
0000
,
0001
0001
0001
0000
,
1000
0000
0001
0000
,
0100
0100
0100
0000
,
0110
0000
0000
0000
,
1001
0000
0000
0001
,
0001
0001
0001
0000
,
0100
0100
0100
0000
,
0110
0000
0000
0000
,
1001
0000
0000
1000
,
1000
0000
0000
0000
,
1001
0000
0000
0000
,
0000
0000
0000
0000
,
1000
0000
0000
0000
,
0100
0000
0000
0000
,
0110
0000
0000
0000
,
0000
0000
0001
0000
,
0001
0000
0001
0000
,
0001
0000
1000
0000
,
1001
0000
0000
0000
,
0000
0000
0000
0000
,
1000
0000
0000
0010
,
0000
0000
0010
0000
,
0110
0000
0000
0000
,
0000
0100
0000
0100
,
0000
0000
0000
0000
,
1001
0000
0000
0000
,
1001
0000
1000
0000
,
0001
0000
1000
0000
,
0001
0000
0000
0000
,
0100
0000
0000
0000
,
0100
0000
0000
0000
,
0010
0000
0000
0000
,
0010
0000
0000
0000
,
0100
0000
0000
0000
,
0110
0000
0000
0000
,
1000
0000
1000
0000
,
0001
0000
0001
0000
,
1000
0000
1000
0000
,
0001
0000
0001
0000
,
1000
0000
1000
0000
,
0001
0000
0001
0000
,
1000
0000
1000
0000
,
1001
0000
0000
0000
,
0000
0000
0010
0000
,
0010
0000
0000
0000
,
0100
0000
0000
0000
,
0110
0000
0000
0000
,
0000
0000
0001
0000
,
0001
0000
0000
0000
,
1001
0000
0000
0000
,
1000
0000
0000
0001
,
0000
0000
1000
0000
,
0001
0000
0001
0000
,
0001
0000
0000
0000
,
1000
0000
0000
2000
,
0000
0000
0000
3000
;

//---------------dance-double - ----------------
#NOTES:
     dance-double:
     :
     Easy:
     11:
     0.412908,0.565764,0.134989,0.349384,0.099257,364.000000,347.000000,17.000000,44.000000,0.000000,0.000000,0.412908,0.565764,0.134989,0.349384,0.099257,364.000000,347.000000,17.000000,44.000000,0.000000,0.000000:
00000000
00000000
00000000
00000000
,
10000000
00000000
01000000
00000000
00000000
10000000
00000000
00000000
,
01000000
00000000
00000000
00010000
00000000
00000000
00001000
00000000
,
00000000
00000100
00000000
00000000
00000001
00000000
00000010
00000000
,
00000001
00000000
00000000
00001001
00000000
00000000
00000000
00000000
,
00000001
00000000
00000100
00000000
00000000
00000001
00000000
00000000
,
00000100
00000000
00000000
00001000
00000000
00000000
00010000
00000000
,
00000000
01000000
00000000
00000000
10000000
00000000
00100000
00000000
,
10000000
00000000
00000000
10010000
00000000
00000000
00000000
00000000
,
01020000
00000000
00000000
00000000
00000000
00000000
00030000
00120000
,
00000000
00000000
00030000
00000000
,
00100000
00001000
00100000
00000000
00001000
00000000
00010000
00000000
,
00000100
00000000
00000000
00000010
00000000
00000000
00000000
00000000
,
00000012
00000000
00000000
00000000
00000000
00000000
00000003
00000102
,
00000000
00000000
00000003
00000000
,
00000100
00000010
00000100
00000000
00000010
00000000
00010000
00000000
,
00001000
00000000
00000000
00100000
01000000
00000000
01000000
00000000
,
20000000
00000000
00000000
00000000
30100000
01000000
00000000
00020000
,
00000000
00000000
00000000
00030000
,
01000000
00000000
00100000
00010000
00000000
00001000
00000000
00000020
,
00000000
00000000
00000001
00000031
,
00002000
00000000
00000000
00000000
00003010
00000100
00000000
00000002
,
00000000
00000000
00000000
00000003
,
00000100
00000000
00000010
00010000
00000000
00000000
00001000
00000000
,
01000000
00100000
00000000
00000000
10000000
00000000
00010000
01000000
,
00010000
00010000
00100000
00100000
,
01000000
01000000
10000000
10000000
,
00010000
00100000
00010000
01000000
00000000
00001000
00000000
00010000
,
00000000
00000100
00000100
00000100
,
00002000
00000000
00000000
00000000
00003010
00000000
00000100
00000002
,
00000000
00000000
00001003
00000001
,
00001000
00000100
00001000
00000010
00000000
00010000
00000000
00001000
,
00000000
01000000
01000000
01000000
,
00200000
00000000
00300000
00000000
10000000
00010000
10000000
00000000
,
00100000
00000000
00000000
00100000
00000000
00000000
01000000
00000000
,
00010000
00000000
00200000
00000000
00000000
00010000
00000000
00310000
,
00000000
01000000
00001000
01000000
,
00001000
00000000
00020000
00000000
00000000
00000100
00000000
00030100
,
00000000
00001000
00000010
00001000
,
00000010
00000000
00000200
00000000
00000000
00000001
00000000
00000301
,
00000000
00001000
00000001
00001000
,
00000001
00000000
00000000
00000000
00000100
00000010
00000100
00000000
,
00000010
00000000
00000000
00010000
00000000
00000000
00001000
00000000
,
02000000
00000000
03000000
00000000
02000000
00000000
03000000
00200000
,
00000000
00300000
00200000
00000000
00300000
00000000
00000000
00000000
,
00000000
00001000
00000000
00000000
00010000
00000000
00000000
00000200
,
00000000
00000300
00000200
00000000
00000300
00000000
00000000
00000000
,
00002002
00000003
00000010
00003010
,
00001000
00000000
00000100
00001000
00000000
00000000
00000001
00000000
00000000
00000010
00000000
00000000
,
00001000
00010000
00100000
10000000
,
00010000
00000000
00100000
00000000
00010000
00000000
00100000
00000000
01000000
00000000
00100000
00000000
,
01000000
00000000
10000000
00000000
01000000
00000000
10000000
00000000
00000000
00010000
00000000
00000000
,
10000000
00000000
00100000
10000000
00000000
00000000
00010000
00000000
00000000
01000000
00000000
00000000
,
00100000
00010000
00001000
00000010
,
00000001
00000000
00001000
00000000
00000001
00000000
00001000
00000000
00000010
00000000
00001000
00000000
,
00000010
00000000
00000100
00000000
00000010
00000000
00000100
00000000
00000000
00000100
00000000
00000000
,
00000002
00000000
00000023
00000000
,
00002030
00000000
00023000
00000000
,
00130000
00000000
00000000
10000000
00000000
00000000
00010000
00000000
00000000
00000000
01000000
00000000
,
00010000
00000000
00000000
10000000
00000000
00000000
00100000
00000000
00000000
00000000
00010000
00000000
,
00002000
00000000
00003020
00000000
,
00000032
00000000
00000203
00000000
,
00001300
00000000
00000000
00010000
00000000
00000000
01000000
00000000
00000000
00000000
10000000
00000000
,
00010000
01000000
00100000
01000000
,
00010000
00010000
10000000
10000000
,
00100000
00010000
00001000
00000010
,
00000001
00000000
00001000
00000001
00000000
00000000
00000000
00000000
00000000
00000010
00000000
00000000
,
00001000
00000000
00000001
00001000
00000000
00000000
00000000
00000000
00000000
00000010
00000100
00000010
,
00000100
00001000
00010000
01000000
,
10000000
10000000
00010000
00010000
,
01000000
00000000
00100000
01000000
00000000
00000000
00000000
00000000
00000000
10000000
00000000
00000000
,
00100000
00000000
01000000
00100000
00000000
00000000
00000000
00000000
00000000
10000000
00010000
10000000
,
00020000
00000000
00030000
00000000
,
10000000
00000000
01000000
00200000
00000000
00000000
00000000
00000000
,
00000000
00300000
00000000
00001000
,
00010000
00000000
00000100
00000000
00000000
00001000
00000000
00000000
,
00000010
00000000
00000000
00001000
00000000
00000001
00000000
00000000
,
00002002
00000000
00000000
00003003
,
00000000
00000001
00000100
00000001
,
00000010
00000000
00001000
00000000
,
00010000
00000000
00000000
00000000
00100000
00000000
00000000
20000000
,
00000000
00000000
00000000
00000000
,
30000000
00000000
00000000
00000000
00000000
00000000
00010000
10000000
,
00010000
00000000
00000000
01000000
00000000
00000000
00100000
00000000
,
00000000
00000000
01000000
00100000
,
02000000
00000000
00000000
03000000
,
00000000
00001000
00010000
00000100
,
00000000
00001000
00000000
00000010
00000000
00001000
00000000
00000000
,
00001010
00000000
00000000
00000000
00000101
00000000
00000000
00000002
,
00000000
00000000
00000023
00000000
,
00002030
00000000
00000000
00000000
00023000
00000000
00000000
00130000
,
00000000
00000000
00000000
00000000
00000000
00000000
00000000
10000000
,
00010000
00000000
01000000
00000000
00000000
00100000
00000000
00000000
,
01000000
00010000
01000000
00000000
,
00001000
00010000
00001000
00000000
,
00010000
00000000
00001000
00000000
,
00000100
00000000
00000001
00000000
,
00001001
00000000
00000000
00000100
,
00000010
00000100
00000001
00000000
,
00000010
00000100
00001000
00000000
,
00010000
00001000
01000000
00000000
,
00100000
10000000
00010000
00000000
,
01000000
00001000
00010000
00000000
,
00000100
00000000
00001000
00000000
,
00000010
00000000
00000100
00000000
,
00000101
00000000
00000000
00000000
,
00000000
00000000
00001001
00000000
,
00010100
00000000
00000000
00000000
,
00010000
00001000
00010000
00001000
,
01000000
00000000
00000000
00000000
,
00000000
00000000
01010000
00000000
,
10010000
00000000
00000000
00000000
,
10000000
00010000
10000000
00010000
,
01000000
00000000
00000000
00011000
,
00000000
00000000
00000010
00000000
,
00000100
00000010
00000100
00000010
,
00001000
00000000
00000000
00000001
00000000
00000000
00000100
00000000
,
00000020
00000000
00000000
00020000
00000030
00000000
00002000
00000000
,
00000000
00000000
00000000
00033000
;

//---------------dance-double - ----------------
#NOTES:
     dance-double:
     :
     Challenge:
     18:
     0.950596,1.225821,0.730530,0.134989,0.532016,838.000000,746.000000,92.000000,17.000000,0.000000,0.000000,0.950596,1.225821,0.730530,0.134989,0.532016,838.000000,746.000000,92.000000,17.000000,0.000000,0.000000:
00000000
00000000
00000000
00000000
,
11000000
00000000
00110000
00000000
00000000
11000000
00000000
00100000
,
00010000
00000000
01000000
00100000
00000000
00010000
00001000
00000000
,
00000010
00000001
00000000
00001000
00000010
00000000
00000100
00000001
,
00001001
00000000
00000010
00000100
00000000
00000001
00001000
00000000
,
00000101
00000000
00001010
00000000
00000000
00000101
00000000
00000010
,
00001000
00000000
00000010
00000100
00000000
00001000
00010000
00000000
,
01000000
10000000
00000000
00100000
01000000
00000000
00010000
10000000
,
00100000
01000000
10010000
00000000
01100000
00000000
10010000
10000000
,
01000000
00100000
00010000
00100000
01000000
10000000
00100000
01000000
,
00010000
00100000
01000000
10000000
01000000
00100000
00010000
10000000
,
01000000
00010000
00001000
00000100
00000000
00000101
00000000
00000001
,
00001000
00000000
00000010
00000100
00000000
00000010
00001000
00000001
,
00000100
00000010
00001000
00000010
00000100
00000001
00001000
00000010
,
00000100
00000001
00001000
00000001
00000100
00000010
00001000
00000001
,
00000100
00001000
00010000
01000000
00000000
11000000
00000000
10000000
,
00100000
00000000
01000000
00010000
10000000
00100000
10000000
00100000
,
10100000
00000000
01000000
00000000
00100000
00001000
00000000
00011000
,
00000000
00010000
00000100
00001000
00000010
00000100
00000001
00000010
,
00000100
00000100
00000000
00001100
00000000
00010100
00000000
00022000
,
00000000
00000000
00033000
00000000
00001000
00000000
00010000
00001000
,
00011000
00000000
00010000
00000000
00001000
00000100
00000000
00000101
,
00000000
00000001
00001000
00000010
00000100
00000010
00001000
00000001
,
00000010
00000000
00000100
00001000
00000000
00000000
00001010
00000000
,
00000010
00010000
00000000
00000000
00011000
00000000
00100000
00010000
,
01000000
00100000
01000000
00100000
10000000
00100000
10000000
00100000
,
00010000
00001000
00010000
00001000
00000010
00000001
00000010
00000001
,
00001000
00000100
00000010
00000001
00000000
00001001
00000000
00000201
,
00000000
00010000
00010000
00010300
,
00000100
00000000
00000000
00000000
00000010
00001000
00010000
00100000
,
10000000
00000000
00010000
00000000
10000000
00010000
10000000
00010000
,
10000000
01000000
00100000
00010000
00000000
10010000
00000000
12000000
,
00000000
00001000
00001000
03001000
,
01000000
00000000
00000000
00000000
00010000
00001000
00000100
00000000
,
00000101
00000000
00000001
00001000
00000001
00001000
00000010
00000100
,
00000010
00000100
00000001
00001000
00000000
00000101
00000000
00001100
,
00000000
00010000
01000000
10000000
,
00100000
01000000
00010000
10000000
00000000
11000000
00000000
01010000
,
00000000
00001000
00000100
00000001
,
00001000
00000010
00000100
00000001
00000000
00000011
00000000
00001010
,
00000000
00010000
00100000
10000000
,
20020000
00000000
30030000
00000000
00100000
01000000
00010000
00000000
,
10010000
00000000
00000000
00011000
00000000
00000000
00001001
00000000
,
00000001
00000100
00000010
00001000
00000100
00000010
00000001
00000100
,
00000010
00001000
00000100
00000010
00001000
00010000
00100000
10000000
,
00010000
01000000
00100000
10000000
01000000
00100000
00010000
01000000
,
00100000
10000000
01000000
00100000
00010000
01000000
00100000
10000000
,
01000000
00000000
00010000
00000000
00000000
00001000
00000100
00000000
00000000
00000101
00000000
00000000
,
00000001
00001000
00000010
00001000
00000000
00000100
00000010
00001000
00010000
00100000
00000000
00000000
,
10000000
01000000
00010000
01000000
10000000
00100000
00010000
00001000
00000010
00000001
00000000
00000000
,
00000101
00000000
00000101
00000000
00001001
00000000
00000101
00000000
00001100
00000000
00011000
00000000
,
01010000
00000000
01010000
00000000
11000000
00000000
10000000
00100000
01000000
00010000
00100000
01000000
,
10000000
00000000
00100000
01000000
00000000
00000000
01010000
00000000
01000000
00100000
00000000
00000000
,
00010000
00001000
00000010
00000001
00000100
00000010
00000100
00000001
00000010
00000100
00000000
00000000
,
00011000
00000000
00011000
00000000
00010000
00100000
10000000
00000000
10100000
00000000
10000000
01000000
,
00010000
00000000
01010000
00000000
00011000
00000000
00010000
00001000
00000100
00000001
00000010
00001000
,
00010000
00001000
00010000
00001000
00011000
00000000
00101000
00000000
00110000
00000000
10010000
00000000
,
10000000
01000000
10000000
01000000
10000000
01000000
11000000
00000000
01100000
00000000
00011000
00000000
,
00001000
00000100
00000010
00001000
00000010
00000100
00001000
00010000
01000000
10000000
00100000
01000000
,
00100000
00010000
00001000
00000010
00000001
00000100
00000010
00001000
00000100
00000010
00000001
00000100
,
00000001
00000010
00000001
00000010
00000001
00000010
00000011
00000000
00000110
00000000
00011000
00000000
,
00100000
00010000
00100000
00010000
00100000
00010000
00110000
00000000
10010000
00000000
10100000
00000000
,
10000000
01000000
00100000
10000000
00100000
00010000
01000000
00100000
00010000
00001000
00000100
00000001
,
00001000
00000010
00000100
00001000
00000100
00000001
00000010
00001000
00010000
00100000
10000000
00010000
,
01000000
00000000
01000000
00100000
00000000
00100000
10000000
00000000
10000000
00010000
00000000
00010000
,
10010000
00000000
00000000
01010000
00000000
00000000
10010000
00000000
00000000
10000000
00100000
00010000
,
00001000
00000000
00000010
00000001
00000000
00000000
00001001
00000000
00000000
00000001
00000010
00001000
,
00010000
00000000
00100000
10000000
00000000
00000000
01000000
00010000
00001000
00000100
00000001
00001000
,
00000010
00000000
00000010
00000100
00000000
00000100
00000001
00000000
00000001
00001000
00000000
00001000
,
00001001
00000000
00000000
00001010
00000000
00000000
00001001
00000000
00000000
00000001
00000100
00001000
,
00010000
00000000
01000000
10000000
00000000
00000000
10010000
00000000
00000000
10000000
01000000
00010000
,
00001000
00000000
00000100
00000001
00000000
00000000
00000010
00001000
00010000
00100000
10000000
00010000
,
02000000
00000000
00000000
00000000
03000000
00000000
00000000
00000000
00100000
01000000
00001000
00010000
00000100
00001000
00000010
00000000
,
00001001
00000000
00000010
00000100
00010000
00001000
00010000
00001000
,
01000000
00100000
01000000
00100000
10000000
00010000
10000000
00010000
,
10000000
01000000
00100000
00001000
00000000
00010000
00000100
00001000
,
00000010
00000000
00000100
00000001
00000000
00001001
00000000
00000000
,
00000101
00000000
00000001
00001000
00000010
00010000
00000010
00010000
,
00001000
01000000
00100000
10000000
00100000
10000000
01000000
00100000
,
00001000
00010000
00001000
00100000
01000000
10000000
01000000
00100000
,
00001000
00010000
00001000
00100000
01000000
00000000
00000000
10000000
,
01000000
10000000
01000000
10000000
00100000
01000000
00100000
01000000
,
00100000
00010000
00100000
00010000
00001000
00000100
00001000
00000100
,
00000002
00000000
00000000
00002000
00000000
00003003
00002002
00000000
,
00000000
00000000
00003003
00000000
00000001
00000100
00000010
00010000
,
00001000
01000000
00001000
01000000
00100000
10000000
00100000
10000000
,
01000000
00100000
00010000
01000000
00100000
01000000
00000000
00100000
,
00000000
00010000
00000000
00001000
00000000
00000010
00000000
00000001
,
00001000
00000100
00001000
00000000
00000000
00000000
00000000
00000000
00000001
00000010
00000001
00000000
00000000
00000000
00000020
00000000
,
00000000
00000030
00000000
00000000
00002000
00000000
00003000
00000000
,
00200000
00000000
00300000
00000000
20000000
00000000
30000000
10010000
,
00000000
00000000
00000000
00000000
00000000
00000000
00000000
00001000
,
00010000
00000010
00000100
00000010
00010000
00001000
00000000
00010000
,
00100000
10000000
00010000
01000000
,
00100000
00000000
00010000
00000000
00001000
00000000
00000000
00000001
,
00000010
00001000
00010000
00100000
10000000
01000000
00100000
01000000
,
10000000
00100000
10000000
00100000
01000000
00001000
01000000
00001000
,
00010000
00000000
00000000
00000000
00000000
00000000
00000010
00000100
,
00000001
00000100
00000001
00000100
00001000
00010000
00001000
00010000
,
01000000
10000000
01000000
10000000
00100000
00010000
00100000
00010000
,
00001000
00000010
00001000
00000010
00000001
00001000
00000001
00001000
,
00000100
00000010
00000100
00000010
00001000
00010000
00001000
00010000
,
01000000
10000000
01000000
10000000
00100000
00010000
00001000
00000010
,
00000001
00000100
00000001
00000100
00000010
00001000
00000010
00001000
,
00000100
00000010
00000100
00000000
00000010
00000000
00000100
00000000
00000010
00000000
00000100
00000000
00000010
00000000
00000100
00000000
,
00000010
00000001
00000000
00001001
00000000
00001100
00000000
00001000
,
00000010
00000100
00000010
00000000
00000000
00000000
00000100
00000000
00000001
00000000
00000000
00000000
00000000
00000000
00000000
00000000
,
00001001
00000000
00000100
00010000
00000000
00011000
00000000
00001000
,
01000000
01100000
01001000
00011000
,
00010100
00000000
00000100
00000010
00000000
00001001
00000000
00001000
,
00000001
00000010
00000001
00000000
00000000
00000000
00000010
00000000
00000100
00000000
00000000
00000000
00000000
00000000
00000000
00000000
,
00011000
00000000
00100000
00010000
00000000
01010000
00000000
10000000
,
00100000
01000000
00100000
01000000
00001000
00010000
00000010
00000100
,
00000001
00000100
00000000
00000000
00000000
00000000
00001000
00010000
,
00000000
00000000
00000000
00000000
01000000
10000000
00000000
00000000
,
10100000
01000000
00110000
01000000
,
00100000
00000000
00010000
00001000
00000000
00000010
00000001
00000010
,
00000001
00000100
00000000
00001000
00000000
00000000
00022000
00000000
,
00000000
00000000
00000000
00033000
;

//---------------dance-double - ----------------
#NOTES:
     dance-double:
     :
     Hard:
     16:
     0.846235,1.228402,0.500254,0.182632,0.472462,746.000000,683.000000,63.000000,23.000000,0.000000,0.000000,0.846235,1.228402,0.500254,0.182632,0.472462,746.000000,683.000000,63.000000,23.000000,0.000000,0.000000:
// measure 0
00000000
00000000
00000000
00000000
,  // measure 1
10000000
00000000
01000000
00000000
00000000
00010000
00000000
00001000
,  // measure 2
00000100
00000000
00000000
00000001
00000000
00001000
00000010
00000000
,  // measure 3
00000000
00000100
00000000
00001000
00010000
00000000
01000000
10000000
,  // measure 4
00100000
00010000
00001000
00000000
00000010
00000000
00000000
00000000
,  // measure 5
00000001
00000000
00000100
00000000
00000000
00001000
00000000
00010000
,  // measure 6
01000000
00000000
00000000
10000000
00000000
00010000
01000000
00000000
,  // measure 7
00000000
00100000
00000000
00010000
00001000
00000000
00000010
00000001
,  // measure 8
00000100
00000010
00000100
00000000
00001001
00000000
00000010
00000100
,  // measure 9
00000010
00010000
00001000
00000000
00100000
00010000
01000000
00100000
,  // measure 10
10000000
01000000
00100000
00000000
00010000
01000000
00100000
00000000
,  // measure 11
00010000
00001000
00000100
00000001
00000000
00001000
00000000
00000010
,  // measure 12
00000100
00000000
00001000
00010000
01000000
00000000
10000000
00010000
,  // measure 13
10000000
00100000
01000000
00000000
00010000
01000000
00100000
10000000
,  // measure 14
00010000
01000000
00100000
00000000
00010000
00001000
00000100
00000000
,  // measure 15
00000001
00000010
00001000
00010000
00000000
00100000
00000000
10000000
,  // measure 16
00010000
00000000
01000000
00100000
01000000
00010000
01000000
00010000
,  // measure 17
00100000
00001000
00010000
00000000
00000100
00001000
00000000
00000010
,  // measure 18
00000000
00000100
00000001
00000000
00001000
00000010
00000100
00000000
,  // measure 19
00000001
00000001
00000000
00000010
00000000
00001000
00000000
00010000
,  // measure 20
00100000
00000000
10000000
00000000
00010000
01000000
00100000
00000000
,  // measure 21
10000000
01000000
00100000
00000000
01000000
00010000
00000000
00001000
,  // measure 22
00000000
00000100
00000001
00000000
00001000
00000010
00000100
00000000
,  // measure 23
00001001
00000000
00000001
00001000
00000000
00000000
00000110
00000000
,  // measure 24
00000010
00010000
00000000
00000000
00011000
00000000
00001000
01000000
,  // measure 25
00100000
10000000
01000000
00100000
00001000
00010000
00000100
00001000
,  // measure 26
00000010
00000100
00000001
00001000
00000010
00000100
00000010
00000100
,  // measure 27
00000010
00001000
00000100
00000010
00000000
00000011
00000000
00002001
,  // measure 28
00000000
00000100
00000100
00003100
,  // measure 29
00010100
00000000
00010000
00000000
00001000
01000000
00100000
10000000
,  // measure 30
00100000
00000000
01000000
00000000
00010000
10000000
00100000
01000000
,  // measure 31
00010000
00100000
01000000
10000000
00000000
11000000
00000000
00120000
,  // measure 32
00000000
01000000
01000000
01030000
,  // measure 33
01001000
00000000
00010000
00000000
00001000
00010000
00000100
00000000
,  // measure 34
00000220
00000000
00000330
00000022
00000000
00000033
00001001
00000000
,  // measure 35
00000001
00000100
00000010
00001000
00000000
00001100
00000000
00010100
,  // measure 36
00000000
00010000
00001000
01000000
,  // measure 37
00100000
10000000
00010000
01000000
00000000
01010000
00000000
01001000
,  // measure 38
00000000
00001000
00010000
00000100
,  // measure 39
00001000
00000010
00000100
00000001
00000000
00000101
00000000
00001010
,  // measure 40
00000000
00000100
00010000
00001000
,  // measure 41
00011000
00000000
00000000
00000000
00100000
00010000
01000000
00000000
,  // measure 42
02200000
00000000
03300000
20200000
00000000
30300000
10010000
00000000
,  // measure 43
10000000
01000000
00100000
00010000
01000000
00100000
10000000
00010000
,  // measure 44
10000000
01000000
00100000
00001000
00010000
00000100
00000010
00000001
,  // measure 45
00001000
00000010
00000100
00000001
00001000
00000001
00000100
00000010
,  // measure 46
00010000
00001000
00100000
00010000
01000000
00100000
10000000
00010000
,  // measure 47
10000000
00000000
00010000
00000000
00000000
00001000
00000001
00000000
00000000
00001001
00000000
00000000
,  // measure 48
00000010
00001000
00000001
00000100
00000000
00000100
00001000
00000000
00001000
00010000
00000000
01000000
,  // measure 49
10000000
00000000
00000000
00100000
00000000
00100000
00010000
00000000
00010000
00001000
00000000
00000010
,  // measure 50
00000001
00000000
00000001
00000000
00000001
00000000
00000100
00000000
00000100
00000000
00000100
00000000
,  // measure 51
00001000
00000000
00001000
00000000
00001000
00000000
00010000
01000000
10000000
01000000
00010000
01000000
,  // measure 52
10000000
00100000
01000000
00010000
00000000
00010000
01000000
00000000
01000000
00100000
00000000
00010000
,  // measure 53
00001000
00000000
00000000
00000011
00000000
00000001
00001000
00000000
00000000
00000110
00000000
00000000
,  // measure 54
00000010
00000000
00000010
00000000
00000010
00000100
00001000
00000000
00001000
00000000
00001000
00010000
,  // measure 55
01000000
00000000
01000000
00000000
01000000
10000000
00100000
00010000
00001000
00000100
00001000
00010000
,  // measure 56
00100000
10000000
00100000
10000000
10100000
00000000
01010000
00000000
10100000
00000000
01010000
00000000
,  // measure 57
10000000
01000000
10000000
01000000
11000000
00000000
00110000
00000000
11000000
00000000
00110000
00000000
,  // measure 58
00010000
10000000
00010000
10000000
01000000
10000000
01000000
00010000
01000000
00010000
00001000
00010000
,  // measure 59
00001000
00000010
00001000
00000010
00000001
00000010
00000001
00001000
00000001
00001000
00000010
00001000
,  // measure 60
00000010
00000100
00000010
00000100
00000110
00000000
00001001
00000000
00000110
00000000
00001001
00000000
,  // measure 61
00000001
00000100
00000001
00000100
00000101
00000000
00001010
00000000
00000101
00000000
00001010
00000000
,  // measure 62
00000010
00000100
00000010
00000100
00001000
00000100
00001000
00010000
00001000
00010000
01000000
00010000
,  // measure 63
01000000
10000000
01000000
10000000
00100000
10000000
00100000
01000000
00100000
01000000
00010000
01000000
,  // measure 64
00010000
00000000
10000000
00010000
00000000
01000000
00010000
00000000
00100000
00010000
00000000
00010000
,  // measure 65
01000000
00000000
00000000
01010000
00000000
00000000
01001000
00000000
00000000
00001000
00010000
00001000
,  // measure 66
00010000
00000000
00001000
00000100
00000000
00000000
00011000
00000000
00000000
00010000
00001000
00010000
,  // measure 67
00001000
00000000
00010000
00100000
00000000
00000000
00010000
00001000
00000100
00000001
00001000
00000010
,  // measure 68
00000100
00000000
00000001
00000100
00000000
00001000
00000100
00000000
00000010
00000100
00000000
00000100
,  // measure 69
00000010
00000000
00000000
00001010
00000000
00000000
00010010
00000000
00000000
00001000
00010000
00001000
,  // measure 70
00010000
00000000
01000000
00010000
00000000
00000000
00011000
00000000
00000000
00010000
00001000
00010000
,  // measure 71
00001000
00000000
00000010
00001000
00000000
00000000
00010000
01000000
10000000
01000000
00010000
01000000
,  // measure 72
20000000
00000000
30000000
00000000
10000000
00010000
01000000
00010000
,  // measure 73
01010000
00000000
00010000
00100000
01000000
10000000
01000000
10000000
,  // measure 74
00100000
01000000
00100000
01000000
00010000
01000000
00010000
00100000
,  // measure 75
00001000
00010000
00000010
00000100
00000000
00000010
00000100
00000001
,  // measure 76
00001000
00000000
00000100
00010000
00000000
00011000
00000000
00000000
,  // measure 77
00202000
00000000
00000000
00303000
,  // measure 78
00000000
00000000
00010000
10000000
00100000
01000000
00010000
00100000
,  // measure 79
00001000
00010000
00000100
00000010
00000001
00001000
00000010
00000100
,  // measure 80
00000001
00000010
00000100
00010000
00001000
00000000
00000000
00022000
,  // measure 81
00000000
00000000
00033000
00000000
00100000
00001000
00100000
00001000
,  // measure 82
00010000
00000100
00010000
00000100
00001000
00000010
00001000
00000010
,  // measure 83
00000100
00000000
00000000
00000101
00000000
00000000
00002002
00000000
,  // measure 84
00000000
00000000
00003003
00000000
00000001
00000100
00000010
00000100
,  // measure 85
00000001
00000010
00000001
00000010
00000100
00010000
00000100
00010000
,  // measure 86
00001000
00010000
00001000
01000000
00100000
10000000
00100000
01000000
,  // measure 87
00001000
00010000
00000000
00100000
00000000
00010000
00000000
00001000
,  // measure 88
00000100
00000000
00000000
00000000
00000101
00000000
00000000
00001002
,  // measure 89
00000000
00000003
00000020
00000030
,  // measure 90
00002000
00000000
00003000
00000000
00200000
00000000
00300000
10010000
,  // measure 91
00000000
00000000
00000000
00000000
00000000
00000000
00000000
00010000
,  // measure 92
01000000
00100000
01000000
00010000
00000000
00100000
00000000
00010000
,  // measure 93
01000000
00100000
00010000
00001000
,  // measure 94
00000010
00000000
00000001
00000000
00001001
00000000
00000000
00000010
,  // measure 95
00000100
00000001
00000100
00000001
00001000
00000001
00001000
00000001
,  // measure 96
00001000
00000100
00001000
00000100
00010000
00000100
00010000
00000100
,  // measure 97
00010000
00000000
00000000
00000000
00000000
00000000
00001000
01000000
,  // measure 98
00100000
10000000
00100000
01000000
00100000
10000000
00100000
01000000
,  // measure 99
00010000
00100000
00010000
01000000
00010000
00100000
00010000
01000000
,  // measure 100
00001000
00010000
00000100
00000010
00000001
00001000
00000010
00000100
,  // measure 101
00000001
00001000
00000010
00001000
00000001
00000010
00000100
00000010
,  // measure 102
00000001
00000100
00000010
00010000
00001000
01000000
00100000
10000000
,  // measure 103
00010000
00100000
01000000
00100000
00010000
10000000
00100000
10000000
,  // measure 104
00010000
01000000
00100000
10000000
00100000
01000000
00010000
10000000
,  // measure 105
00010000
00000000
00000000
00000000
,  // measure 106
00000000
00000000
01010000
00000000
,  // measure 107
00001010
00000000
00000000
00000000
,  // measure 108
00000001
00001000
00000010
00000100
,  // measure 109
00000110
00000000
00000000
00000000
,  // measure 110
00000000
00000000
00001010
00000000
,  // measure 111
01010000
00000000
00000000
00000000
,  // measure 112
10000000
00010000
01000000
00100000
10000000
00010000
01000000
00100000
,  // measure 113
10000000
01000000
00000000
00000000
00000000
00000000
00010000
00001000
,  // measure 114
00000000
00000000
00000000
00000000
00000100
00000001
00000000
00000000
,  // measure 115
00001000
00000010
00001000
00000010
,  // measure 116
00010000
00000000
00001000
00100000
00000000
01000000
10000000
01000000
,  // measure 117
10000000
00100000
00000000
00020000
00000000
00000000
00002000
00000000
,  // measure 118
00000000
00000000
00000000
00000000
,  // measure 119
00033000
00000000
00000000
00000000
;

//---------------dance-double - ----------------
#NOTES:
     dance-double:
     :
     Medium:
     14:
     0.643184,0.944924,0.420849,0.301741,0.361295,567.000000,514.000000,53.000000,38.000000,0.000000,0.000000,0.643184,0.944924,0.420849,0.301741,0.361295,567.000000,514.000000,53.000000,38.000000,0.000000,0.000000:
00000000
00000000
00000000
00000000
,
10000000
00000000
01000000
00000000
00000000
00100000
00000000
00010000
,
01000000
00000000
00000000
00010000
00000000
00100000
00001000
00000000
,
00000000
00010000
00000000
00010000
00000100
00000000
00001000
00000010
,
00000100
00000000
00000000
00000101
00000000
00000000
00000000
00000000
,
00000001
00000000
00000010
00000000
00000000
00000001
00000000
00000100
,
00000010
00000000
00000000
00001000
00000000
00000100
00000010
00000000
,
00000000
00000100
00000000
00000100
00010000
00000000
00001000
01000000
,
00100000
10000000
00100000
00000000
10100000
00000000
10000000
00010000
,
10000000
00000000
01000000
00000000
10000000
00000000
00100000
01000000
,
00000000
00010000
00100000
00010000
,
01000000
00001000
00010000
00000100
00000000
00001100
00000000
00001000
,
00000020
00000000
00000030
00000220
00000000
00000330
00000100
00000010
,
00000100
00000000
00000001
00000000
00000100
00000000
00000010
00001000
,
00000000
00000100
00001000
00000100
,
00000010
00000100
00010000
00001000
00000000
01000000
00000000
00100000
,
20000000
00000000
30000000
20020000
00000000
00000000
30030000
00000000
,
01100000
00000000
00000000
00000000
01000000
00100000
00000000
02020000
,
00000000
00000000
03030000
00000000
,
00010000
00010000
00000000
00100000
00000000
00001000
00000000
00022000
,
00000000
00033000
00010000
00000100
,
00001100
00000000
00000000
00000000
00001000
00000010
00000000
00000202
,
00000000
00000000
00000303
00000000
,
00001001
00000000
00000010
00001000
00000000
00000000
00010100
00000000
,
00010000
00001000
00000000
00000000
00110000
00000000
00100000
00010000
,
01000000
00100000
10000000
00100000
01000000
00010000
00100000
00010000
,
01000000
00001000
00010000
00001000
01000000
00100000
00010000
00001000
,
00000010
00000001
00000010
00000001
00000000
00000101
00000000
00000120
,
00000000
00010000
00010000
00010030
,
00010010
00000000
00000000
00000000
00010000
00001000
00010000
00002000
,
00000000
00000000
01003000
00000000
01000000
00100000
01000000
00000000
,
00100000
10000000
00010000
01000000
00000000
01010000
00000000
02100000
,
00000000
00001000
00001000
03001000
,
01001000
00000000
00000000
00000000
00001000
00010000
00001000
00000000
,
00011000
00000000
00000000
00010100
00000000
00000000
00000110
00000000
,
00000001
00000100
00000010
00001000
00000000
00001010
00000000
00010020
,
00000000
00001000
00001000
00001030
,
00010000
00001000
01000000
00100000
00000000
01100000
00000000
02001000
,
00000000
00100000
00100000
03100000
,
00100000
10000000
00010000
01000000
00000000
01010000
00000000
02001000
,
00000000
00010000
00010000
03010000
,
01010000
00000000
00000000
00000000
00100000
10000000
01000000
00000000
,
00010000
00000000
00000000
00001000
00000000
00000000
00000010
00000000
,
00000002
00000000
00000000
00000000
00000023
00000000
00000000
00002030
,
00000000
00023000
00000000
00000000
,
00030000
00200000
00000000
00000000
00320000
00000000
00000000
00032000
,
00000000
00003020
00000000
00000030
,
00000001
00000000
00000100
00000000
00000000
00001000
00010000
00000000
00000000
01000000
00000000
00000000
,
10000000
00000000
10000000
00010000
00000000
00000000
01000000
00000000
00000000
00100000
00000000
00000000
,
01100000
01010000
01001000
00011000
,
00010000
00000000
00001000
00000000
00000010
00000000
00001000
00000000
00010000
00000000
00100000
00000000
,
00010000
00000000
00001000
00000000
00000010
00000000
00000001
00001000
00000001
00001000
00000100
00001000
,
00000100
00000000
00000100
00000010
00000000
00000000
00000001
00000000
00000000
00001000
00000000
00000000
,
00001001
00001100
00010100
00011000
,
00001000
00000000
00010000
00000000
00100000
00000000
00010000
00000000
00001000
00000000
00000100
00000000
,
00001000
00000000
00010000
00000000
00100000
00000000
10000000
00010000
10000000
00010000
01000000
00010000
,
01000000
00100000
01000000
00100000
01000000
00000000
00100000
00000000
00010000
00000000
00001000
00000000
,
00000010
00000001
00000010
00000001
00000010
00000000
00000001
00000000
00001000
00000000
00000010
00000100
,
00000001
00000010
00000001
00001000
00000000
00000000
00000100
00000000
00000000
00000000
00010000
00000000
,
00001000
01000000
00100000
01000000
00000000
00000000
00010000
00000000
00000000
00000000
10000000
00000000
,
01000000
00100000
01000000
00100000
01000000
00000000
10000000
00000000
00100000
00000000
00010000
00000000
,
00001000
00000010
00001000
00000010
00001000
00000000
00000010
00000000
00000001
00000000
00000100
00000000
,
00000010
00000100
00000001
00000100
00000010
00000100
00000001
00000000
00000000
00000000
00001000
00000000
,
00000100
00010000
00001000
00010000
00000100
00010000
00001000
00000000
01000000
00000000
00100000
10000000
,
00010000
00000000
00100000
01000000
00000000
00100000
00010000
00000000
00100000
01000000
00000000
10000000
,
00100000
00000000
00000000
00010000
00000000
00000000
00001000
00000000
00000000
00000010
00000001
00000010
,
00000001
00000000
00000001
00001000
00000000
00000000
00001001
00000000
00000000
00000100
00010000
00000100
,
00010000
00000000
00010000
00001000
00000000
00000000
00100000
00001000
00010000
00000100
00001000
00000010
,
00000100
00000000
00000001
00000100
00000000
00000010
00000100
00000000
00001000
00000100
00000000
00000100
,
00000001
00000000
00000000
00001000
00000000
00000000
00001001
00000000
00000000
00000010
00010000
00000010
,
00010000
00000000
00010000
00001000
00000000
00000000
00011000
00000000
00000000
00100000
00010000
00100000
,
00010000
00000000
00010000
01000000
00000000
00000000
00100000
10000000
00010000
01000000
00100000
01000000
,
00010000
00000000
00000000
00000000
10000000
01000000
00010000
00001000
,
00000100
00000000
00000002
00002000
00000000
00000000
00000000
00000000
,
00000000
00000000
00003003
00000000
00000000
00000000
00000010
00000100
,
00000010
00000100
00000001
00000100
00000000
00000010
00001000
00000010
,
00001000
00000000
00000100
00010000
00000000
00010000
00000000
00000000
,
00022000
00000000
00000000
00000000
,
00033000
00000000
00100000
00010000
00100000
00000000
01000000
00000000
,
10000000
00100000
01000000
00010000
,
10000000
00100000
10000000
00000000
00010000
00000000
00000000
20020000
,
00000000
00000000
00000000
00000000
,
30030000
00000000
00000000
00000000
00000000
00000000
01000000
00010000
,
01000000
00000000
00000000
00001000
00000000
00000000
00020000
00000000
,
00000000
00000000
00030000
00000000
00000100
00001000
00000100
00001000
,
00000200
00000000
00000000
00000000
,
00000300
00000000
00000010
00000001
00000010
00000000
00000000
00000001
,
00000000
00001000
00000000
00000010
00000000
00000100
00000000
00000010
,
00010000
00000000
00000000
00000000
00001000
00000000
00000000
00022000
,
00000000
00033000
00101000
00000000
,
01100000
00000000
00000000
00000000
11000000
00000000
00000000
10010000
,
00000000
00000000
00000000
00000000
00000000
00000000
00000000
10000000
,
01000000
00010000
00001000
00000100
,
00000001
00000100
00000001
00000010
,
00000100
00000000
00001000
00000000
00000100
00000000
00000000
00000010
,
00000001
00000100
00001000
00010000
,
01000000
00000000
10000000
00000000
00100000
00000000
00100000
01000000
,
00100000
00000000
00000000
00000000
00000000
00000000
10000000
01000000
,
10000000
00100000
10000000
00100000
,
00010000
00001000
00010000
00001000
,
00000010
00000001
00000100
00000010
,
00001000
00000100
00001000
00000000
00000100
00000000
00010000
00000000
,
00001000
00100000
00010000
01000000
,
00100000
10000000
00100000
00000000
10000000
00000000
01000000
00000000
,
00100000
00010000
00100000
00010000
00100000
00001000
00100000
00001000
,
00010000
00000000
00000000
00000000
,
00000000
00000000
00011000
00000000
,
00010100
00000000
00000000
00000000
,
00000100
00001000
00000010
00000100
,
00000101
00000000
00000000
00000000
,
00000000
00000000
00001010
00000000
,
00010100
00000000
00000000
00000000
,
00010000
00001000
00010000
00001000
01000000
00100000
01000000
00100000
,
10000000
01000000
00000000
00000000
00000000
00000000
00010000
00001000
,
00000000
00000000
00000000
00000000
00000100
00000001
00000000
00000000
,
00000100
00000010
00000100
00000010
,
00010000
00000000
00000000
00001000
00000000
00000000
01000000
00000000
,
00100000
10000000
00000000
00010000
00000000
00000000
20020000
00000000
,
00000000
00000000
00000000
00000000
,
30030000
00000000
00000000
00000000
;
