#TITLE:A Palé;
#SUBTITLE:(Gesaffelstein Remix);
#ARTIST:Rosalía;
#TITLETRANSLIT:;
#SUBTITLETRANSLIT:;
#ARTISTTRANSLIT:;
#GENRE:Techno;
#CREDIT:;
#BANNER:apaleremix-bn.png;
#BACKGROUND:apaleremix-bg.png;
#LYRICSPATH:;
#CDTITLE:;
#MUSIC:A Palé (Gesaffelstein Remix).mp3;
#OFFSET:-0.030000;
#SAMPLESTART:23.420000;
#SAMPLELENGTH:11.999990;
#SELECTABLE:YES;
#BPMS:0.000000=123.000000
;
#STOPS:
;
#BGCHANGES:;
#KEYSOUNDS:;
#ATTACKS:;

//---------------dance-single - ----------------
#NOTES:
     dance-single:
     :
     Challenge:
     15:
     0.709806,0.710245,0.262370,0.016398,0.721519,606.000000,574.000000,32.000000,2.000000,0.000000,0.000000,0.709806,0.710245,0.262370,0.016398,0.721519,606.000000,574.000000,32.000000,2.000000,0.000000,0.000000:
0000
0000
0000
0000
,
0000
0000
0000
0000
,
0000
0000
0000
0000
,
0000
0000
0000
0000
,
1000
0100
1000
0000
0001
0100
0001
0000
1000
0100
1000
0000
0001
0100
0001
0000
,
1000
0100
1000
0000
0001
0100
0001
0000
1000
0100
1000
0000
1001
0000
0000
0000
,
0001
0010
0001
0000
1000
0010
1000
0000
0001
0010
0001
0000
1000
0010
1000
0000
,
0001
0000
0000
0010
0000
0000
0001
0000
0000
0000
0000
0000
1000
0000
0000
0010
0000
0000
1000
0000
0000
0000
0000
0000
0001
0000
0000
0010
0000
0000
0001
0000
0000
0000
0000
0000
1000
0000
0000
0000
0100
0000
0000
0000
0010
0000
0000
0000
,
0001
0100
0001
0100
0001
0100
0001
0000
1000
0010
0100
0000
0001
0010
0100
0000
,
0010
0001
0010
0001
0010
0001
0010
0000
0001
1000
0100
0000
1000
0001
0100
0000
,
0010
0100
0010
0100
0010
0100
0010
0000
0001
0100
0010
0000
1000
0010
0100
0000
,
0001
1000
0001
1000
0001
1000
0001
0000
0100
0010
1000
0000
1001
0000
0000
0000
,
1000
0100
0010
0010
1000
0010
0001
0001
,
1001
0000
0000
0000
0110
0000
0000
0000
0010
0100
0010
0000
0100
0001
0100
0000
,
0001
0100
0010
0010
0001
0010
1000
1000
,
1001
0000
0000
0000
0110
0000
0000
0000
1000
0010
1000
0000
0010
0100
0010
0000
,
1000
0100
0001
0100
1000
0100
0001
0100
,
0110
0000
0000
0000
1001
0000
0000
0000
0001
0100
0001
0000
0100
0010
0100
0000
,
0001
0010
1000
0010
0001
0010
1000
0010
,
0110
0000
0000
0000
1001
0000
0000
0000
0010
0100
0020
0000
0000
0000
0030
0000
,
1000
0100
1000
0000
1000
0010
1000
0000
1000
0001
1000
0000
1001
0000
0000
0000
,
1000
0100
1000
0000
1000
0010
1000
0000
1001
0000
0000
1000
0001
0000
0000
0000
,
0001
0010
0001
0000
0001
0100
0001
0000
0001
1000
0001
0000
1001
0000
0000
0000
,
0001
0010
0001
0000
0001
0100
0001
0000
1001
0000
0000
0001
1000
0000
0000
0000
,
0010
1000
0010
0000
0010
0100
0010
0000
0010
0001
0010
0000
0110
0000
0000
0000
,
0010
1000
0010
0000
0010
0100
0010
0000
0110
0000
0000
0100
0010
0000
0000
0000
,
0010
0001
0010
0000
0010
0100
0010
0000
0110
0000
0000
0000
1001
0000
0000
0000
,
1000
0010
0001
0000
0001
0010
1000
0000
1001
0000
0000
0000
0110
0000
0000
0000
,
1000
0100
1000
0000
0100
0001
0100
0000
1000
0100
1000
0000
0100
0001
0100
0000
,
1000
0010
1000
0000
0010
0001
0010
0000
1000
0010
1000
0000
1001
0000
0000
0000
,
0001
0100
0001
0000
0100
1000
0100
0000
0001
0100
0001
0000
0100
1000
0100
0000
,
0001
0000
0000
0010
0000
0000
0001
0000
0000
0000
0000
0000
0010
0000
0000
1000
0000
0000
0010
0000
0000
0000
0000
0000
0001
0000
0000
0010
0000
0000
0001
0000
0000
0000
0000
0000
0100
0000
0000
0000
0010
0000
0000
0000
1000
0000
0000
0000
,
0001
0010
0100
0000
0100
0001
0100
0000
0100
1000
0010
0000
0010
0100
1000
0000
,
1000
0100
0001
0000
0001
0010
0100
0000
0010
1000
0010
0000
0001
0000
0000
0000
,
1000
0100
0010
0000
0010
1000
0010
0000
0010
0001
0100
0000
0100
0010
0001
0000
,
0001
0000
0000
0010
0000
0000
1000
0000
0000
0000
0000
0000
1000
0000
0000
0010
0000
0000
0100
0000
0000
0000
0000
0000
0100
0000
0000
1000
0000
0000
0100
0000
0000
0000
0000
0000
0001
0000
0000
0000
1000
0000
0000
0000
0001
0000
0000
0000
,
1000
0010
0100
1000
0100
0001
0010
0100
,
0110
0000
0000
0000
1001
0000
0000
0000
0010
0100
0010
0000
0010
0100
0001
0000
,
0001
0100
0010
0001
0010
1000
0010
0010
,
0010
1000
0001
0010
0011
0000
1001
0000
,
1000
0100
0001
0100
1000
0010
0001
0010
,
1010
0000
0000
0000
0000
0000
0000
0000
0000
0000
0000
0000
0010
0000
0000
0000
1000
0000
0000
0000
0001
0000
0000
0000
0100
0000
0000
0010
0000
0000
0100
0000
0000
0000
0000
0000
0100
0000
0000
0010
0000
0000
0001
0000
0000
0000
0000
0000
,
0001
0010
1000
0100
0001
0100
1000
0010
,
0011
1001
0000
0000
,
0001
0100
1000
0000
1000
0100
0001
0000
1000
0100
0001
0000
0001
0100
1000
0000
,
0001
0100
1000
0000
1000
0100
0001
0000
1000
0001
1000
0000
1001
0000
0000
0000
,
1000
0010
0001
0000
0001
0010
1000
0000
0001
0010
1000
0000
1000
0010
0001
0000
,
1000
0000
0000
0010
0000
0000
0001
0000
0000
0000
0000
0000
0001
0000
0000
0010
0000
0000
1000
0000
0000
0000
0000
0000
0101
0000
0000
0000
0000
0000
1010
0000
0000
0000
0000
0000
1000
0000
0000
0000
0100
0000
0000
0000
0010
0000
0000
0000
,
0001
0100
0010
0000
0001
0010
1000
0000
0100
0010
1000
0000
0010
0001
0100
0000
,
0010
0001
0010
0000
1000
0100
0010
0000
1000
0010
0001
0000
1001
0000
0000
0000
,
1000
0010
0100
0000
1000
0100
0001
0000
0010
0100
0001
0000
0100
1000
0010
0000
,
0100
0000
0000
1000
0000
0000
0100
0000
0000
0000
0000
0000
0001
0000
0000
0010
0000
0000
0100
0000
0000
0000
0000
0000
0001
0000
0000
0100
0000
0000
1000
0000
0000
0000
0000
0000
0010
0000
0000
0000
0100
0000
0000
0000
0010
0000
0000
0000
,
0100
0001
1000
0010
1000
0100
0010
0000
0001
1000
0001
0000
1000
0100
1000
0000
,
0010
0100
0001
1000
0100
0010
0100
0000
1000
0010
1000
0000
0001
0100
0001
0000
,
1000
0010
0100
0010
1000
0100
0010
0000
0001
0010
0100
0000
0010
0100
1000
0000
,
0010
0100
0001
0100
0010
1000
0100
0000
0010
0100
1000
0000
0010
0100
0001
0000
,
1000
0001
0100
0010
1000
0010
0100
0000
0001
1000
0100
0000
0010
0100
0010
0000
,
0100
1000
0100
0010
0001
0100
0010
1000
0001
0100
0001
1000
,
0010
0100
0010
0100
0010
0100
0010
0000
1000
0100
0001
0000
0001
0100
1000
0000
,
0001
0100
1000
0100
0001
0010
0100
0000
1000
0010
0100
0000
0001
0010
0200
0000
,
0000
0000
0000
0000
,
0000
0000
0000
0000
0000
0000
0000
0300
;

//---------------dance-single - ----------------
#NOTES:
     dance-single:
     :
     Hard:
     12:
     0.514199,0.531607,0.229574,0.065593,0.118887,439.000000,411.000000,28.000000,8.000000,0.000000,0.000000,0.514199,0.531607,0.229574,0.065593,0.118887,439.000000,411.000000,28.000000,8.000000,0.000000,0.000000:
0000
0000
0000
0000
,
0000
0000
0000
0000
,
0000
0000
0000
0000
,
0000
0000
0000
0000
,
1000
0100
0010
0100
1000
0100
0010
0100
,
1000
0100
0010
0100
1000
0100
0110
0000
,
0001
0010
0100
0010
0001
0010
0100
0010
,
0001
0000
0000
0010
0000
0000
0100
0000
0000
0010
0000
0000
0001
0000
0000
0010
0000
0000
0100
0000
1000
0000
0001
0000
,
0100
0010
1010
0000
1000
0100
0001
0100
,
1000
0001
0011
0000
0001
0010
1000
0010
,
0001
0100
1010
0000
0100
0010
1000
0010
,
0001
1000
0011
0000
0100
1000
0010
0000
,
1000
1000
0100
0010
0001
0001
0010
0100
,
1100
0000
0000
0000
0011
0000
0000
0000
0100
0010
0100
0000
0001
0000
0000
0000
,
0001
0001
0010
0100
1000
1000
0100
0010
,
0011
0000
0000
0000
1100
0000
0000
0000
0010
1000
0010
0000
0100
0000
0001
0000
,
1000
0100
0001
0100
1000
0100
0001
0100
,
1100
0000
0000
0000
1001
0000
0000
0000
0001
1000
0001
0000
0010
0000
0001
0000
,
0100
1000
0100
0001
0100
1000
0100
0001
,
0101
0000
0000
0000
1001
0000
0000
0000
0010
2000
0002
0000
0000
0000
3003
0000
,
1000
0100
1000
0000
0001
0100
0001
0000
1000
0100
1000
0000
0001
0000
0000
0000
,
1000
0010
1000
0000
0001
0010
0001
0000
1000
0000
0000
0000
1001
0000
0000
0000
,
0001
0100
0001
0000
1000
0100
1000
0000
0001
0100
0001
0000
1000
0000
0000
0000
,
0001
0010
0001
0000
1000
0010
1000
0000
0001
0000
0000
0000
1001
0000
0000
0000
,
0100
0010
0100
0000
0001
0100
0001
0000
0100
0010
0100
0000
0010
0000
0000
0000
,
0010
1000
0010
0000
1000
0100
1000
0000
0010
0000
0000
0000
0110
0000
0000
0000
,
0010
0100
0010
0000
1000
0100
1000
0000
0010
0000
0000
0000
1001
0000
0000
0000
,
0010
0100
0010
0000
0100
0001
0100
0000
0010
0000
0000
0000
1001
0000
0000
0000
,
0010
1000
0100
1000
0010
1000
0100
1000
,
0010
1000
0100
1000
0010
1000
1100
0000
,
0010
0001
0100
0001
0010
0001
0100
0001
,
0010
0001
0100
0001
0010
0001
2000
0000
,
3001
0100
0010
0100
0001
0100
0010
0100
,
0001
0100
0010
0100
0001
0100
0110
0000
,
1000
0010
0100
0010
1000
0010
0100
0010
,
1000
0010
0100
0010
1000
0010
0000
0000
,
1000
1000
0001
0100
0001
0001
1000
0100
,
1000
1001
0000
0000
,
0001
0001
1000
0010
1000
1000
0001
0001
,
1000
1000
0010
0100
0010
0000
1001
0000
,
0100
0100
0001
1000
0010
0010
1000
0001
,
1001
0000
0110
0000
0000
0000
0000
0010
,
1000
0100
0001
0100
1000
0010
0001
0010
,
1000
1001
0000
0000
,
0001
0010
0100
0010
0001
0010
1000
0010
,
0001
0010
0100
0010
0001
0010
0011
0000
,
0001
0100
1000
0100
0010
0100
1000
0100
,
0001
1000
0001
0000
1000
0001
1000
0000
0001
1000
0001
0000
2000
0000
0000
3000
,
1000
0100
0001
0100
1000
0100
0010
0100
,
1000
0100
0001
0100
1000
0100
1100
0000
,
1000
0010
0001
0010
1000
0010
0100
0010
,
1000
0010
0001
0010
1000
0010
0200
0000
,
0310
0010
0010
1000
0001
0100
0001
1000
,
0100
0010
0100
1000
0001
0010
0001
1000
,
0100
0100
0100
0010
0001
0100
1000
0100
,
0001
1000
0100
1000
0010
0100
0001
1000
,
0001
0001
0001
1000
0100
0010
0100
1000
,
2200
0000
0000
0000
0000
0000
0000
3300
,
1000
1000
1000
0010
0100
0001
0100
0010
,
1000
0000
0100
0000
0010
0000
0001
0000
0100
0000
0010
0000
1000
0001
0020
0000
,
0000
0000
0000
0000
,
0000
0000
0000
0030
;

//---------------dance-single - ----------------
#NOTES:
     dance-single:
     :
     Medium:
     10:
     0.429866,0.430349,0.229574,0.065593,0.000000,367.000000,339.000000,28.000000,8.000000,0.000000,0.000000,0.429866,0.430349,0.229574,0.065593,0.000000,367.000000,339.000000,28.000000,8.000000,0.000000,0.000000:
0000
0000
0000
0000
,
0000
0000
0000
0000
,
0000
0000
0000
0000
,
0000
0000
0000
0000
,
1000
0100
0010
0100
1000
0100
0010
0100
,
1000
0100
0010
0100
1000
0100
0010
0000
,
0001
0010
0100
0010
0001
0010
0100
0010
,
0001
0010
0100
0010
0001
0010
0200
0000
,
1300
0001
0100
0000
0100
0010
1000
0010
,
0100
0001
1000
0000
1000
0100
0010
0100
,
1000
0001
0010
0000
0010
0001
0100
0001
,
0010
0100
1000
0000
1000
0100
0010
0000
,
0001
0000
0101
0000
1001
0000
0001
0100
,
0001
0000
1001
0000
0010
0100
1000
0000
,
1000
0000
1010
0000
1001
0000
1000
0010
,
1000
0000
1001
0000
0010
0100
0001
0000
,
0100
0000
0110
0000
0101
0000
0100
0010
,
0100
0000
0110
0000
0001
1000
0010
0000
,
0010
0000
1010
0000
0110
0000
0010
1000
,
0010
0110
0000
0000
,
1000
0100
1000
0100
1000
0100
0001
0000
,
1000
0100
0001
0100
1000
0000
1001
0000
,
0001
0100
0001
0100
0001
0100
1000
0000
,
0001
0100
1000
0100
0001
0000
1001
0000
,
1000
0010
1000
0010
1000
0010
0001
0000
,
1000
0010
0001
0010
1000
0000
1001
0000
,
0001
0010
1000
0010
0001
0000
1001
0000
,
1000
0100
0001
0100
1000
0000
1001
0000
,
0010
0100
0001
0100
0010
0100
0001
0100
,
0010
0100
0001
0100
0010
0100
0001
0000
,
0100
0010
1000
0010
0100
0010
1000
0010
,
0100
0010
1000
0010
0200
0000
0302
0000
,
1003
0100
0010
0100
1000
0100
0010
0100
,
1000
0100
0010
0100
1000
0100
0010
0000
,
0001
0010
0100
0010
0001
0010
0100
0010
,
0001
0010
0100
0010
0001
0010
0200
0000
,
1300
0000
1010
0000
0101
0000
1000
0010
,
1000
0101
0000
0000
,
0001
0000
0011
0000
1100
0000
0001
0001
,
0001
0000
1000
0100
0010
0000
1001
0000
,
0100
0000
0101
0000
0110
0000
0010
1000
,
0001
0000
0101
0000
0000
0000
0000
0100
,
0010
1000
0100
1000
0010
0100
0001
0100
,
0010
1001
0000
0000
,
0100
0001
0010
0001
0100
0001
0010
0001
,
0100
0001
0010
0001
0100
0001
0010
0000
,
0100
1000
0010
1000
0100
1000
0010
1000
,
0100
1000
0010
1000
0100
1000
0010
0000
,
1000
0001
0100
0001
1000
0001
0100
0001
,
1000
0001
0100
0001
1000
0001
0100
0000
,
0001
1000
0010
1000
0001
1000
0010
1000
,
0001
1000
0010
1000
0001
1000
0020
0000
,
1030
0000
0100
0000
1000
0010
0100
0001
,
1000
0000
0100
0000
1000
0100
0010
0000
,
0001
0000
0010
0000
0001
0010
0100
1000
,
0001
0000
0010
0000
0001
0100
0010
0000
,
1000
0000
0001
0000
0100
0010
1000
0000
,
2020
0000
0000
3030
,
1000
0000
0001
0000
0100
0001
1000
0010
,
0100
0000
0001
0000
0010
0100
1000
0020
,
0000
0000
0000
0000
,
0000
0000
0000
0030
;

//---------------dance-single - ----------------
#NOTES:
     dance-single:
     :
     Easy:
     5:
     0.229574,0.303776,0.065593,0.040995,0.000000,196.000000,188.000000,8.000000,5.000000,0.000000,0.000000,0.229574,0.303776,0.065593,0.040995,0.000000,196.000000,188.000000,8.000000,5.000000,0.000000,0.000000:
// measure 0
0000
0000
0000
0000
,  // measure 1
0000
0000
0000
0000
,  // measure 2
0000
0000
0000
0000
,  // measure 3
0000
0000
0000
0000
,  // measure 4
1000
1000
1000
1000
,  // measure 5
1000
1000
1000
1000
,  // measure 6
0001
0001
0001
0001
,  // measure 7
0001
0001
0001
0001
,  // measure 8
0100
0000
0001
1000
,  // measure 9
0010
0000
1000
0100
,  // measure 10
0001
0000
0100
1000
,  // measure 11
0010
0000
0100
0001
,  // measure 12
1000
0010
0100
0010
,  // measure 13
1000
1000
0000
0000
,  // measure 14
0001
0010
0100
0010
,  // measure 15
0001
0001
0000
0000
,  // measure 16
0100
0001
1000
0001
,  // measure 17
0100
0100
0000
0000
,  // measure 18
0010
1000
0001
1000
,  // measure 19
0010
0010
0000
0000
,  // measure 20
1000
1000
1000
1100
,  // measure 21
1000
1000
1000
1010
,  // measure 22
0001
0001
0001
0101
,  // measure 23
0001
0001
0001
0011
,  // measure 24
0100
0100
0100
0110
,  // measure 25
0100
0100
0100
0100
,  // measure 26
0101
0100
0100
1001
,  // measure 27
0000
0000
0000
0000
,  // measure 28
0001
0010
0001
0010
,  // measure 29
0001
0010
0001
0010
,  // measure 30
1000
0010
1000
0010
,  // measure 31
1000
0010
1000
0010
,  // measure 32
0001
0100
1000
0100
,  // measure 33
0001
0100
1000
0000
,  // measure 34
1000
0100
0001
0100
,  // measure 35
1000
0100
0001
0100
,  // measure 36
0010
0000
1000
0000
,  // measure 37
0001
0010
0000
0000
,  // measure 38
0100
0000
0010
0010
,  // measure 39
0001
1000
0010
0000
,  // measure 40
0100
0000
0001
0000
,  // measure 41
1000
0010
0000
0000
,  // measure 42
0010
1000
0010
0100
,  // measure 43
0001
0001
0000
0000
,  // measure 44
1000
0100
1000
0100
,  // measure 45
1000
0100
1000
0100
,  // measure 46
0001
0100
0001
0100
,  // measure 47
0001
0100
1000
0001
,  // measure 48
0001
0010
0001
0010
,  // measure 49
0001
0010
0001
0010
,  // measure 50
1000
0010
1000
0010
,  // measure 51
1000
0010
1000
0020
,  // measure 52
0032
0000
0103
0001
,  // measure 53
1000
0000
0100
0100
,  // measure 54
0010
0000
0100
1000
,  // measure 55
0001
0000
1000
1000
,  // measure 56
0010
0000
0100
0001
,  // measure 57
2002
0000
0000
3003
,  // measure 58
0001
0010
0100
0010
,  // measure 59
0001
0000
1000
0000
0100
0000
0010
0200
,  // measure 60
0000
0000
0000
0000
,  // measure 61
0000
0000
0000
0300
;

//---------------dance-single - ----------------
#NOTES:
     dance-single:
     :
     Beginner:
     3:
     0.178037,0.252122,0.114787,0.008199,0.000000,152.000000,138.000000,14.000000,1.000000,0.000000,0.000000,0.178037,0.252122,0.114787,0.008199,0.000000,152.000000,138.000000,14.000000,1.000000,0.000000,0.000000:
0000
0000
0000
0000
,
0000
0000
0000
0000
,
0000
0000
0000
0000
,
0000
0000
0000
0000
,
0001
0001
0001
0001
,
0001
0001
0001
0000
,
1000
1000
1000
1000
,
1000
1000
1000
0000
,
0010
0000
0000
0000
,
1000
0000
0000
0000
,
0100
0000
0000
0000
,
0001
0000
0000
0000
,
0010
0000
1000
1000
,
1000
0000
0000
0000
,
0100
0000
0001
0001
,
0001
0000
0000
0000
,
1000
0000
0010
0010
,
0010
0000
0000
0000
,
0001
0000
0100
0100
,
0100
0000
0000
0000
,
1000
0000
0000
1001
,
1001
0000
0000
0110
,
0110
0000
0000
1001
,
1001
0000
0000
0110
,
0110
0000
0000
1001
,
1001
0000
0000
0110
,
0110
0000
0000
0110
,
0110
0000
0000
0000
,
0010
0010
0010
0010
,
0010
0010
0010
0000
,
0100
0100
0100
0100
,
0100
0100
0100
0000
,
1000
1000
1000
1000
,
1000
1000
1000
0000
,
0001
0001
0001
0001
,
0001
0001
0001
0000
,
0100
0000
0001
0001
,
0001
0000
0000
0000
,
0010
0000
1000
1000
,
1000
1000
0000
0000
,
1000
0000
0100
0100
,
0100
0000
0000
0000
,
0001
0000
0010
0010
,
0010
0000
0000
0000
,
0001
0001
0001
0001
,
0001
0001
0001
0000
,
1000
1000
1000
1000
,
1000
1000
1000
0000
,
0010
0010
0010
0010
,
0010
0010
0010
0000
,
0100
0100
0100
0100
,
0100
0100
0100
0000
,
0001
0000
1000
0000
,
0001
0000
1000
0000
,
0010
0000
0100
0000
,
0010
0000
0100
0000
,
0100
0000
0001
0000
,
0100
0000
0000
0000
,
0010
0000
1000
0000
,
0010
0000
1000
0000
,
0200
0000
0000
0000
,
0000
0000
0300
0000
;

//---------------dance-double - ----------------
#NOTES:
     dance-double:
     :
     Challenge:
     15:
     0.707463,0.708810,0.254171,0.016398,0.717419,604.000000,573.000000,31.000000,2.000000,0.000000,0.000000,0.707463,0.708810,0.254171,0.016398,0.717419,604.000000,573.000000,31.000000,2.000000,0.000000,0.000000:
00000000
00000000
00000000
00000000
,
00000000
00000000
00000000
00000000
,
00000000
00000000
00000000
00000000
,
00000000
00000000
00000000
00000000
,
00100000
10000000
01000000
00000000
00100000
00010000
01000000
00000000
00100000
10000000
01000000
00000000
00100000
00001000
00010000
00000000
,
00001000
00010000
00000010
00000000
00000100
00000001
00000010
00000000
00000100
00001000
00000010
00000000
00000110
00000000
00000000
00000000
,
00000100
00000001
00001000
00000000
00000010
00001000
00000001
00000000
00000100
00000001
00001000
00000000
00000010
00010000
00001000
00000000
,
01000000
00000000
00000000
00010000
00000000
00000000
10000000
00000000
00000000
00000000
00000000
00000000
00100000
00000000
00000000
10000000
00000000
00000000
00010000
00000000
00000000
00000000
00000000
00000000
01000000
00000000
00000000
00010000
00000000
00000000
10000000
00000000
00000000
00000000
00000000
00000000
00100000
00000000
00000000
00000000
10000000
00000000
00000000
00000000
00010000
00000000
00000000
00000000
,
01000000
00100000
10000000
00100000
01000000
00010000
00100000
00000000
00010000
10000000
01000000
00000000
00100000
00001000
00010000
00000000
,
00000010
00000100
00000001
00000100
00000010
00001000
00000100
00000000
00001000
00000010
00000100
00000000
00000001
00000010
00000100
00000000
,
00001000
00000010
00000100
00000010
00010000
00001000
00010000
00000000
00001000
00100000
01000000
00000000
10000000
00100000
01000000
00000000
,
00010000
10000000
00100000
10000000
01000000
00100000
00010000
00000000
01000000
00010000
10000000
00000000
10010000
00000000
00000000
00000000
,
10000000
01000000
00010000
00010000
00001000
00100000
01000000
00010000
,
00011000
00000000
00000000
00000000
00001100
00000000
00000000
00000000
00000100
00000001
00000100
00000000
00000010
00001000
00000010
00000000
,
00000001
00000100
00001000
00001000
00010000
00000010
00000100
00001000
,
00011000
00000000
00000000
00000000
00110000
00000000
00000000
00000000
00100000
10000000
00100000
00000000
10000000
00010000
10000000
00000000
,
00010000
01000000
00100000
00100000
00010000
00001000
00000100
00000001
,
00000101
00000000
00000000
00000000
00001010
00000000
00000000
00000000
00000001
00000100
00000010
00000000
00001000
00000010
00000100
00000000
,
00000001
00001000
00000010
00000010
00000100
00001000
00010000
01000000
,
11000000
00000000
00000000
00000000
10010000
00000000
00000000
00000000
10000000
00100000
02000000
00000000
00000000
00000000
03000000
00000000
,
00100000
10000000
00100000
00000000
00100000
00010000
00100000
00000000
00100000
10000000
00100000
00000000
10010000
00000000
00000000
00000000
,
01000000
00100000
00001000
00000000
00010000
00000010
00000100
00000000
00000110
00000000
00000000
00000001
00001000
00000000
00000000
00000000
,
00000100
00000001
00000100
00000000
00000100
00001000
00000100
00000000
00000100
00000001
00000100
00000000
00001001
00000000
00000000
00000000
,
00000100
00000010
00010000
00000000
00001000
01000000
00100000
00000000
01100000
00000000
00000000
10000000
00010000
00000000
00000000
00000000
,
01000000
00010000
01000000
00000000
01000000
10000000
01000000
00000000
01000000
00010000
01000000
00000000
10010000
00000000
00000000
00000000
,
00100000
00001000
00010000
00000000
00001000
00010000
00000010
00000000
00011000
00000000
00000000
00001000
00100000
00000000
00000000
00000000
,
00001000
00010000
00000100
00000000
00010000
00001000
01000000
00000000
00011000
00000000
00000000
00000000
00010100
00000000
00000000
00000000
,
00010000
00001000
00010000
00000000
00001000
00010000
00001000
00000000
00011000
00000000
00000000
00000000
00000110
00000000
00000000
00000000
,
00000001
00000010
00000001
00000000
00000010
00001000
00000010
00000000
00000001
00000010
00000001
00000000
00000010
00001000
00000010
00000000
,
00000001
00000100
00000010
00000000
00010000
00001000
01000000
00000000
00100000
10000000
00010000
00000000
10010000
00000000
00000000
00000000
,
10000000
01000000
10000000
00000000
01000000
00010000
01000000
00000000
10000000
01000000
10000000
00000000
01000000
00010000
01000000
00000000
,
10000000
00000000
00000000
00100000
00000000
00000000
01000000
00000000
00000000
00000000
00000000
00000000
00100000
00000000
00000000
01000000
00000000
00000000
00001000
00000000
00000000
00000000
00000000
00000000
00010000
00000000
00000000
00000010
00000000
00000000
00000100
00000000
00000000
00000000
00000000
00000000
00000010
00000000
00000000
00000000
00000100
00000000
00000000
00000000
00000010
00000000
00000000
00000000
,
00001000
00000100
00001000
00000000
00000100
00000001
00000100
00000000
00001000
00000100
00001000
00000000
00000100
00000001
00000100
00000000
,
00001000
00000001
00000010
00000000
00000100
00010000
00001000
00000000
01000000
00010000
00100000
00000000
10010000
00000000
00000000
00000000
,
00010000
01000000
00010000
00000000
01000000
10000000
01000000
00000000
00010000
01000000
00010000
00000000
01000000
10000000
01000000
00000000
,
00010000
00000000
00000000
10000000
00000000
00000000
00100000
00000000
00000000
00000000
00000000
00000000
01000000
00000000
00000000
00001000
00000000
00000000
00010000
00000000
00000000
00000000
00000000
00000000
00000010
00000000
00000000
00000100
00000000
00000000
00000001
00000000
00000000
00000000
00000000
00000000
00001000
00000000
00000000
00000000
00000010
00000000
00000000
00000000
00000100
00000000
00000000
00000000
,
00000001
00000010
00001000
00001000
00010000
00000100
00000010
00001000
,
00011000
00000000
00000000
00000000
00110000
00000000
00000000
00000000
00100000
10000000
00100000
00000000
10000000
00010000
10000000
00000000
,
01000000
00010000
00001000
00001000
00100000
00100000
01000000
01000000
,
00010000
00001000
00000100
00000001
00001001
00000000
00001010
00000000
,
00000001
00000010
00001000
00001000
00010000
00000100
00000010
00001000
,
00011000
00000000
00000000
00000000
01010000
00000000
00000000
00000000
10000000
00100000
01000000
00000000
00010000
01000000
00100000
00000000
,
10000000
01000000
00010000
00010000
00001000
00100000
01000000
00010000
,
00011000
00001100
00000000
00000000
,
00000001
00000100
00001000
00000000
00000100
00001000
00010000
00000000
00001000
00010000
01000000
00000000
00010000
01000000
10000000
00000000
,
10000000
01000000
00010000
00000000
01000000
00010000
00001000
00000000
00010000
00001000
00000100
00000000
00000001
00000000
00000000
00000000
,
00000001
00000010
00001000
00000000
00000010
00001000
00010000
00000000
00001000
00010000
00100000
00000000
00010000
00100000
10000000
00000000
,
10000000
00000000
00000000
00100000
00000000
00000000
00010000
00000000
00000000
00000000
00000000
00000000
00100000
00000000
00000000
00010000
00000000
00000000
00001000
00000000
00000000
00000000
00000000
00000000
00010000
00000000
00000000
00001000
00000000
00000000
00000010
00000000
00000000
00000000
00000000
00000000
00000001
00000000
00000000
00000000
00001000
00000000
00000000
00000000
00000001
00000000
00000000
00000000
,
00001000
00000010
00001000
00000000
00000001
00000010
00000001
00000000
00000010
00001000
00000010
00000000
00001000
00010000
00001000
00000000
,
00010000
00100000
00010000
00000000
00100000
10000000
00100000
00000000
10000000
00010000
10000000
00000000
10010000
00000000
00000000
00000000
,
10000000
01000000
10000000
00000000
01000000
00010000
01000000
00000000
00010000
00001000
00010000
00000000
00001000
00000100
00001000
00000000
,
00000100
00000000
00000000
00000001
00000000
00000000
00000100
00000000
00000000
00000000
00000000
00000000
00000001
00000000
00000000
00001000
00000000
00000000
00000001
00000000
00000000
00000000
00000000
00000000
00001000
00000000
00000000
00000010
00000000
00000000
00001000
00000000
00000000
00000000
00000000
00000000
00000001
00000000
00000000
00000000
00000100
00000000
00000000
00000000
00000010
00000000
00000000
00000000
,
00001000
00000100
00001000
00000100
00001000
00000100
00001000
00000000
00000010
00010000
00001000
00000000
00100000
00010000
01000000
00000000
,
00100000
10000000
00100000
10000000
00100000
10000000
00100000
00000000
10000000
01000000
00100000
00000000
00010000
01000000
00001000
00000000
,
00010000
00000100
00010000
00000100
00010000
00000100
00010000
00000000
00000010
00000100
00000001
00000000
00001000
00000010
00000100
00000000
,
00000010
00010000
00000010
00010000
00000010
00010000
00000010
00000000
00010000
00001000
01000000
00000000
00100000
10000000
00010000
00000000
,
10000000
00010000
10000000
00010000
10000000
00010000
10000000
00000000
00100000
01000000
00010000
00000000
00100000
00001000
00010000
00000000
,
00000010
00010000
00001000
00100000
01000000
10000000
00100000
01000000
00001000
00010000
00000010
00000100
,
00000001
00000100
00000001
00000100
00000001
00000100
00000001
00000000
00000010
00010000
00001000
00000000
00010000
00001000
01000000
00000000
,
00100000
10000000
00100000
10000000
00100000
10000000
00100000
00000000
01000000
00010000
10000000
00000000
00100000
01000000
00020000
00000000
,
00000000
00000000
00000000
00000000
,
00000000
00000000
00000000
00030000
;

//---------------dance-double - ----------------
#NOTES:
     dance-double:
     :
     Hard:
     12:
     0.522398,0.531607,0.188579,0.040995,0.176280,446.000000,423.000000,23.000000,5.000000,0.000000,0.000000,0.522398,0.531607,0.188579,0.040995,0.176280,446.000000,423.000000,23.000000,5.000000,0.000000,0.000000:
00000000
00000000
00000000
00000000
,
00000000
00000000
00000000
00000000
,
00000000
00000000
00000000
00000000
,
00000000
00000000
00000000
00000000
,
00000010
00010000
00000010
00000100
00000010
00010000
00000010
00000100
,
00000010
00010000
00000010
00000100
00000010
00010000
00011000
00000000
,
01000000
00001000
01000000
00100000
01000000
00001000
01000000
00100000
,
01000000
00001000
01000000
00100000
01000000
00001000
00020000
00000000
,
00030010
00000100
00000001
00000010
00001000
00010000
00100000
00000000
,
10000000
01000000
00010000
00001000
00100000
01000000
00010000
00000000
,
00001000
00000100
00000001
00000010
00001000
00010000
00000100
00000000
,
00000010
00001000
00010000
01000000
10000000
00010000
00100000
00000000
,
00010000
01000000
00100000
01000000
00001000
00010000
00000010
00000100
,
00000110
00000000
00000000
00000000
00000101
00000000
00000000
00000000
00000001
00001000
00000001
00000000
00000100
00000000
00000000
00000000
,
00000010
00001000
00000100
00001000
00000010
00010000
00001000
01000000
,
01100000
00000000
00000000
00000000
10100000
00000000
00000000
00000000
10000000
00010000
10000000
00000000
00100000
00000000
10000000
00000000
,
00010000
01000000
00100000
01000000
00010000
00100000
01000000
00010000
,
00011000
00000000
00000000
00000000
00010010
00000000
00000000
00000000
00000010
00000100
00000010
00000000
00001000
00000000
00000000
00000000
,
00000010
00001000
00000100
00001000
00000010
00010000
00001000
01000000
,
01010000
00000000
00000000
00000000
10100000
00000000
00000000
00000000
10000000
00010000
02000000
00000000
00000000
00000000
00000000
00000000
,
03010000
10000000
00010000
00000000
10000000
00010000
10000000
00000000
00010000
10000000
00010000
00000000
00100000
00000000
00000000
00000000
,
00001000
00010000
00001000
00000000
00010000
00001000
00010000
00000000
00001000
00000000
00000000
00010000
00000010
00000000
00000000
00000000
,
00000010
00001000
00000010
00000000
00001000
00000010
00001000
00000000
00000010
00001000
00000010
00000000
00000100
00000000
00000000
00000000
,
00000001
00001000
00000001
00000000
00001000
00000001
00001000
00000000
00000001
00000000
00000000
00001000
00000010
00000000
00000000
00000000
,
00001000
00000100
00001000
00000000
00000100
00001000
00000100
00000000
00001000
00000100
00001000
00000000
00000100
00000000
00000000
00000000
,
00010000
00001000
00010000
00000000
00001000
00010000
00001000
00000000
00010000
00000000
00000000
00000000
00011000
00000000
00000000
00000000
,
01000000
00100000
01000000
00000000
00100000
01000000
00100000
00000000
01000000
00000000
00000000
00000000
01100000
00000000
00000000
00000000
,
00010000
10000000
01000000
00000000
10000000
00010000
01000000
00000000
00100000
00000000
00000000
00000000
10010000
00000000
00000000
00000000
,
10000000
01000000
00010000
00001000
00000100
00000001
00000100
00001000
,
00010000
01000000
10000000
01000000
00010000
00001000
00000100
00000000
,
00000001
00000010
00001000
00010000
00100000
10000000
00100000
00010000
,
00001000
00000010
00000001
00000010
00001000
00010000
00200000
00000000
,
10300000
01000000
00100000
10000000
00100000
00010000
01000000
00100000
,
00010000
00001000
00000010
00000001
00000100
00000010
00001000
00000000
,
00000001
00000100
00001000
00010000
00000010
00000100
00001000
00010000
,
01000000
10000000
01000000
10000000
01000000
10000000
00200000
00000000
,
10300000
00010000
01000000
00010000
00100000
00001000
00010000
00001000
,
00001010
00000011
00000000
00000000
,
00000001
00000010
00001000
00010000
00001000
00001000
00000100
00000100
,
00001000
00001000
00010000
00100000
10100000
00000000
10010000
00000000
,
00100000
00001000
00010000
00001000
00000010
00000001
00001000
00000001
,
00001001
00000000
00000101
00000000
00000000
00000000
00000000
00000010
,
00000100
00001000
00010000
00001000
00100000
01000000
10000000
01000000
,
01100000
00011000
00000000
00000000
,
00000001
00000100
00000001
00000010
00000001
00000100
00000001
00000010
,
00001000
00010000
01000000
00010000
00001000
00010000
00011000
00000000
,
01000000
00010000
01000000
00100000
01000000
00010000
01000000
00100000
,
00010000
00001000
00000100
00001000
00010000
00010000
00011000
00000000
,
00000010
00001000
00000010
00000100
00000010
00001000
00000010
00000100
,
00001000
00010000
00100000
00010000
00001000
00010000
00110000
00000000
,
10000000
00010000
10000000
00100000
10000000
00010000
10000000
00100000
,
01000000
00000000
00000000
00001000
00000000
00000000
01000000
00000000
00000000
00100000
00000000
00000000
01000000
00000000
00000000
00001000
00000000
00000000
01000000
00000000
00100000
00000000
00001000
00000000
,
00010000
00000000
00000010
00000000
00000010
00000000
00000010
00000000
00000100
00000001
00000100
00000000
00000010
00000000
00000000
00000000
,
00010000
00000000
00001000
00000000
00100000
00000000
01000000
00000000
10000000
00100000
10000000
00000000
00010000
00000000
00000000
00000000
,
01000000
00000000
00001000
00000000
00001000
00000000
00001000
00000000
00010000
00000010
00010000
00000000
00000100
00000000
00000000
00000000
,
00000010
00000000
00000001
00000000
00000100
00000000
00000010
00000000
00010000
00001000
00010000
00000000
00000010
00000000
00000000
00000000
,
00000100
00000000
00010000
00000000
00010000
00000000
00010000
00000000
00001000
00100000
00001000
00000000
01000000
00000000
00000000
00000000
,
00100000
10000000
00010000
01000000
00001000
00010000
00000010
00000100
00000001
00000010
00000100
00010000
,
00001000
00000000
01000000
00000000
01000000
00000000
01000000
00000000
00100000
10000000
00100000
00000000
10000000
00000000
00000000
00000000
,
01000000
00100000
01000000
00000000
00001000
00000000
00010000
00000000
00000010
00000100
00000010
00000000
00001000
00000000
00000002
00000000
,
00000000
00000000
00000000
00000000
,
00000000
00000000
00000000
00000003
;

//---------------dance-double - ----------------
#NOTES:
     dance-double:
     :
     Medium:
     9:
     0.404097,0.430349,0.237773,0.098389,0.000000,345.000000,316.000000,29.000000,12.000000,0.000000,0.000000,0.404097,0.430349,0.237773,0.098389,0.000000,345.000000,316.000000,29.000000,12.000000,0.000000,0.000000:
00000000
00000000
00000000
00000000
,
00000000
00000000
00000000
00000000
,
00000000
00000000
00000000
00000000
,
00000000
00000000
00000000
00000000
,
01000000
00100000
01000000
00100000
01000000
00100000
01000000
00100000
,
00001000
00010000
00001000
00010000
00001000
00010000
00000010
00000000
,
00000100
00000010
00000100
00000010
00000100
00000010
00000100
00000010
,
00010000
00001000
00010000
00001000
00010000
00001000
02000000
00000000
,
03200000
00000000
00000000
00000000
10300000
01000000
00010000
00000000
,
00002000
00000000
00000000
00000000
00003100
00000001
00001000
00000000
,
00000002
00000000
00000000
00000000
00000013
00001000
00010000
00000000
,
00200000
00000000
00000000
00000000
01300000
00100000
00010000
00000000
,
00001000
00000010
00000001
00000000
00001000
00000000
00000001
00000000
,
00001001
00000101
00000000
00000000
,
00000001
00000100
00001000
00000000
00010000
00000000
01000000
00000000
,
10100000
01010000
00000000
00000000
,
10000000
01000000
00010000
00000000
00001000
00000000
00000100
00000000
,
00000011
00000000
00001100
00000000
00000000
00000000
00000000
00000010
,
00000100
00001000
00010000
00000000
00001000
00000000
00100000
00000000
,
11000000
00110000
00000000
00000000
,
10000000
00010000
01000000
00010000
10000000
00000000
10010000
00000000
,
00100000
00001000
00010000
00001000
00100000
00000000
00011000
00000000
,
00000100
00001000
00000010
00001000
00000100
00000000
00000011
00000000
,
00001000
00000100
00010000
00000100
00001000
00000000
00011000
00000000
,
00100000
01000000
10000000
01000000
00100000
00000000
00101000
00000000
,
00001000
00010000
00000010
00010000
00001000
00000000
00011000
00000000
,
00001000
00100000
00010000
00100000
00001000
00000000
00011000
00000000
,
00010000
00000010
00001000
00000010
00010000
00000000
00011000
00000000
,
00000010
00000100
00000010
00000100
00000010
00000100
00000010
00000100
,
00010000
00001000
00010000
00001000
00010000
00001000
02000000
00000000
,
03100000
01000000
00100000
01000000
00100000
01000000
00100000
01000000
,
00001000
00010000
00001000
00010000
00001000
00010000
00000020
00000000
,
00000130
00000001
00000100
00000001
00000100
00000001
00000100
00000001
,
00001000
00000010
00001000
00000010
00001000
00000010
00010000
00000000
,
00001000
00100000
00001000
00100000
00001000
00100000
00001000
00100000
,
01000000
10000000
01000000
10000000
01000000
10000000
00200000
00000000
,
10300000
01000000
00100000
00001000
00010000
00000000
00001000
00000000
,
00011000
00010010
00000000
00000000
,
00000001
00000100
00000010
00010000
00001000
00001000
00010000
00010000
,
00001000
00001000
01000000
00000000
10100000
00000000
10010000
00000000
,
00100000
01000000
00001000
00010000
00000010
00000000
00000100
00000000
,
00001001
00000000
00000110
00000000
00000000
00000000
00000000
00000010
,
00000100
00000001
00001000
00000100
00010000
00000000
00001000
00000000
,
01001000
01010000
00000000
00000000
,
00100000
10000000
00100000
10000000
00100000
10000000
00100000
10000000
,
00010000
01000000
00010000
01000000
00010000
01000000
00020000
00000000
,
00130000
00001000
00100000
00001000
00100000
00001000
00100000
00001000
,
00010000
00000010
00010000
00000010
00000100
00000010
00001000
00000000
,
00000001
00000100
00001000
00000000
00010000
01000000
10000000
00000000
,
10000000
01000000
00010000
00000000
00001000
00000100
00000001
00000000
,
00000001
00001000
00000100
00001000
00000001
00001000
00000100
00001000
,
00000010
00010000
00000100
00010000
00000010
00010000
00000200
00000000
,
00010300
00001000
00100000
00000000
01000000
00000000
11000000
00000000
,
10000000
00100000
01000000
00000000
00001000
00000000
00010000
00000000
,
00000010
00001000
00000100
00000000
00000010
00000000
00000011
00000000
,
00000001
00001000
00000100
00000000
00010000
00000000
00001000
00000000
,
01000000
00100000
10000000
00000000
00100000
00000000
01010000
00000000
,
00200000
00000000
00000000
00300000
,
00001000
00010000
00000010
00000000
00000110
00000000
00001010
00000000
,
00001000
00000001
00000100
00000001
00001000
00000000
00000010
00000200
,
00000000
00000000
00000000
00000000
,
00000000
00000000
00000000
00000300
;

//---------------dance-double - ----------------
#NOTES:
     dance-double:
     :
     Easy:
     5:
     0.213176,0.219530,0.008199,0.016398,0.000000,182.000000,181.000000,1.000000,2.000000,0.000000,0.000000,0.213176,0.219530,0.008199,0.016398,0.000000,182.000000,181.000000,1.000000,2.000000,0.000000,0.000000:
00000000
00000000
00000000
00000000
,
00000000
00000000
00000000
00000000
,
00000000
00000000
00000000
00000000
,
00000000
00000000
00000000
00000000
,
01000000
01000000
01000000
01000000
,
01000000
01000000
01000000
01000000
,
00100000
00100000
00100000
00100000
,
00100000
00100000
00100000
00100000
,
00001000
00000000
00010000
00000010
,
00000100
00000000
00000001
00000010
,
00000100
00000000
00010000
00001000
,
01000000
00000000
00100000
10000000
,
00010000
00000000
01000000
00010000
,
01000000
01000000
00000000
00000000
,
00001000
00000000
00010000
00000010
,
00010000
00010000
00000000
00000000
,
00000010
00000000
00000100
00000001
,
00000100
00000100
00000000
00000000
,
00000010
00000000
00010000
00001000
,
00010000
00010000
00000000
00000000
,
00001000
00100000
00001000
00100000
,
01000000
10000000
01000000
00000000
,
10000000
00100000
10000000
00100000
,
01000000
00001000
01000000
00000000
,
00001000
00010000
00001000
00010000
,
00000010
00000100
00000010
00000000
,
00000100
00000010
00000100
00000000
,
00000010
00000100
00000010
00000000
,
00000100
00000100
00000100
00000100
,
00000100
00000100
00000100
00000100
,
00000010
00000010
00000010
00000010
,
00000010
00000010
00000010
00000000
,
00010000
00010000
00010000
00010000
,
00010000
00010000
00010000
00010000
,
00001000
00001000
00001000
00001000
,
00001000
00001000
00001000
01000000
,
00100000
00000000
10000000
00010000
,
10000000
10000000
00000000
00000000
,
00010000
00000000
00100000
00100000
,
00100000
00001000
00010000
00000000
,
00000010
00000000
00000100
00000001
,
00000100
00000100
00000000
00000000
,
00000010
00000000
00001000
00000100
,
00010000
00010000
00000000
00000000
,
00001000
00100000
00001000
00100000
,
00001000
00100000
00001000
00100000
,
01000000
10000000
01000000
10000000
,
01000000
10000000
01000000
01000000
,
10000000
00100000
10000000
00100000
,
10000000
00100000
10000000
00100000
,
01000000
00001000
01000000
00001000
,
01000000
00001000
01000000
01000000
,
00001000
00010000
00000010
00000000
,
00000100
00000001
00001000
00000000
,
00000010
00010000
00001000
00000000
,
01000000
00010000
00100000
00000000
,
01000000
10000000
00100000
00000000
,
02002000
00000000
00000000
03003000
,
00001000
00010000
00000100
00000000
,
00001000
00000010
00000100
00000000
;
