#TITLE:24/7 Popperz;
#SUBTITLE:;
#ARTIST:Power Of Nature;
#TITLETRANSLIT:;
#SUBTITLETRANSLIT:;
#ARTISTTRANSLIT:;
#GENRE:Hardcore;
#CREDIT:;
#BANNER:247popperz-bn.png;
#BACKGROUND:247popperz-bg.png;
#LYRICSPATH:;
#CDTITLE:;
#MUSIC:247 Popperz.mp3;
#OFFSET:-0.040000;
#SAMPLESTART:28.549999;
#SAMPLELENGTH:12.000000;
#SELECTABLE:YES;
#BPMS:0.000000=202.000000
,200.000000=101.000000
,216.000000=202.000000
,348.000000=101.000000
,352.000000=202.000000
;
#STOPS:
;
#BGCHANGES:;
#KEYSOUNDS:;
#ATTACKS:;

//---------------dance-single - ----------------
#NOTES:
     dance-single:
     :
     Challenge:
     19:
     1.251128,1.449094,0.216656,0.099995,1.883239,1051.000000,1025.000000,26.000000,12.000000,0.000000,0.000000,1.251128,1.449094,0.216656,0.099995,1.883239,1051.000000,1025.000000,26.000000,12.000000,0.000000,0.000000:
0000
0000
0000
0000
,
0000
0000
0000
0000
,
0000
0000
0000
0000
,
0000
0000
0000
0000
,
0110
0000
0000
0000
0100
0202
0000
0303
,
0011
0000
0000
0000
0100
2200
0000
3300
,
1001
0000
0000
0000
0010
2020
0000
3030
,
1100
0110
0011
0110
,
1000
0000
0010
0000
1000
0000
0010
0100
0001
0000
0010
0000
0001
0000
0010
0000
,
0001
0000
0100
0001
0100
0000
0010
0000
0000
0000
0010
0000
1000
0000
0100
0000
,
1000
0000
0001
0000
1000
0000
0010
0100
0001
0000
0010
0000
0001
0000
1000
0000
,
0001
0000
0100
0010
1000
0000
0010
0000
0000
0000
0010
0000
0100
0000
0010
0000
,
1000
0010
0001
0010
1000
0010
0001
0010
,
1000
0100
0001
0100
0000
1000
0010
0100
,
0001
0100
1000
0100
0001
0100
1000
0100
,
0001
0000
0010
0000
1000
0000
0010
0000
0001
0010
0100
1000
0100
0010
0001
1000
,
0001
0100
0001
0100
0001
0010
0001
0010
0001
0100
0001
0100
0001
0000
1000
0000
,
1001
0000
0000
0000
,
1000
0010
1000
0010
1000
0100
1000
0100
1000
0010
1000
0010
1000
0000
0001
0000
,
1001
0000
0000
0000
,
0010
1000
0010
1000
0010
0100
0010
0100
0010
1000
0010
1000
0010
0000
0100
0000
,
0110
0000
0000
0000
,
0100
0001
0100
0001
0100
0010
0100
0010
0100
0001
0100
0001
0100
0000
0001
0000
,
0100
0000
0010
0000
0100
0000
0010
0000
1000
0001
1000
0001
1000
0001
1000
0001
,
1000
0100
1000
0100
0010
0001
0010
0001
1000
0100
1000
0100
0010
0000
0001
0000
,
0100
0010
0100
0010
0100
0010
0100
0010
0100
0001
0100
0001
0010
0001
0010
0000
,
0001
0100
0001
0100
0010
1000
0010
1000
0001
0100
0001
0100
0010
0000
1000
0000
,
0010
1000
0010
1000
0010
1000
0010
1000
0010
0100
0010
0100
0001
0010
0001
0000
,
1000
0001
1000
0001
0100
0010
0100
0010
1000
0001
1000
0001
0100
0000
0010
0000
,
1000
0010
1000
0010
1000
0010
1000
0010
0100
0001
0100
0001
0010
0001
0010
0000
,
0001
0100
0010
1000
0010
0100
0001
1000
0001
0000
0010
0000
0100
0000
1000
0000
,
0001
0000
0001
0000
1000
0001
0000
1000
0100
0010
0001
0010
0100
0000
1000
0000
,
0010
1000
0010
1000
0010
1000
0010
1000
0010
0000
0100
0001
1000
0001
0100
0000
,
0001
0010
0001
0010
0001
0010
0001
0010
0001
0000
1000
0100
0010
0100
1000
0000
,
0100
1000
0100
1000
0100
1000
0100
1000
0100
0000
0010
0001
1000
0001
0010
0000
,
0001
0100
0001
0100
0001
0100
0001
0100
0001
0000
0100
0010
1000
0010
0100
0000
,
0010
1000
0010
1000
0010
1000
0010
1000
0010
0000
0100
0001
0010
0001
0100
0000
,
0001
1000
0001
1000
0001
1000
0001
1000
0001
0000
1000
0001
0100
0010
1000
0001
,
0100
0010
0100
0010
0100
0000
0010
1000
0010
1000
0010
1000
0010
0000
1000
0001
,
1000
0001
1000
0001
1000
0001
1000
0001
1000
0100
0010
0001
1000
0100
0010
0001
,
1000
0100
1000
0010
1000
0010
0100
0010
0100
0001
0010
0001
,
0100
0001
0100
0010
0100
0010
1000
0010
1000
0001
1000
0001
,
0010
0001
0010
0100
0010
0100
1000
0100
1000
0010
0100
0010
,
0100
0001
0100
0001
0010
0001
1000
0010
0100
0001
0010
0100
,
1000
0100
0001
1000
0010
0001
0100
1000
0001
0010
1000
0001
,
0100
0010
0001
0010
0100
0001
0010
1000
0001
0100
1000
0010
,
0100
1000
0100
0010
1000
0100
0001
1000
0010
0001
0010
0100
,
0001
0100
0010
1000
0010
0001
0010
0100
0001
0100
1000
0100
,
0010
0000
0000
0010
0000
0001
0010
0000
0001
0000
0000
0101
,
0000
0000
1100
0000
0000
0010
1000
0000
0010
0000
0000
1000
,
1001
0000
0000
0000
0000
0000
0000
0000
0000
0000
0000
0000
0000
0000
0000
0000
0000
0000
0100
0010
1000
0000
0100
0000
0010
0000
0001
0000
0100
0000
0010
0000
,
0000
0000
0000
0000
0000
0000
0000
0000
0000
0000
0000
0000
0000
0000
0000
0000
0000
0000
0010
0100
0001
0000
0010
0000
0100
0000
1000
0000
0010
0000
0100
0000
,
0000
0000
0000
0000
0000
0000
0000
0000
0000
0000
0000
0000
0000
0000
0000
0000
0000
0000
0001
0010
0100
0000
1000
0000
0010
0000
0100
0000
0001
0000
1000
0000
,
1001
0000
0000
0000
0000
0000
0000
0000
0000
0000
0000
0000
0000
0000
0000
0000
0000
0000
0000
0000
0000
0000
0000
0000
0010
0000
0000
0000
0000
0000
0000
0000
0000
0000
0000
0000
0000
0000
0000
0000
0000
0000
0000
0000
0000
0000
0000
0000
0101
0000
0000
0000
0000
0000
0000
0000
0000
0000
0000
0000
0000
0000
0000
0000
0000
0000
0000
0000
0000
0000
0000
0000
0000
0000
0000
0000
0000
0000
0000
0000
0000
0000
0000
0000
0010
0000
0000
0000
0000
0000
0100
0000
0000
0000
0000
0000
1000
0000
0000
0000
0000
0000
0000
0000
0010
0000
0000
0000
0000
0000
0000
0000
0100
0000
0000
0000
0000
0000
0000
0000
0010
0000
0000
0000
0000
0000
0000
0000
1000
0000
0000
0000
0000
0000
0000
0000
0010
0000
0000
0000
0000
0000
0000
0000
0100
0000
0000
0000
0000
0000
0000
0000
0001
0000
0000
0000
0000
0000
0000
0000
0100
0000
0000
0000
0000
0000
0000
0000
0010
0000
0000
0000
0000
0000
0000
0000
0100
0000
0000
0000
0000
0000
0000
0000
0001
0000
0000
0000
0000
0000
0000
0000
,
0100
0010
0100
0010
0100
0010
1000
0010
1000
0010
1000
0010
1000
0001
1000
0001
,
1000
0000
0100
0010
0001
0000
0100
0000
0010
0000
1000
0000
0001
0000
0100
0000
,
0001
0000
0010
1000
0010
0000
0001
0000
1000
0000
0010
0001
0010
0000
1000
0000
,
0001
0000
0100
0010
1000
0000
0001
0000
0100
0000
0010
0000
1000
0000
0001
0000
,
0202
0000
0303
2020
0000
3030
1000
0100
,
0010
0000
0001
0000
0010
0000
0001
0000
1000
0001
1000
0001
1000
0001
1000
0000
,
0001
0100
0001
0100
0001
0100
0001
0100
0001
0000
0100
1000
0100
0000
0001
0000
,
1000
0100
1000
0100
1000
0100
1000
0100
1000
0000
0010
0001
0010
0000
1000
0000
,
0001
0100
0001
0100
0001
0100
0001
0100
0001
0000
0100
1000
0100
0000
0001
0000
,
1000
0100
1000
0100
1000
0100
1000
0100
1000
0000
0010
0100
0001
1000
0010
0100
,
0001
0010
0001
0010
0001
0010
0001
0010
0001
0100
0010
1000
0010
0100
0001
1000
,
0010
1000
0100
1000
0100
1000
0100
1000
0100
0010
0001
0100
0010
1000
0010
0100
,
0001
0010
0001
0100
0010
0100
0001
0010
0001
1000
0001
1000
0001
1000
0001
1000
,
0010
0100
0010
1000
0100
0010
0100
1000
0001
0010
0100
0000
0000
0000
0000
0000
,
1001
0000
0100
1000
0100
1000
0100
0010
0100
0000
0010
0001
0010
0001
0010
0100
,
0010
0000
0001
0100
0010
1000
0010
0000
0010
0000
0000
0000
1000
0000
1000
0000
,
0001
0000
0100
0001
0100
0001
0100
0010
0100
0010
1000
0010
1000
0001
1000
0001
,
1000
0100
0010
0001
1000
0100
0010
0001
1000
0100
0010
0001
1000
0100
0010
0001
,
0100
0000
0010
1000
0010
1000
0010
0100
0010
0000
0001
0010
0001
0010
0001
1000
,
0100
0000
0100
0010
0100
0010
0100
0010
0001
0000
0001
1000
0001
1000
0001
1000
,
0100
0001
0100
1000
0001
0010
1000
0010
0001
0000
0000
0000
1001
0000
0000
0000
,
1000
0001
1000
0001
1000
0001
1000
0001
2000
0000
0000
0000
0002
0000
0000
3003
,
1001
0000
0001
0010
0001
1000
0001
0000
1001
0000
1000
0010
1000
0001
1000
0000
,
1001
0000
0001
0100
0010
1000
0001
0100
0010
0000
0000
0000
0010
0000
0100
0000
,
0001
0000
1000
0100
0010
0001
0100
0010
1000
0100
1000
0100
0010
0001
0010
0001
,
0100
0010
0100
0010
0100
0010
0100
0010
0100
0010
0100
0010
0100
0010
0100
0010
,
1000
0010
1000
0010
1000
0010
1000
0010
0100
0010
1000
0001
0100
0001
1000
0010
,
0100
0001
0100
0010
0100
0010
0100
0010
1000
0010
1000
0010
0100
0001
0100
0000
,
0001
1000
0001
1000
0001
0010
0001
0010
0100
1000
0100
1000
0010
0100
0010
0100
,
0001
1000
0001
1000
0001
1000
0001
1000
0001
0000
0000
0000
1000
0001
1000
0001
,
1000
0001
1000
0001
1000
0000
0000
0000
0001
0010
0001
0010
0100
1000
0100
1000
,
0010
0100
0010
0100
0010
0100
0010
0100
0010
0000
0000
0000
0100
0010
0100
0010
,
0100
0010
0100
0010
0100
0000
0000
0000
0010
1000
0010
1000
0001
0100
0001
0100
,
0001
0000
0000
0000
,
1000
0100
1000
0100
1000
0100
0010
0001
0010
0001
0010
0001
,
1000
0001
1000
0001
1000
0001
0100
0001
1000
0010
0100
0001
,
0100
0000
0010
0000
0100
0000
0010
0000
1000
0000
0100
0000
0010
0001
0010
0001
0100
0000
0010
0000
1000
0000
0001
0000
,
0100
0000
0010
0000
0100
0000
0010
0000
1000
0000
0001
0000
1000
0100
1000
0100
0000
0000
1000
0000
0000
0000
0001
0000
,
0100
0000
1000
0010
0000
0001
0100
0000
1000
0010
0000
0001
,
1000
0100
0010
1000
0010
0001
0100
0010
0001
0010
1000
0100
,
0110
0000
0000
0000
;

//---------------dance-single - ----------------
#NOTES:
     dance-single:
     :
     Hard:
     18:
     1.110659,1.292435,0.274986,0.000000,1.420762,933.000000,900.000000,33.000000,0.000000,0.000000,0.000000,1.110659,1.292435,0.274986,0.000000,1.420762,933.000000,900.000000,33.000000,0.000000,0.000000,0.000000:
0000
0000
0000
0000
,
0000
0000
0000
0000
,
0000
0000
0000
0000
,
0000
0000
0000
0000
,
1001
0000
0000
0000
0000
0101
0000
0000
,
1100
0000
0000
0000
0000
1010
0000
0000
,
0011
0000
0000
0000
0000
0110
0000
0000
,
0010
0010
0010
0010
,
0001
0100
0001
0100
0010
1000
0100
0001
,
0100
1000
0100
1000
0000
0010
0100
0010
,
1000
0010
1000
0010
0100
0001
1000
0001
,
0010
1000
0010
1000
0000
0010
0001
0100
,
0010
0001
0010
1000
0100
0010
1000
0010
,
0001
1000
0001
1001
0000
0001
0010
0100
,
0001
0100
1000
0010
0100
1000
0100
0001
,
1000
0010
1000
1010
0000
0000
0000
0000
,
1000
0010
1000
0010
1000
0010
1000
0010
1000
0000
0100
0000
0010
0000
0001
0000
,
0011
0000
0000
0000
,
0001
0010
0001
0010
0001
0010
0001
0010
0001
0000
0010
0000
0100
0000
1000
0000
,
1100
0000
0000
0000
,
1000
0001
1000
0001
1000
0001
1000
0001
0100
0000
0010
0000
1000
0000
0001
0000
,
1001
0000
0000
0000
,
0100
0001
0100
0001
0100
0001
0100
0001
0100
0000
0010
0000
1000
0000
0001
0000
,
0010
0001
1000
0010
1000
0100
0010
0001
,
0001
0010
0001
0010
0001
0010
0001
0010
0001
0000
1000
0000
0010
0000
0100
0000
,
0010
1000
0010
1000
0010
1000
0010
1000
0100
0010
0001
0100
0010
1000
0001
1000
,
0100
0010
0100
0010
0100
0010
0100
0010
0001
0000
0010
0000
0100
0000
1000
0000
,
0001
1000
0001
1000
0001
1000
0001
1000
0010
0100
0001
0100
0010
1000
0001
1000
,
0100
1000
0100
1000
0100
1000
0100
1000
0100
0000
0010
0000
0001
0000
1000
0000
,
0010
1000
0010
1000
0010
1000
0010
1000
0001
0010
0100
0010
0001
1000
0100
0010
,
0001
0100
0001
0100
0001
0100
0001
0100
0001
0000
0010
0000
0100
0000
1000
0000
,
0010
1000
0010
0100
0001
0100
0000
0100
0010
1000
0010
0100
0001
0100
0001
0000
,
1000
0100
0010
0100
1000
0100
0010
0100
1000
0000
0100
0000
0010
0000
0001
0000
,
0100
0001
0010
0001
0100
0001
0010
0001
0100
0000
0010
0000
1000
0000
0001
0000
,
0010
0100
1000
0100
0010
0100
1000
0100
0010
0000
0001
0000
1000
0000
0010
0000
,
0100
0001
1000
0001
0100
0001
1000
0001
0100
0000
0010
0000
1000
0000
0001
0000
,
1000
0010
0100
0010
1000
0010
0100
0010
1000
0000
0100
0000
0010
0000
0001
0000
,
0010
0001
1000
0001
0010
0001
1000
0001
0010
0000
0100
0000
1000
0000
0100
0000
,
1000
0010
1000
0010
1000
0000
0010
0100
0010
0100
0010
0100
0010
0000
0001
0010
,
0001
0010
0001
0010
0001
0000
0100
0000
0010
0000
1000
0000
0001
0000
0100
0000
,
0110
1010
1001
0011
,
0110
0011
1001
1010
,
0110
0101
1010
1100
,
0110
0000
0000
1100
0000
0000
1000
0010
0100
0001
0010
0100
,
1000
0010
0001
0010
1000
0010
0100
1000
0100
0001
0100
1000
,
0100
0001
0010
0001
0100
0001
0010
1000
0010
0001
0010
1000
,
0010
0001
0100
0001
0010
0001
0100
1000
0100
0001
0100
1000
,
0100
0010
1000
0010
0100
0010
1000
0010
0001
0010
1000
0010
,
0100
0000
0001
0000
0000
0010
0100
0000
1000
0000
0000
0010
,
0000
0000
0110
0000
0000
0100
0001
0000
1000
0000
0000
0010
,
0100
0000
0000
0000
0000
0000
0000
0000
0000
0001
0010
0100
1000
0010
0100
0001
,
0000
0000
0000
0000
0000
0000
0000
0000
0000
1000
0010
0100
0001
0010
0100
1000
,
0000
0000
0000
0000
0000
0000
0000
0000
0000
0001
1000
0010
0100
0010
1000
0001
,
0100
0000
0000
0000
0000
0000
0000
0000
0000
0000
0000
0000
0000
0000
0000
0000
0000
0000
0000
0000
0000
0000
0000
0000
0101
0000
0000
0000
0000
0000
0000
0000
0000
0000
0000
0000
0000
0000
0000
0000
0000
0000
0000
0000
0000
0000
0000
0000
1010
0000
0000
0000
0000
0000
0000
0000
0000
0000
0000
0000
0000
0000
0000
0000
0000
0000
0000
0000
0000
0000
0000
0000
0000
0000
0000
0000
0000
0000
0000
0000
0000
0000
0000
0000
0001
0000
0000
0000
0000
0000
0100
0000
0000
0000
0000
0000
0001
0000
0000
0000
0000
0000
0100
0000
0000
0000
0000
0000
0001
0000
0000
0000
0000
0000
0100
0000
0000
0000
0000
0000
0001
0000
0000
0000
0000
0000
0000
0000
1000
0000
0000
0000
0000
0000
0000
0000
0100
0000
0000
0000
0000
0000
0000
0000
0010
0000
0000
0000
0000
0000
0000
0000
0001
0000
0000
0000
0000
0000
0000
0000
1000
0000
0000
0000
0000
0000
0000
0000
0100
0000
0000
0000
0000
0000
0000
0000
0010
0000
0000
0000
0000
0000
0000
0000
0001
0000
0000
0000
0000
0000
0000
0000
,
1000
0010
1000
0000
0010
0000
0100
0000
0001
0000
0010
0000
0011
0000
0000
0000
,
0001
0000
0100
0001
0100
0001
0100
0001
0100
0000
0010
0000
1000
0000
0001
0000
,
0100
0010
0100
0000
0001
0000
1000
0000
0010
0000
0100
0000
0110
0000
0000
0000
,
0010
0000
1000
0001
1000
0001
1000
0001
1000
0000
0010
0000
1000
0000
0010
0000
,
0100
0001
0100
0000
0000
0000
0001
0010
0001
0000
0000
0000
1000
0100
1000
0000
,
0001
0100
0010
1000
0010
0100
0010
0100
,
0001
1000
0001
1000
0001
1000
0001
1000
0001
0000
0100
0010
0100
0010
0100
0010
,
1000
0001
1000
0001
1000
0001
1000
0001
1000
0000
0010
0100
0010
0100
0010
0100
,
0001
0010
0001
0010
0001
0010
0001
0010
0001
0000
0100
0010
0100
0010
0100
0010
,
1000
0100
1000
0100
1000
0100
1000
0100
1000
0000
0010
1000
0010
1000
0010
1000
,
0001
0010
0001
0010
0001
0010
0001
0010
0001
0000
0100
0000
0010
0000
1000
0000
,
0100
0000
1000
0100
1000
0100
1000
0100
1000
0000
0010
0000
0100
0000
0001
0000
,
0010
0000
0100
0000
1000
0000
0001
0000
0010
0100
0010
0100
0010
0100
0010
0100
,
0010
0001
1000
0010
0100
0110
0000
0000
,
0001
0000
0100
0001
0100
0001
0100
0000
0010
0000
1000
0010
1000
0010
1000
0000
,
0001
0000
0100
0010
0100
0010
0100
0000
0010
0000
0000
0000
0010
0000
0010
0000
,
1000
0000
0001
0010
0001
0010
0001
0000
0100
0010
1000
0010
1000
0010
1000
0000
,
0001
0010
0100
1000
0001
0010
0100
1000
0001
0010
0100
1000
0001
0010
0100
1000
,
0001
0000
0001
0100
0010
0100
0001
0000
1000
0000
1000
0100
0010
0100
1000
0000
,
0001
0000
0001
0010
1000
0010
0001
0000
1000
0000
1000
0100
0001
0100
1000
0000
,
1000
0010
0100
0001
1000
0010
0100
0001
0100
0000
0000
0000
1001
0000
0000
0000
,
0010
0100
0010
0100
0010
0100
0010
0100
0010
0000
0000
0000
0000
0000
0000
0000
,
1000
0000
0001
0010
0100
1000
0100
0010
0001
0000
1000
0100
0010
0001
0010
0100
,
1000
0000
0001
0010
0100
0010
0001
0010
0100
0000
0000
0000
0010
0000
0010
0000
,
0001
0000
1000
0100
0010
0100
1000
0100
0010
0000
0001
0010
0100
0010
0001
0010
,
0100
1000
0001
0010
0100
1000
0001
0010
0100
1000
0001
0010
0100
1000
0001
0010
,
0001
0100
0001
0010
0001
0100
0001
0010
0100
0000
1000
0010
1000
0001
1000
0010
,
1000
0100
0010
0001
0010
0100
1000
0100
0010
0001
0100
0010
1000
0010
0100
0001
,
1000
0010
0100
0001
0010
0100
1000
0001
,
1000
0010
1000
0010
1000
0010
1000
0010
1000
0000
0000
0000
0001
0010
0001
0010
,
0001
0010
0001
0010
0001
0000
0000
0000
0001
1000
0001
1000
0010
0100
0010
0100
,
0001
0010
0001
0010
0001
0010
0001
0010
0001
0000
0000
0000
1000
0010
1000
0010
,
1000
0010
1000
0010
1000
0000
0000
0000
1000
0001
1000
0001
0100
0010
0100
0010
,
0100
0000
0000
0000
,
0001
0000
0001
0010
0000
0010
0001
0000
0001
0010
0000
0010
,
0100
0000
0100
1000
0000
1000
0100
0000
0100
1000
0000
1000
,
0010
0000
1000
0000
0000
1000
0001
0000
0010
0000
0000
0010
,
0001
0000
0100
0000
0000
0100
0010
0000
1000
0010
0000
0100
,
0001
0100
1000
0100
0010
1000
0100
0001
0100
0010
1000
0001
,
1000
0100
0010
1000
0010
0001
0100
0010
0001
0010
1000
0001
,
1001
0000
0000
0000
;

//---------------dance-single - ----------------
#NOTES:
     dance-single:
     :
     Medium:
     15:
     0.763057,0.939953,0.416646,0.199990,0.458310,641.000000,591.000000,50.000000,24.000000,0.000000,0.000000,0.763057,0.939953,0.416646,0.199990,0.458310,641.000000,591.000000,50.000000,24.000000,0.000000,0.000000:
0000
0000
0000
0000
,
0000
0000
0000
0000
,
0000
0000
0000
0000
,
0000
0000
0000
0000
,
1100
0000
0000
0000
0000
0010
0000
0000
,
0101
0000
0000
0000
0000
0010
0000
0000
,
1100
0000
0000
0000
0000
0011
0000
0000
,
1001
0101
1010
1001
,
1000
0100
0010
0100
1000
0001
0010
0010
,
0001
0100
1000
0100
0000
0001
0010
0100
,
0010
0001
1000
0001
0010
0100
1000
0100
,
0010
0001
0010
0001
0000
0010
1000
0010
,
0001
0100
0010
0100
0001
0010
0100
1000
,
0010
0100
0010
0100
0000
0100
0010
1000
,
0100
0010
0001
0010
0100
1000
0001
1000
,
0100
0010
0100
0010
0000
0000
0000
0000
,
0001
0010
0001
0010
0001
0000
0100
0000
1000
0000
0100
0000
0001
0000
0010
0000
,
0011
0000
0000
0000
,
1000
0010
1000
0010
1000
0000
0100
0000
0001
0000
0100
0000
1000
0000
0010
0000
,
1010
0000
0000
0000
,
0001
0010
0001
0010
0001
0000
0010
0000
1000
0000
0010
0000
0001
0000
0100
0000
,
0101
0000
0000
0000
,
1000
0010
1000
0010
1000
0000
0010
0000
0001
0000
0010
0000
1000
0000
0100
0000
,
0010
0100
0010
0100
0010
0001
0010
0001
,
0010
0001
0010
0001
0010
0000
0001
0000
0100
0000
0010
0000
1000
0000
0001
0000
,
1000
0100
1000
0100
1000
0100
0010
0001
,
0100
0000
0010
0100
0010
0000
1000
0000
0001
0000
0010
0000
0001
0000
1000
0000
,
0001
0100
0001
0100
0001
0100
0010
1000
,
0010
0100
0010
0100
0010
0000
1000
0000
0001
0000
1000
0000
0100
0000
0010
0000
,
0001
1000
0001
1000
0001
1000
0010
0100
,
0001
0000
1000
0100
1000
0000
0001
0000
0010
0000
0100
0000
1000
0000
0010
0000
,
0100
0000
0010
0000
0100
0010
0000
0010
0100
0000
0001
0000
1000
0000
0010
0000
,
2010
0000
0000
0000
0000
3100
0010
0012
,
0000
0000
0000
0000
0000
0103
0010
0210
,
0000
0000
0000
0000
0000
0301
1000
1020
,
0000
0000
0000
0000
0000
1030
0100
2100
,
0000
0000
0000
0000
0000
3001
0010
0012
,
0000
0000
0000
0000
0000
0103
0010
2020
,
0000
3030
0000
0220
0000
0330
0000
0202
,
0000
0000
0000
0303
0001
1000
0010
0100
,
0010
0010
1100
0101
,
1000
1000
0101
1100
,
0001
0001
1010
0011
,
0100
0000
0000
0100
0000
0000
0001
1000
0001
1000
0001
1000
,
0001
0000
0001
0010
0000
0010
0001
0000
0001
0010
0000
0010
,
0100
0000
0100
1000
0000
1000
0100
0000
0100
1000
0000
1000
,
0010
0000
0010
1000
0000
1000
0010
0000
0010
1000
0000
1000
,
0001
0000
0001
0100
0000
0100
0001
0000
0001
0100
0000
0100
,
0010
0000
0000
0000
0000
1000
0001
0000
1000
0000
0000
0000
,
0000
0000
0000
0000
0000
0001
0100
0000
0001
0000
0000
0000
,
1001
0000
0000
0000
0000
0000
0000
0000
0000
0000
0000
0000
0000
0000
0000
0000
0000
0000
0100
1000
0100
0000
0010
0000
0001
0000
0100
0000
0010
0000
1000
0000
,
0000
0000
0000
0000
0000
0000
0000
0000
0000
0000
0000
0000
0000
0000
0000
0000
0000
0000
0010
0001
0010
0000
0100
0000
1000
0000
0010
0000
0100
0000
0001
0000
,
0000
0000
0000
0000
0000
0000
0000
0000
0000
0000
0000
0000
0000
0000
0000
0000
0000
0000
0001
1000
0001
0000
0100
0000
0010
0000
0100
0000
0001
0000
1000
0000
,
0010
0000
0100
0000
1001
0000
0000
0020
0200
0000
0000
0000
0000
0000
0330
0000
,
0001
0010
0000
0001
1000
0000
0001
0010
,
0000
0100
1000
0100
0001
0100
1000
0001
,
2002
0000
3003
2020
0000
3030
2002
0000
,
3003
0100
1000
0100
0001
0100
1000
0001
,
2002
0000
3003
0022
0000
0033
1001
0000
,
0100
0000
0010
0000
1000
0001
1000
0001
,
1000
0100
1000
0100
1000
0100
1000
0100
1000
0000
0000
0000
1001
0000
0000
0000
,
0001
0100
0001
0100
0001
0100
0001
0100
0001
0000
0000
0000
1001
0000
0000
0000
,
1000
0100
1000
0100
1000
0100
1000
0100
1000
0000
0000
0000
1001
0000
0000
0000
,
0001
0100
0001
0100
0001
0100
0001
0100
0001
0000
0000
0000
1001
0000
0000
0000
,
0001
1000
0001
1000
0001
1000
0010
0100
,
0001
1000
0100
1000
0100
1000
0010
0100
,
0001
0010
0100
1000
0010
1000
0010
1000
,
0001
0010
0100
1000
0100
0010
0000
0000
,
0001
0000
0100
0010
0100
0000
0001
0000
1000
0000
0010
0000
0100
0000
0010
0000
,
1000
0000
0001
0010
0001
0000
1000
0000
0001
0000
0000
0000
0001
0000
0001
0000
,
1000
0000
0010
0100
0010
0000
1000
0000
0001
0000
0010
0000
0100
0000
0010
0000
,
0001
0001
0001
0001
,
0100
0001
0010
0001
0100
0010
1000
0010
,
1000
0100
0010
0001
0100
0010
0100
0100
,
0001
0010
0001
0010
0011
0000
1100
0000
,
1000
0001
1000
0001
1000
0001
1000
0001
1000
0000
0000
0000
0000
0000
0000
0000
,
0101
0000
1010
0000
,
1000
0100
0010
0001
0011
0000
0001
0001
,
1000
0000
0001
0010
0001
0000
1000
0000
0010
0000
0100
0000
0001
0000
0100
0000
,
0010
0000
0010
0000
0010
0000
0010
1000
,
0001
0010
1000
0010
0001
0000
1001
0000
,
1000
0010
0001
0010
1000
0100
0001
0100
,
1000
0010
0100
0001
0010
0100
1000
0001
,
1000
0001
1000
0001
1000
0001
1000
0001
1000
0000
0000
0000
0001
1000
0001
1000
,
0001
1000
0001
1000
0001
0000
0000
0000
0100
0000
0000
0000
0010
0000
0000
0000
,
1000
0001
1000
0001
1000
0001
1000
0001
1000
0000
0000
0000
0001
1000
0001
1000
,
0001
1000
0001
1000
0001
0000
0000
0000
0100
0000
0000
0000
0010
0000
0000
0000
,
0110
0000
0000
0000
,
1000
0010
1000
0010
,
0001
0010
0001
0010
,
1000
0000
0100
0010
0000
0001
0100
0000
0010
1000
0000
0000
,
0001
0000
0010
0100
0000
1000
0010
0000
0100
0001
0000
0000
,
1001
0101
1001
1100
,
0010
0100
0001
0100
0010
1000
0010
0100
0001
0100
0010
1000
,
1010
0000
0000
0000
;

//---------------dance-single - ----------------
#NOTES:
     dance-single:
     :
     Easy:
     12:
     0.574971,0.939953,0.349983,0.224989,0.137493,483.000000,441.000000,42.000000,27.000000,0.000000,0.000000,0.574971,0.939953,0.349983,0.224989,0.137493,483.000000,441.000000,42.000000,27.000000,0.000000,0.000000:
0000
0000
0000
0000
,
0000
0000
0000
0000
,
0000
0000
0000
0000
,
0000
0000
0000
0000
,
1010
0000
0000
0000
0000
0010
0000
0000
,
0110
0000
0000
0000
0000
0100
0000
0000
,
0101
0000
0000
0000
0000
0001
0000
0000
,
0010
0010
0110
1100
,
1000
0010
1000
0000
1000
0100
1000
0000
,
0001
0010
0001
0100
0000
0000
0001
0000
,
0100
0001
0100
0000
0100
0010
0100
0000
,
0010
1000
0010
0100
0000
0000
0010
0000
,
1000
1100
0010
0011
,
0001
0100
0010
1000
0000
1000
0001
1000
,
0001
0101
0010
1010
,
0010
0010
0100
0100
0000
0000
0000
0000
,
0220
0000
0000
0030
,
0301
0000
0000
0000
,
2020
0000
0000
3000
,
0130
0000
0000
0000
,
2002
0000
0000
3000
,
0013
0000
0000
0000
,
0022
0000
0000
0003
,
0130
1100
0110
0011
,
0001
0010
0001
0100
0001
1000
0001
0100
,
0001
0001
0100
0010
,
1000
0100
1000
0010
1000
0001
1000
0010
,
1000
1000
0010
0100
,
0010
1000
0010
0100
0010
0001
0010
0100
,
0010
0010
1000
0001
,
0100
0001
0100
0010
0100
1000
0100
0010
,
0100
0100
0100
0000
0001
0000
1000
0000
,
0001
0000
0010
0000
0001
0010
0100
1000
,
0100
0000
1000
0000
0100
0010
0001
0010
,
0100
0000
0010
0000
0001
1000
0010
0100
,
0010
0000
1000
0000
0010
1000
0001
0100
,
0010
0000
0100
0000
0010
0100
0001
0100
,
0010
0000
1000
0000
0010
1000
0100
1000
,
0020
0000
0030
0220
0000
0330
0000
0202
,
0000
0303
0001
1000
,
0001
0001
0011
1100
,
1000
1000
1010
0101
,
0010
0010
0110
1001
,
1000
0100
0001
0010
,
1000
0000
1000
0100
0000
0000
1000
0000
1000
0010
0000
0000
,
0100
0000
0100
0010
0000
0000
0100
0000
0100
0001
0000
0000
,
0001
0000
0001
0010
0000
0000
0001
0000
0001
0100
0000
0000
,
0010
0000
0010
1000
0000
0000
0010
0000
0010
0100
0000
0000
,
0110
0000
0000
0000
0000
1000
0001
0000
1000
0000
0000
0000
,
0000
0000
0000
0000
0000
0001
1000
0000
0001
0000
0000
0000
,
0200
0000
0000
0000
0000
0000
0000
0000
0300
0010
0100
0010
1000
0100
0010
0001
,
0020
0000
0000
0000
0000
0000
0000
0000
0000
0130
0010
0100
1000
0001
0100
0010
,
0200
0000
0000
0000
0000
0000
0000
0000
0300
0010
0001
0010
1000
0100
0010
0001
,
0100
0000
0101
0000
0011
0000
0000
0010
0100
1000
0100
1000
0010
1000
0010
1000
,
0010
0000
0010
1000
0000
1000
0001
0000
,
0000
0100
0001
1000
0010
1000
0001
0100
,
0001
0000
0001
0010
0000
0010
0100
0000
,
0000
0100
1000
0010
1000
0100
0010
0001
,
2000
0000
3000
2002
0000
3003
0011
0000
,
0100
0000
1000
0000
0010
0100
0010
0100
,
0020
0000
0000
0000
0000
0130
0010
1000
,
0002
0000
0000
0000
0003
0001
0100
0010
,
2000
0000
0000
0000
3000
1000
0001
0100
,
0020
0000
0000
0000
0030
0010
0100
0001
,
1000
0010
1000
0010
0100
0001
0010
0001
,
0100
0001
0100
0001
1000
0010
0100
0001
,
0010
0100
1000
0001
0010
0001
0010
0001
,
0100
0010
1000
0001
0000
0000
0000
0000
,
0100
0001
0100
0010
0100
0000
0010
1000
,
0010
0000
0100
0001
0100
0000
0001
0001
,
1000
0100
0010
0001
,
0200
0010
0010
0310
,
0100
0001
1000
0000
0010
1000
0001
0000
,
0101
0011
1100
1010
,
1000
0001
1000
0001
1001
0000
0100
0000
,
0220
0000
0330
0000
,
1100
0000
0101
0000
,
0011
0000
0000
0000
1010
0000
1000
0001
,
0100
1000
0100
0001
0010
1000
0010
0001
,
0200
0000
0010
0000
0010
0000
0310
1000
,
0001
0000
0010
0000
0011
0000
0001
0100
,
0010
1000
0010
1000
0010
0100
0010
0000
,
1000
0100
0010
0001
0100
0000
0100
0000
,
0001
1000
0001
1000
0001
0000
1000
0001
,
1000
0001
1000
0000
0010
0000
0010
0000
,
0100
0010
0100
0010
0100
0000
0010
0100
,
0010
0100
0010
0000
1000
0000
1000
0000
,
1001
0000
0000
0000
,
0001
0001
0001
0001
,
0100
0100
0010
0010
,
1000
0000
0001
0100
0000
0000
0001
0000
1000
0100
0000
0000
,
1000
0000
0001
0010
0000
0000
0001
0000
1000
0010
0000
0000
,
0100
0100
0010
0010
,
1000
1000
0001
0001
,
1001
0000
0000
0000
;

//---------------dance-single - ----------------
#NOTES:
     dance-single:
     :
     Beginner:
     4:
     0.244035,0.391647,0.258320,0.199990,0.000000,205.000000,174.000000,31.000000,24.000000,0.000000,0.000000,0.244035,0.391647,0.258320,0.199990,0.000000,205.000000,174.000000,31.000000,24.000000,0.000000,0.000000:
0000
0000
0000
0000
,
0000
0000
0000
0000
,
0000
0000
0000
0000
,
0000
0000
0000
0000
,
0001
0000
0000
0000
,
1000
0000
0000
0000
,
0001
0000
0000
0000
,
0010
0010
0010
0010
,
0010
0000
0000
0000
,
0100
0000
0000
0000
,
1000
0000
0000
0000
,
0010
0000
0000
0000
,
0100
0100
0100
0100
,
0100
0000
0000
0000
,
0001
0001
0001
0001
,
0001
0000
0000
0000
,
2002
0000
3003
0000
,
0010
0000
0000
0000
,
0220
0000
0330
0000
,
1000
0000
0000
0000
,
2002
0000
3003
0000
,
0100
0000
0000
0000
,
0220
0000
0330
0000
,
0001
0001
0001
0001
,
0001
0000
0001
0000
,
2000
0000
3000
0000
,
1001
0000
1000
0000
,
0002
0000
0003
0000
,
0110
0000
0010
0000
,
0200
0000
0300
0000
,
0110
0000
0100
0000
,
0020
0000
0030
0000
,
2000
0000
3000
0000
,
0002
0000
0003
0000
,
0200
0000
0300
0000
,
0020
0000
0030
0000
,
0200
0000
0300
0000
,
0002
0000
0003
0000
,
0010
0000
0010
0000
,
0010
0000
0000
0000
,
0100
0100
0100
0000
,
1000
1000
1000
0000
,
0001
0001
0001
0000
,
0010
0000
0001
0001
,
0001
0001
0001
0000
,
0100
0100
0100
0000
,
0010
0010
0010
0000
,
1000
1000
1000
1000
,
1000
0000
0001
0000
,
0100
0000
0010
0000
,
0110
0000
0000
0110
,
0000
0000
0000
1001
,
0000
0000
0000
1001
,
1001
0000
1000
1000
,
1000
0000
0000
0010
,
0000
0010
0000
0000
,
0100
0000
0000
0001
,
0000
0001
0000
0000
,
0001
0000
0000
0010
,
0010
0010
0010
0000
,
0110
0000
0000
1001
,
1001
0000
0000
0110
,
0110
0000
0000
1001
,
1001
0000
0000
1000
,
2000
0000
0000
3000
,
0000
0002
0000
0000
,
0003
0000
0200
0000
,
0000
0300
0000
0000
,
0110
0000
1000
0000
,
0001
0000
1000
0000
,
0110
0000
0001
0000
,
2000
0000
3000
0000
,
1001
0000
0010
0000
,
0110
0110
0110
0000
,
0100
0000
0001
0000
,
1000
1000
1000
0000
,
0001
0000
0010
0000
,
0100
0000
1000
1000
,
1000
0000
0001
0000
,
2002
0000
3003
0000
,
1000
0000
0100
0000
,
0010
0010
0010
0000
,
0100
0000
1000
0000
,
1000
1000
0000
0001
,
0001
0000
0110
0000
,
0001
0001
0000
1000
,
1000
0000
1001
1001
,
1001
0000
0000
0000
,
0010
0010
0010
0010
,
0010
0010
0010
0010
,
0010
0000
0001
0000
,
0100
0000
1000
0000
,
0010
0010
0010
0000
,
0100
0100
0100
0000
,
1001
0000
0000
0000
;

//---------------dance-double - ----------------
#NOTES:
     dance-double:
     :
     Easy:
     12:
     0.505927,0.900788,0.391647,0.474976,0.099995,425.000000,378.000000,47.000000,57.000000,0.000000,0.000000,0.505927,0.900788,0.391647,0.474976,0.099995,425.000000,378.000000,47.000000,57.000000,0.000000,0.000000:
00000000
00000000
00000000
00000000
,
00000000
00000000
00000000
00000000
,
00000000
00000000
00000000
00000000
,
00000000
00000000
00000000
00000000
,
11000000
00000000
00000000
00000000
00000000
00100000
00000000
00000000
,
01010000
00000000
00000000
00000000
00000000
00100000
00000000
00000000
,
00011000
00000000
00000000
00000000
00000000
00000010
00000000
00000000
,
00001100
00000101
00001001
00000110
,
00000010
00000100
00000001
00000100
00000010
00000000
00000010
00000000
,
00000100
00001000
00010000
01000000
00000000
10000000
00010000
00000000
,
10000000
00100000
01000000
00100000
10000000
00000000
01000000
00000000
,
00010000
00001000
00000100
00000001
00000000
00001000
00000001
00000000
,
00000101
00001010
00000101
00001010
,
00000001
00000100
00001000
00010000
00000000
01000000
10000000
00000000
,
10100000
01010000
10100000
01010000
,
10000000
01000000
00100000
00010000
00000000
00000000
00000000
00000000
,
02020000
00000000
00000000
03030000
,
00101000
00000000
00000000
00000000
,
00020200
00000000
00000000
00030300
,
00001010
00000000
00000000
00000000
,
00000202
00000000
00000000
00000303
,
00001010
00000000
00000000
00000000
,
00022000
00000000
00000000
00033000
,
00100000
00100000
00010000
01000000
,
00100000
10000000
00100000
01000000
00010000
00100000
00001000
00010000
,
00002000
00000000
00000000
00000000
,
00013000
00000100
00010000
00000010
00000100
00000001
00001000
00000010
,
00000200
00000000
00000000
00000000
,
00000301
00000010
00000001
00001000
00000100
00010000
00001000
00100000
,
00002000
00000000
00000000
00000000
,
00103000
01000000
00100000
00010000
01000000
00100000
10000000
00010000
,
10000000
00010000
10000000
00010000
,
02000000
00000000
00000000
00000000
03000000
00010000
00100000
00020000
,
00000000
00000000
00000000
00030000
00000000
00100000
00001000
00020000
,
00000000
00000000
00000000
00030000
00000000
00000100
00001000
00000020
,
00000000
00000000
00000000
00000030
00000000
00000100
00000001
00002000
,
00000000
00000000
00000000
00003000
00000000
00000100
00010000
00002000
,
00000000
00000000
00000000
00003000
00000000
00100000
00010000
00200000
,
00000000
00000000
00000000
02300000
00000000
00000000
00000000
23000000
,
00000000
00000000
00010000
30010000
,
10000000
10000000
01000000
00010000
,
00001000
00001000
00000100
00000001
,
00000100
00001000
00010000
00100000
,
01000000
10000000
01000000
01000000
,
00020000
00032000
00003020
00000032
,
00000203
00002300
00023000
00030200
,
00000320
00002030
00023000
00230000
,
02300000
03020000
00230000
20300000
,
30100000
00000000
00010000
00000000
00000000
00000000
01000000
00000000
00010000
00000000
00000000
00000000
,
00000000
00000000
00000000
00000000
00000000
00000000
00100000
00000000
00001000
00000000
00000000
00000000
,
00011000
00000000
00000000
00000000
00000000
00000000
00000000
00000000
00000000
00000010
00000100
00000001
00001000
00000010
00000100
00000001
,
00000000
00000000
00000000
00000000
00000000
00000000
00000000
00000000
00000000
00010000
00001000
00100000
00001000
00010000
00000100
00010000
,
00000000
00000000
00000000
00000000
00000000
00000000
00000000
00000000
00000000
01000000
00100000
10000000
00010000
01000000
00100000
10000000
,
00010000
00000000
10000000
00000000
01100000
00000000
00000000
01000000
00100000
01000000
00100000
10000000
00010000
10000000
00010000
01000000
,
00100000
00000000
10000000
01000000
00000000
00010000
00001000
00000000
,
00000000
00000010
00000001
00000010
00000001
00001000
00000001
00001000
,
00000001
00000000
00000100
00001000
00000000
00010000
01000000
00000000
,
00000000
10000000
00010000
10000000
00010000
01000000
00010000
01000000
,
00020000
00000000
00030000
00202000
00000000
00303000
00011000
00000000
,
00010100
00000000
00000100
00000010
00000001
00001000
00000001
00000100
,
00000220
00000000
00000000
00000000
00000330
00000010
00010000
00001000
,
00022000
00000000
00000000
00000000
00033000
00001000
01000000
00100000
,
02200000
00000000
00000000
00000000
03300000
10000000
00010000
01000000
,
02200000
00000000
00000000
00000000
03300000
01000000
00001000
00010000
,
00000100
00001000
00000100
00001000
00000100
00000000
00000010
00000000
,
00000001
00000000
00000100
00001000
00010000
00000000
01000000
00000000
,
10000000
00000000
00100000
00000000
00010000
00001000
00000100
00000000
,
00000001
00000100
00001000
00010000
01000000
10000000
00000000
00000000
,
00100000
01000000
00100000
10000000
00100000
00000000
10000000
00000000
,
01000000
00010000
00001000
00000100
00000001
00000000
00001000
00000010
,
00001000
00000001
00000100
00001000
,
00010000
01000000
10000000
00000000
10000000
00100000
01000000
00000000
,
00010000
00100000
00010000
01000000
00010000
00000000
00100000
00001000
,
00010000
00010000
00000100
00000100
,
00001000
00000010
00001000
00000000
00001001
00000000
00000110
00000000
,
00000200
00000000
00000300
00000000
,
00000101
00000000
00010010
00000000
,
01001000
00000000
00000000
00000000
10100000
00000000
10000000
00010000
,
10000000
01000000
00010000
00001000
,
00000200
00000000
00000000
00000000
00000000
00000000
00000300
00000001
,
00000010
00001000
00010000
00000000
00100000
10000000
00100000
00000000
,
10000000
01000000
00010000
00001000
00000100
00000001
00000100
00000010
,
00001000
00000001
00001000
00000000
00000010
00000000
00000010
00000000
,
00020020
00000000
00030030
00022000
,
00000000
00033000
00100000
00100000
,
00202000
00000000
00303000
00022000
,
00000000
00033000
00000010
00000010
,
00000110
00000000
00000000
00000000
,
00000001
00000100
00001000
00001000
,
00010000
01000000
10000000
10000000
,
00100000
00000000
01000000
00100000
00000000
00000000
01000000
00000000
00001000
01000000
00000000
00000000
,
00001000
00000000
00010000
00001000
00000000
00000000
00010000
00000000
00000010
00010000
00000000
00000000
,
00000100
00001010
00010000
00011000
,
01000000
01010000
00100000
10100000
,
10010000
00000000
00000000
00000000
;

//---------------dance-double - ----------------
#NOTES:
     dance-double:
     :
     Medium:
     15:
     0.695203,0.939953,0.316651,0.149993,0.408313,584.000000,546.000000,38.000000,18.000000,0.000000,0.000000,0.695203,0.939953,0.316651,0.149993,0.408313,584.000000,546.000000,38.000000,18.000000,0.000000,0.000000:
00000000
00000000
00000000
00000000
,
00000000
00000000
00000000
00000000
,
00000000
00000000
00000000
00000000
,
00000000
00000000
00000000
00000000
,
00000101
00000000
00000000
00000000
00000000
00001000
00000000
00000000
,
00011000
00000000
00000000
00000000
00000000
00010000
00000000
00000000
,
01010000
00000000
00000000
00000000
00000000
00100000
00000000
00000000
,
00110000
10010000
11000000
01010000
,
00010000
00001000
00000100
00000001
00001000
00000010
00000100
00000001
,
00000010
00000010
00001000
00001000
00000000
00010000
00100000
10000000
,
00010000
01000000
00100000
10000000
01000000
00010000
00001000
00000010
,
00000001
00000001
00000100
00000100
00000000
00001000
00010000
00100000
,
10100000
11000000
00110000
01010000
,
01000000
00100000
00010000
00001000
00000000
00000100
00000001
00000100
,
00000101
00001010
00001100
00000011
,
00000001
00000010
00001000
00010000
00000000
00000000
00000000
00000000
,
00100000
10000000
00100000
10000000
00100000
10000000
00100000
10000000
00100000
00000000
10000000
00000000
00100000
00000000
10000000
00000000
,
00100000
00000000
00000000
00000000
,
01000000
00001000
01000000
00001000
01000000
00001000
01000000
00001000
01000000
00000000
00001000
00000000
01000000
00000000
00001000
00000000
,
01000000
00000000
00000000
00000000
,
00010000
00000010
00010000
00000010
00010000
00000010
00010000
00000010
00010000
00000000
00000010
00000000
00010000
00000000
00000010
00000000
,
00010000
00000000
00000000
00000000
,
00000010
00000100
00000010
00000100
00000010
00000100
00000010
00000100
00000010
00000000
00000100
00000000
00000010
00000000
00000100
00000000
,
00000001
00000001
00001000
00001000
,
00000001
00000100
00001000
00010000
01000000
10000000
01000000
10000000
,
11000000
01000000
00100000
00010000
,
10000000
01000000
00010000
00001000
00000100
00000001
00000100
00000001
,
00000101
00000100
00000010
00001000
,
00000001
00000010
00001000
00010000
00100000
10000000
00100000
10000000
,
10100000
00000000
01010000
00000000
10000000
00100000
01000000
00010000
,
10000000
01000000
00010000
00001000
00000100
00000001
00000100
00000001
,
00001000
00000010
00001000
00000000
00000010
00000100
00000010
00000000
,
00000200
00000000
00000000
00000000
00000300
00000010
00001000
00000200
,
00000000
00000000
00000000
00000000
00000300
00000010
00001000
00020000
,
00000000
00000000
00000000
00030000
00000000
00100000
10000000
02000000
,
00000000
00000000
00000000
00000000
03000000
00010000
00001000
00000200
,
00000000
00000000
00000000
00000000
00000300
00000001
00001000
00000020
,
00000000
00000000
00000000
00000000
00000030
00000100
00001000
00002100
,
00000000
00000000
00003000
00021000
00000000
00000000
00030000
00210000
,
00000000
00000000
00000000
00300000
10000000
00010000
01000000
00100000
,
10000000
01000000
11000000
01010000
,
00010000
00001000
00001100
00000101
,
00000001
00001000
00001001
00011000
,
00001000
00000000
00000000
01000000
00000000
00000000
00100000
10000000
00100000
01000000
00010000
00100000
,
00010000
00000000
00010000
01000000
00000000
01000000
00100000
00000000
00100000
00010000
00000000
00010000
,
00001000
00000000
00001000
00000010
00000000
00000010
00000001
00000000
00000001
00000100
00000000
00000100
,
00000010
00000000
00000010
00000100
00000000
00000100
00001000
00000000
00001000
00010000
00000000
00010000
,
01000000
00000000
01000000
10000000
00000000
10000000
00100000
00000000
00100000
01000000
00000000
01000000
,
00010000
00000000
10000000
00000000
00000000
00100000
01000000
00000000
00100000
00000000
00000000
00000000
,
00000000
00000000
00000000
00000000
00000000
00010000
00001000
00000000
00000100
00000000
00000000
00000000
,
00000001
00000000
00000000
00000000
00000000
00000000
00000000
00000000
00000000
00000100
00000010
00001000
00000001
00000100
00000010
00001000
,
00000000
00000000
00000000
00000000
00000000
00000000
00000000
00000000
00000000
01000000
00100000
10000000
00010000
01000000
00100000
10000000
,
00000000
00000000
00000000
00000000
00000000
00000000
00000000
00000000
00000000
00000010
00000100
00000001
00001000
00000010
00000100
00000001
,
00000010
00000000
00001000
00000000
00020000
00000000
00030000
00100000
10000000
00010000
10000000
00010000
01000000
00100000
01000000
00100000
,
01000000
00010000
00000000
00010000
10000000
00000000
10010000
00000000
,
00000000
10000000
01000000
00010000
00001000
00000100
00000001
00001000
,
00000010
00000100
00000000
00000100
00000001
00000000
00000101
00000000
,
00000000
00000001
00000010
00001000
00010000
00100000
10000000
00010000
,
01000000
00100000
00000000
00100000
10000000
00000000
11000000
00000000
,
01010000
00000000
00011000
00000000
00001000
00000100
00000001
00001000
,
00000001
00001000
00000001
00001000
00000001
00001000
00000001
00001000
00000001
00000000
00000000
00000000
00000100
00000000
00000010
00000000
,
00010000
00001000
00010000
00001000
00010000
00001000
00010000
00001000
00010000
00000000
00000000
00000000
00001000
00000000
01000000
00000000
,
00100000
01000000
00100000
01000000
00100000
01000000
00100000
01000000
00100000
00000000
00000000
00000000
01000000
00000000
00100000
00000000
,
10000000
00010000
10000000
00010000
10000000
00010000
10000000
00010000
10000000
00000000
00000000
00000000
00010000
00000000
00100000
00000000
,
00001000
00010000
00001000
00000100
00000001
00000010
00000100
00001000
,
00000100
00000010
00001000
00000010
00001000
00000010
00001000
00010000
,
01000000
10000000
00100000
01000000
00010000
00100000
00010000
00100000
,
00010000
00100000
01000000
00010000
00001000
00000100
00000000
00000000
,
00000001
00001000
00000010
00000100
00000001
00000010
00000100
00001000
,
00000001
00000000
00001000
00000000
00000001
00000000
00000100
00000100
,
00001000
00010000
01000000
10000000
01000000
00100000
01000000
10000000
,
00010000
00010000
00010000
00010000
,
10000000
01000000
10000000
00000000
00010000
01000000
00010000
00000000
,
01000000
00100000
00010000
00001000
00000100
00000001
00000010
00000000
,
00000001
00000010
00000001
00000000
00001001
00000000
00000110
00000000
,
00000002
00002003
00023000
20030000
,
30010000
00000000
10010000
00000000
,
01100000
00000000
00001000
00000000
00011000
00000000
00000100
00000010
,
00000001
00001000
00000010
00000100
00000010
00001000
00000001
00000100
,
00000010
00000010
00000010
00000010
,
00000100
00001000
00010000
00000000
01000000
10000000
00100000
00000000
,
00010000
00001000
00000010
00000001
,
00001000
00000010
00000100
00000001
00001000
00000000
00001000
00000000
,
00000001
00001000
00000001
00001000
00000001
00001000
00000001
00001000
00000001
00000000
00000000
00000000
00001000
00000001
00001000
00000001
,
00001000
00000001
00001000
00000001
00001000
00000000
00000000
00000000
00000010
00000000
00000000
00000000
00000010
00000000
00000000
00000000
,
00010000
00001000
00010000
00001000
00010000
00001000
00010000
00001000
00010000
00000000
00000000
00000000
00001000
00010000
00001000
00010000
,
00001000
00010000
00001000
00010000
00001000
00000000
00000000
00000000
01000000
00000000
00000000
00000000
01000000
00000000
00000000
00000000
,
01000000
00000000
00000000
00000000
,
00100000
00100000
00010000
00010000
,
00001000
00001000
00000010
00000010
,
00000002
00000000
00000203
00000000
,
00002300
00000000
00023000
00000000
,
00130000
00100000
10000000
10000000
,
00010000
01000000
00100000
10000000
00100000
01000000
00010000
01000000
00100000
10000000
00100000
01000000
,
00010000
00000000
00000000
00000000
;

//---------------dance-double - ----------------
#NOTES:
     dance-double:
     :
     Hard:
     18:
     0.951143,1.174941,0.199990,0.016666,0.987451,799.000000,775.000000,24.000000,2.000000,0.000000,0.000000,0.951143,1.174941,0.199990,0.016666,0.987451,799.000000,775.000000,24.000000,2.000000,0.000000,0.000000:
// measure 0
00000000
00000000
00000000
00000000
,  // measure 1
00000000
00000000
00000000
00000000
,  // measure 2
00000000
00000000
00000000
00000000
,  // measure 3
00000000
00000000
00000000
00000000
,  // measure 4
11000000
00000000
00000000
00000000
00000000
00010000
00000000
00000000
,  // measure 5
00001100
00000000
00000000
00000000
00000000
00000001
00000000
00000000
,  // measure 6
00001010
00000000
00000000
00000000
00000000
00010000
00000000
00000000
,  // measure 7
00110000
10100000
11000000
01010000
,  // measure 8
00001000
00000100
00000001
00000010
00010000
00100000
10000000
00010000
,  // measure 9
00001000
00000100
00000010
00000001
00000000
00000100
00000010
00000100
,  // measure 10
00010000
01000000
00100000
00001000
00010000
01000000
00100000
10000000
,  // measure 11
01000000
00010000
00000100
00000001
00000000
00001000
00000010
00001000
,  // measure 12
00000101
00011000
10100000
01001000
,  // measure 13
00100000
00010000
00001000
00000010
00000000
00000010
00001000
00010000
,  // measure 14
00110000
11000000
00011000
00000011
,  // measure 15
00000001
00000000
00000100
00000000
00001000
00000000
00010000
00000000
00000000
01000000
10000000
01000000
10000000
00000000
01000000
00000000
,  // measure 16
10000000
00100000
10000000
00100000
10000000
00100000
10000000
00100000
10000000
00000000
00100000
00000000
00010000
00000000
00000010
00000000
,  // measure 17
00000001
00000000
00000000
00000000
,  // measure 18
00000001
00000010
00000001
00000010
00000001
00000010
00000001
00000010
00000001
00000000
00000010
00000000
00001000
00000000
00100000
00000000
,  // measure 19
10000000
00000000
00000000
00000000
,  // measure 20
10000000
01000000
10000000
01000000
10000000
01000000
10000000
01000000
10000000
00000000
01000000
00000000
00010000
00000000
00000100
00000000
,  // measure 21
00000001
00000000
00000000
00000000
,  // measure 22
00000001
00000100
00000001
00000100
00000001
00000100
00000001
00000100
00000001
00000000
00000100
00000000
00010000
00000000
01000000
00000000
,  // measure 23
10000000
00010000
10000000
00010000
00001000
00000001
00001000
00000001
,  // measure 24
00001000
00000000
00000010
00000100
00000010
00000000
00000100
00000000
00010000
00000000
00100000
00000000
10000000
00000000
00010000
00000000
,  // measure 25
10000000
01000000
10000000
01000000
10000000
00000000
00000000
00000000
00010000
01000000
00010000
01000000
00010000
00000000
00100000
00000000
,  // measure 26
00001000
00000000
00000100
00000010
00000100
00000000
00001000
00000000
00000010
00000000
00000100
00000000
00000001
00000000
00000010
00000000
,  // measure 27
00000001
00001000
00000001
00001000
00000001
00000000
00000000
00000000
00001000
00000001
00001000
00000001
00001000
00000000
00000010
00000000
,  // measure 28
00000100
00010000
01000000
10000000
00100000
00010000
00001000
00000001
,  // measure 29
00000100
00000010
00000100
00000010
00000100
00000000
00001000
00000000
00010000
00000000
01000000
00000000
10000000
00000000
00100000
00000000
,  // measure 30
01000000
10000000
01000000
10000000
01000000
00000000
00100000
00000000
00010000
00000000
00000010
00000000
00000001
00000000
00001000
00000000
,  // measure 31
00000001
00000010
00001000
00000000
00010000
00100000
10000000
00000000
,  // measure 32
01000000
00010000
00001000
00010000
00000010
00000100
00010000
00100000
,  // measure 33
10000000
01000000
00100000
01000000
00010000
00000100
00000010
00000100
,  // measure 34
00010000
00001000
01000000
00001000
00010000
00000010
00000100
00001000
,  // measure 35
01000000
00100000
10000000
00100000
01000000
00001000
00010000
00000010
,  // measure 36
00001000
00000100
00000010
00000100
00010000
01000000
00100000
01000000
,  // measure 37
10000000
00010000
00100000
00010000
10000000
01000000
00010000
00000100
,  // measure 38
00000001
00000010
00000000
00001000
00010000
00100000
00000000
10000000
,  // measure 39
01000000
00010000
01000000
10000000
01000000
00010000
00001000
00000100
,  // measure 40
00000001
00000000
00000001
00001000
00000000
00001000
00000010
00000000
00000010
00000100
00000000
00000100
,  // measure 41
00001000
00000000
00001000
00010000
00000000
00010000
00100000
00000000
00100000
10000000
00000000
10000000
,  // measure 42
01000000
00000000
01000000
00100000
00000000
00100000
01000000
00000000
01000000
00010000
00000000
00010000
,  // measure 43
00001000
00000000
00001000
00000100
00000000
00000100
00000001
00001000
00010000
00001000
00010000
10000000
,  // measure 44
00010000
00100000
10000000
00010000
01000000
10000000
00100000
00010000
00001000
00010000
01000000
10000000
,  // measure 45
01000000
00010000
00001000
00000010
00000001
00001000
00000001
00000100
00001000
00000001
00000010
00001000
,  // measure 46
00000100
00000010
00001000
00010000
00100000
10000000
01000000
00010000
10000000
00100000
00010000
01000000
,  // measure 47
00100000
00010000
00001000
00000100
00000010
00001000
00010000
00100000
10000000
00010000
00001000
00000001
,  // measure 48
00001000
00000000
00000010
00000000
00000000
00000100
00001000
00000000
00010000
00000000
00000000
00100000
,  // measure 49
00000000
00000000
10000000
00000000
00000000
10000000
01000000
00000000
00010000
00000000
00000000
00001000
,  // measure 50
00000100
00000000
00000000
00000000
00000000
00000000
00000000
00000000
00000000
00000000
00000000
00000000
00000000
00000000
00000000
00000000
00000000
00000000
00000001
00001000
00000001
00000000
00000010
00000000
00001000
00000000
00000010
00000000
00000001
00000000
00001000
00000000
,  // measure 51
00000000
00000000
00000000
00000000
00000000
00000000
00000000
00000000
00000000
00000000
00000000
00000000
00000000
00000000
00000000
00000000
00000000
00000000
10000000
00010000
10000000
00000000
00100000
00000000
00010000
00000000
00100000
00000000
10000000
00000000
00010000
00000000
,  // measure 52
00000000
00000000
00000000
00000000
00000000
00000000
00000000
00000000
00000000
00000000
00000000
00000000
00000000
00000000
00000000
00000000
00000000
00000000
00000001
00000010
00001000
00000000
00000010
00000000
00000001
00000000
00000100
00000000
00001000
00000000
00000100
00000000
,  // measure 53
00000001
00000000
00000000
00000000
00000000
00000000
00000000
00000000
00000000
00000000
00000000
00000000
00000000
00000000
00000000
00000000
00000000
00000000
00000000
00000000
00000000
00000000
00000000
00000000
00001100
00000000
00000000
00000000
00000000
00000000
00000000
00000000
00000000
00000000
00000000
00000000
00000000
00000000
00000000
00000000
00000000
00000000
00000000
00000000
00000000
00000000
00000000
00000000
00010000
00000000
00000000
00000000
00000000
00000000
00000000
00000000
00000000
00000000
00000000
00000000
00000000
00000000
00000000
00000000
00000000
00000000
00000000
00000000
00000000
00000000
00000000
00000000
00000000
00000000
00000000
00000000
00000000
00000000
00000000
00000000
00000000
00000000
00000000
00000000
00100000
00000000
00000000
00000000
00000000
00000000
01000000
00000000
00000000
00000000
00000000
00000000
10000000
00000000
00000000
00000000
00000000
00000000
00000000
00000000
01000000
00000000
00000000
00000000
00000000
00000000
00000000
00000000
10000000
00000000
00000000
00000000
00000000
00000000
00000000
00000000
01000000
00000000
00000000
00000000
00000000
00000000
00000000
00000000
00100000
00000000
00000000
00000000
00000000
00000000
00000000
00000000
00010000
00000000
00000000
00000000
00000000
00000000
00000000
00000000
00100000
00000000
00000000
00000000
00000000
00000000
00000000
00000000
00010000
00000000
00000000
00000000
00000000
00000000
00000000
00000000
01000000
00000000
00000000
00000000
00000000
00000000
00000000
00000000
00100000
00000000
00000000
00000000
00000000
00000000
00000000
00000000
10000000
00000000
00000000
00000000
00000000
00000000
00000000
00000000
00010000
00000000
00000000
00000000
00000000
00000000
00000000
00000000
,  // measure 54
10000000
01000000
00000000
00001000
00000100
00000000
00000001
00000000
,  // measure 55
00000000
00000000
00001000
00000010
00001000
00000000
00000001
00000000
00000100
00000000
00000001
00000000
00000010
00000001
00000010
00000000
,  // measure 56
00000001
00000010
00000000
00010000
00100000
00000000
10000000
00000000
,  // measure 57
00100000
00000000
01000000
00010000
01000000
00000000
00100000
00000000
10000000
00000000
01000000
00000000
00100000
00010000
00100000
00000000
,  // measure 58
00010000
01000000
00000000
00100000
00001000
00000000
00000010
00000000
,  // measure 59
00000101
00000000
00001100
00000000
00001000
00010000
01000000
10000000
,  // measure 60
00010000
00100000
00010000
00100000
00010000
00100000
00010000
00100000
00010000
00000000
10000000
00000000
01000000
00000000
00010000
00000000
,  // measure 61
00001000
00000010
00001000
00000010
00001000
00000010
00001000
00000010
00001000
00000000
00000010
00000000
00000100
00000000
00001000
00000000
,  // measure 62
00010000
00001000
00010000
00001000
00010000
00001000
00010000
00001000
00010000
00000000
00100000
00000000
10000000
00000000
00010000
00000000
,  // measure 63
01000000
00100000
01000000
00100000
01000000
00100000
01000000
00100000
01000000
00000000
00100000
00000000
00010000
00000000
00001000
00000000
,  // measure 64
00000010
00000001
00000100
00000001
00000010
00000001
00000100
00000001
00000010
00000000
00000001
00000000
00000100
00000000
00001000
00000000
,  // measure 65
00010000
00000000
00100000
01000000
00010000
01000000
00100000
01000000
00010000
00000000
01000000
00000000
00100000
00000000
00010000
00000000
,  // measure 66
00001000
00000000
01000000
00000000
00100000
00000000
10000000
00000000
01000000
00000000
00100000
01000000
10000000
01000000
00100000
01000000
,  // measure 67
10000000
01000000
00010000
00001000
00000010
00000001
00000000
00000000
,  // measure 68
00001000
00000000
00000001
00000010
00001000
00000000
00010000
00000000
00100000
00000000
10000000
00100000
00010000
00000000
10000000
00000000
,  // measure 69
01000000
00000000
00010000
00100000
10000000
00000000
00100000
00000000
00010000
00000000
00000000
00000000
01000000
00000000
00100000
00000000
,  // measure 70
00010000
00000000
00001000
00000010
00000001
00000000
00001000
00000000
00000001
00000000
00001000
00000100
00000001
00000000
00001000
00000000
,  // measure 71
00000010
00000001
00001000
00000100
00000010
00000001
00001000
00000100
00000010
00000001
00001000
00000100
00000010
00000001
00001000
00000100
,  // measure 72
00010000
00000000
00001000
00010000
00100000
00000000
10000000
00000000
01000000
00000000
00010000
00001000
00000010
00000000
00000100
00000000
,  // measure 73
00000110
00000000
00011000
00000000
01100000
10000000
00010000
10000000
,  // measure 74
00010000
01000000
10000000
01000000
00010000
01000000
10000000
01000000
00010000
00000000
00000000
00000000
00011000
00000000
00000000
00000000
,  // measure 75
00010000
00001000
00010000
00001000
00010000
00001000
00010000
00001000
00020000
00000000
00000000
00000000
00032000
00000000
00000000
00000000
,  // measure 76
00003010
00000000
00000001
00001000
00000001
00000000
00000010
00000000
00000100
00000000
00010000
00001000
00010000
00000000
00000100
00000000
,  // measure 77
00010000
00000000
00001000
00100000
00001000
00000000
00010000
00000000
00100000
00000000
00000000
00000000
10000000
00000000
00010000
00000000
,  // measure 78
10000000
00000000
01000000
00010000
00001000
00000000
00000100
00000000
00000001
00000000
00000100
00001000
00010000
00000000
01000000
00000000
,  // measure 79
10000000
01000000
00100000
00010000
10000000
01000000
00100000
00010000
10000000
01000000
00100000
00010000
10000000
01000000
00100000
00010000
,  // measure 80
01000000
00000000
00100000
00010000
00001000
00000000
00000010
00000000
00000001
00000000
00000100
00000010
00001000
00000001
00000100
00000010
,  // measure 81
00000100
00000000
00001000
00010000
00100000
01000000
00100000
01000000
,  // measure 82
00010000
00100000
10000000
00100000
00010000
00100000
10000000
00100000
00010000
00000000
01000000
00000000
00100000
00000000
10000000
00000000
,  // measure 83
00010000
10000000
00010000
10000000
00010000
10000000
00010000
10000000
00010000
00000000
00000000
00000000
10000000
00010000
10000000
00010000
,  // measure 84
10000000
00010000
10000000
00010000
10000000
00000000
00000000
00000000
00010000
00000000
00000000
00000000
00001000
00000000
00000000
00000000
,  // measure 85
00000001
00001000
00000001
00001000
00000001
00001000
00000001
00001000
00000001
00000000
00000000
00000000
00001000
00000001
00001000
00000001
,  // measure 86
00001000
00000001
00001000
00000001
00001000
00000000
00000000
00000000
00010000
00000000
00000000
00000000
10000000
00000000
00000000
00000000
,  // measure 87
10010000
00000000
00000000
00000000
,  // measure 88
10000000
00000000
10000000
00010000
00000000
00010000
10000000
00000000
10000000
00010000
00000000
00010000
,  // measure 89
00001000
00000000
00001000
00000001
00000000
00000001
00001000
00000000
00001000
00000001
00000000
00000001
,  // measure 90
00000100
00000010
00000100
00001000
00000000
00000000
01000000
00100000
01000000
00010000
00000000
00000000
,  // measure 91
00100000
01000000
00010000
01000000
00000000
00000000
00000010
00000100
00001000
00000100
00000000
00000000
,  // measure 92
00000001
00000100
00000010
00000100
00001000
00000100
00000010
00001000
00010000
00001000
00000010
00001000
,  // measure 93
00010000
00100000
10000000
00100000
00010000
00100000
10000000
00100000
01000000
00100000
00010000
00100000
,  // measure 94
01100000
00000000
00000000
00000000
;

//---------------dance-double - ----------------
#NOTES:
     dance-double:
     :
     Challenge:
     19:
     1.214225,1.370765,0.166658,0.016666,1.787411,1020.000000,1000.000000,20.000000,2.000000,0.000000,0.000000,1.214225,1.370765,0.166658,0.016666,1.787411,1020.000000,1000.000000,20.000000,2.000000,0.000000,0.000000:
00000000
00000000
00000000
00000000
,
00000000
00000000
00000000
00000000
,
00000000
00000000
00000000
00000000
,
00000000
00000000
00000000
00000000
,
11000000
00000000
00000000
00000000
00000000
01010000
00000000
00000000
,
00011000
00000000
00000000
00000000
00000000
00000101
00000000
00000000
,
00000011
00000000
00000000
00000000
00000000
00001010
00000000
00000000
,
00011000
00110000
10100000
10010000
,
10000000
01000000
00100000
01000000
00010000
01000000
10000000
01000000
,
00010000
00000000
00001000
00000000
00000100
00000000
00000001
00000000
00000000
00000000
00000001
00001000
00000001
00000000
00001000
00000000
,
00000001
00000100
00000010
00000100
00001000
00000100
00000001
00000100
,
00001000
00000000
00010000
00000000
00100000
00000000
10000000
00000000
00000000
00000000
10000000
00010000
10000000
00000000
00010000
00000000
,
10000000
01000000
00010000
01000000
10000000
01000000
00010000
00001000
,
00000100
00000001
00000100
00000001
00000000
00000001
00001000
00000001
,
00000100
00001000
00000100
00000001
00000100
00001000
00010000
01000000
,
10000000
00000000
00010000
00000000
10000000
00000000
00010000
00000000
10000000
01000000
00100000
00010000
01000000
00100000
10000000
00000000
,
10000000
00100000
10000000
00100000
10000000
01000000
10000000
01000000
10000000
00100000
10000000
00100000
10000000
00000000
01000000
00000000
,
00110000
00000000
00000000
00000000
,
00000001
00000010
00000001
00000010
00000001
00000100
00000001
00000100
00000001
00000010
00000001
00000010
00000001
00000000
00000010
00000000
,
00001100
00000000
00000000
00000000
,
01000000
00100000
01000000
00100000
01000000
00010000
01000000
00010000
01000000
00100000
01000000
00100000
01000000
00000000
00010000
00000000
,
10100000
00000000
00000000
00000000
,
00000100
00000010
00000100
00000010
00000100
00000001
00000100
00000001
00000100
00000010
00000100
00000010
00001000
00000000
00000001
00000000
,
00000100
00000000
00001000
00000000
00010000
00000000
01000000
00000000
10000000
00100000
01000000
00010000
10000000
00100000
01000000
00010000
,
10000000
01000000
10000000
01000000
00100000
01000000
00100000
01000000
10000000
01000000
10000000
01000000
00100000
00000000
00010000
00000000
,
01000000
00001000
00010000
00001000
01000000
00001000
00010000
00001000
01000000
00100000
00001000
00010000
00000100
00000010
00000001
00000000
,
00001000
00000010
00001000
00000010
00000100
00000010
00000100
00000010
00001000
00000010
00001000
00000010
00000100
00000000
00000001
00000000
,
00001000
00000010
00010000
00000010
00001000
00000010
00010000
00000010
00001000
00000100
00010000
00001000
01000000
00100000
10000000
00000000
,
00010000
01000000
00010000
01000000
00100000
01000000
00100000
01000000
00010000
01000000
00010000
01000000
00100000
00000000
10000000
00000000
,
01000000
00100000
00001000
00100000
01000000
00100000
00001000
00100000
01000000
00010000
00100000
00001000
00010000
00000010
00000100
00000000
,
00000001
00000010
00000001
00000010
00000100
00000010
00000100
00000010
00000001
00000010
00000001
00000010
00000100
00000000
00001000
00000000
,
00000100
00000000
00010000
00000000
00001000
00100000
00000000
00001000
00100000
00000000
00010000
01000000
00100000
00000000
00100000
00000000
,
10000000
00010000
00100000
00010000
10000000
00010000
00100000
00010000
10000000
00000000
01000000
00000000
00010000
00000000
00001000
00000000
,
00000010
00000001
00001000
00000001
00000010
00000001
00001000
00000001
00000010
00000000
00001000
00000000
00010000
00000000
00100000
00000000
,
10000000
00010000
00100000
00010000
10000000
00010000
00100000
00010000
10000000
00000000
01000000
00000000
00010000
00000000
00001000
00000000
,
00010000
00000100
00000010
00000100
00010000
00000100
00000010
00000100
00010000
00000000
00001000
00000000
00000100
00000000
00000001
00000000
,
00000010
00000100
00001000
00000100
00000010
00000100
00001000
00000100
00000010
00000000
00000001
00000000
00000100
00000000
00001000
00000000
,
00010000
00001000
01000000
00001000
00010000
00001000
01000000
00001000
00010000
00000000
00001000
00000000
00100000
00000000
01000000
00000000
,
10000000
01000000
00100000
01000000
10000000
01000000
00100000
00010000
01000000
00001000
00010000
00001000
01000000
00001000
00010000
00001000
,
00100000
00001000
00010000
00000100
00010000
00001000
00100000
00001000
00010000
00000100
00001000
00000010
00000100
00000001
00000010
00000100
,
00001000
00000010
00001000
00000010
00000100
00000010
00000100
00001000
00000100
00001000
00010000
00001000
,
00010000
01000000
00010000
01000000
10000000
01000000
10000000
00100000
10000000
00100000
00010000
00100000
,
00010000
00001000
00010000
00001000
00000010
00001000
00000010
00000001
00000010
00000001
00000100
00000001
,
00000100
00000010
00000100
00001000
00010000
00001000
00100000
00010000
01000000
00100000
10000000
00010000
,
10000000
01000000
00010000
10000000
00100000
00010000
01000000
00100000
00010000
00001000
00010000
00100000
,
01000000
00010000
00100000
01000000
00010000
00001000
00000100
00000010
00001000
00000001
00000010
00001000
,
00000001
00000100
00001000
00000001
00000100
00001000
00000001
00000010
00000100
00001000
00010000
01000000
,
10000000
01000000
00010000
10000000
00100000
00010000
10000000
00100000
00010000
10000000
01000000
00100000
,
10000000
00000000
00010000
00000000
00000000
00001000
00010000
00000000
00001000
00000000
00000000
00000001
,
00000000
00000000
00001000
00000000
00000000
00010000
00001000
00000000
00010000
00000000
00000000
10000000
,
00010000
00000000
00000000
00000000
00000000
00000000
00000000
00000000
00000000
00000000
00000000
00000000
00000000
00000000
00000000
00000000
00000000
00000000
10000000
01000000
10000000
00000000
00100000
00000000
01000000
00000000
10000000
00000000
01000000
00000000
00010000
00000000
,
00000000
00000000
00000000
00000000
00000000
00000000
00000000
00000000
00000000
00000000
00000000
00000000
00000000
00000000
00000000
00000000
00000000
00000000
00000001
00000100
00000001
00000000
00000010
00000000
00000100
00000000
00000001
00000000
00000100
00000000
00001000
00000000
,
00000000
00000000
00000000
00000000
00000000
00000000
00000000
00000000
00000000
00000000
00000000
00000000
00000000
00000000
00000000
00000000
00000000
00000000
10000000
00100000
10000000
00000000
01000000
00000000
00100000
00000000
10000000
00000000
00100000
00000000
00010000
00000000
,
10000000
00000000
00000000
00000000
00000000
00000000
00000000
00000000
00000000
00000000
00000000
00000000
00000000
00000000
00000000
00000000
00000000
00000000
00000000
00000000
00000000
00000000
00000000
00000000
00010000
00000000
00000000
00000000
00000000
00000000
00000000
00000000
00000000
00000000
00000000
00000000
00000000
00000000
00000000
00000000
00000000
00000000
00000000
00000000
00000000
00000000
00000000
00000000
00001000
00000000
00000000
00000000
00000000
00000000
00000000
00000000
00000000
00000000
00000000
00000000
00000000
00000000
00000000
00000000
00000000
00000000
00000000
00000000
00000000
00000000
00000000
00000000
00000000
00000000
00000000
00000000
00000000
00000000
00000000
00000000
00000000
00000000
00000000
00000000
00000001
00000000
00000000
00000000
00000000
00000000
00000100
00000000
00000000
00000000
00000000
00000000
00000010
00000000
00000000
00000000
00000000
00000000
00000000
00000000
00001000
00000000
00000000
00000000
00000000
00000000
00000000
00000000
00000010
00000000
00000000
00000000
00000000
00000000
00000000
00000000
00000100
00000000
00000000
00000000
00000000
00000000
00000000
00000000
00000010
00000000
00000000
00000000
00000000
00000000
00000000
00000000
00001000
00000000
00000000
00000000
00000000
00000000
00000000
00000000
00000001
00000000
00000000
00000000
00000000
00000000
00000000
00000000
00000100
00000000
00000000
00000000
00000000
00000000
00000000
00000000
00000001
00000000
00000000
00000000
00000000
00000000
00000000
00000000
00000010
00000000
00000000
00000000
00000000
00000000
00000000
00000000
00000001
00000000
00000000
00000000
00000000
00000000
00000000
00000000
00000100
00000000
00000000
00000000
00000000
00000000
00000000
00000000
,
00000001
00000010
00000001
00000010
00000001
00000100
00000001
00000100
00000001
00000010
00000001
00000010
00000001
00000100
00000010
00001000
,
00000010
00000000
00010000
00001000
00010000
00000000
00001000
00000000
01000000
00000000
00100000
00000000
10000000
00000000
00010000
00000000
,
10000000
01000000
10000000
01000000
10000000
00100000
10000000
00100000
10000000
01000000
10000000
01000000
10000000
00100000
01000000
00010000
,
10000000
00000000
00010000
00100000
00010000
00000000
01000000
00000000
00100000
00000000
00010000
00000000
00001000
00000000
00000100
00000000
,
00000001
00001000
00000001
00001000
00000001
00001000
00000001
00000100
00000001
00000100
00000001
00000100
00000010
00001000
00000010
00001000
,
00000010
00000100
00001000
00010000
01000000
10000000
00100000
01000000
,
00010000
10000000
00010000
10000000
00010000
10000000
00010000
10000000
00010000
00000000
10000000
01000000
00100000
00001000
00010000
00000000
,
00001000
00010000
00001000
00010000
00001000
00010000
00001000
00010000
00001000
00000000
00010000
00000100
00000010
00000001
00001000
00000000
,
00000001
00001000
00000001
00001000
00000001
00001000
00000001
00001000
00000001
00000000
00001000
00000100
00010000
00001000
01000000
00000000
,
10000000
00010000
10000000
00010000
10000000
00010000
10000000
00010000
10000000
00000000
00100000
01000000
00001000
00010000
00000010
00000100
,
00000001
00001000
00000001
00001000
00000001
00001000
00000001
00001000
00000010
00000100
00000001
00001000
00000001
00000100
00000010
00010000
,
00001000
00100000
00010000
01000000
00010000
01000000
00010000
01000000
00100000
10000000
01000000
00100000
00010000
01000000
00100000
01000000
,
00010000
10000000
01000000
00100000
00001000
00010000
00000100
00001000
00000010
00000100
00000010
00000100
00000010
00000100
00000001
00001000
,
00000010
00000100
00000010
00010000
00001000
01000000
00100000
10000000
00100000
01000000
00010000
00000000
00000000
00000000
00000000
00000000
,
10000000
00000000
00010000
01000000
00010000
01000000
00010000
00100000
00001000
00000000
00010000
00000100
00010000
00000100
00010000
00000010
,
00000100
00000000
00000001
00001000
00000001
00001000
00000001
00000000
00001001
00000000
00000000
00000000
00000100
00000000
00000100
00000000
,
00000100
00000000
00000001
00000010
00000001
00000010
00000001
00001000
00000100
00010000
00000100
00010000
00001000
01000000
00100000
10000000
,
00010000
10000000
00100000
01000000
00010000
10000000
00100000
01000000
00010000
10000000
00100000
01000000
00010000
10000000
00100000
01000000
,
00010000
00000000
10000000
01000000
10000000
01000000
10000000
00010000
00100000
00000000
00001000
00010000
00000100
00001000
00000100
00001000
,
00000100
00000000
00010000
00000100
00001000
00000100
00010000
00000000
00001000
00000000
00100000
00010000
01000000
00100000
10000000
00000000
,
00010000
00100000
00010000
00100000
00010000
00100000
00010000
00100000
00010000
00000000
00000000
00000000
01010000
00000000
00000000
00000000
,
10000000
00010000
10000000
00010000
10000000
00010000
10000000
00010000
20000000
00000000
00000000
00000000
30020000
00000000
00000000
00000000
,
00031000
00000000
00000001
00000100
00000010
00001000
00000010
00000100
00000001
00000000
00000001
00000010
00000100
00001000
00000100
00000010
,
00000001
00000000
00000010
00000100
00010000
00001000
01000000
00100000
10000000
00000000
00000000
00000000
00010000
00000000
00010000
00000000
,
00010000
00000000
10000000
01000000
10000000
00010000
10000000
00100000
01000000
00001000
00010000
00000100
00001000
00000010
00000100
00000001
,
00001000
00000100
00000010
00000001
00001000
00000100
00000010
00000001
00001000
00000100
00000010
00000001
00001000
00000100
00000010
00000001
,
00000100
00000010
00010000
00001000
01000000
00100000
10000000
00100000
01000000
00001000
00010000
00000100
00010000
00001000
00100000
00000000
,
00001000
01000000
00100000
01000000
00001000
00100000
01000000
10000000
01000000
00100000
00010000
01000000
00100000
10000000
00010000
00000000
,
10000000
01000000
00100000
01000000
10000000
01000000
00100000
01000000
10000000
00010000
00100000
00010000
10000000
00010000
00100000
00010000
,
01000000
00100000
01000000
00100000
01000000
00100000
01000000
00100000
01000000
00000000
00000000
00000000
00100000
01000000
00100000
01000000
,
00100000
01000000
00100000
01000000
00100000
00000000
00000000
00000000
00010000
00001000
00010000
00001000
00000010
00000001
00000010
00000001
,
00000100
00000010
00000100
00000010
00000100
00000010
00000100
00000010
00000100
00000000
00000000
00000000
00000010
00000100
00000010
00000100
,
00000010
00000100
00000010
00000100
00000010
00000000
00000000
00000000
00001000
00010000
00001000
00010000
01000000
10000000
01000000
10000000
,
01000000
00000000
00000000
00000000
,
10000000
00010000
00011000
00001001
,
00000001
00001000
00011000
10010000
,
10000000
01000000
00100000
00010000
00000000
00000000
01000000
00001000
00010000
00000100
00000000
00000000
,
00001000
00000010
00000100
00000001
00000000
00000000
00000100
00000010
00001000
00000001
00000000
00000000
,
00000100
00000000
00000100
00001000
00000000
00001000
00010000
00000000
00010000
01000000
00000000
01000000
,
10000000
01000000
00010000
01000000
10000000
00100000
00010000
00001000
00000010
00000001
00000100
00000010
,
00000110
00000000
00000000
00000000
;
