#TITLE:Zadamga;
#SUBTITLE:;
#ARTIST:onoken;
#TITLETRANSLIT:;
#SUBTITLETRANSLIT:;
#ARTISTTRANSLIT:;
#GENRE:Hardcore;
#CREDIT:;
#BANNER:zadamga-bn.png;
#BACKGROUND:zadamga-bg.png;
#LYRICSPATH:;
#CDTITLE:;
#MUSIC:Zadamga.ogg;
#OFFSET:-0.693000;
#SAMPLESTART:70.000000;
#SAMPLELENGTH:12.000000;
#SELECTABLE:YES;
#BPMS:0.000000=180.000000
,208.000000=360.000000
,336.000000=90.000000
;
#STOPS:
;
#BGCHANGES:;
#KEYSOUNDS:;
#ATTACKS:;

//---------------dance-single - ----------------
#NOTES:
     dance-single:
     :
     Challenge:
     9:
     0.646707,0.781582,0.394969,0.283567,0.116465,447.000000,408.000000,39.000000,28.000000,0.000000,0.000000,0.646707,0.781582,0.394969,0.283567,0.116465,447.000000,408.000000,39.000000,28.000000,0.000000,0.000000:
// measure 0
0000
0000
0000
0000
,  // measure 1
0000
0000
0000
0000
,  // measure 2
0000
0000
0000
0000
,  // measure 3
0000
0000
0000
0000
,  // measure 4
0010
0100
1000
0100
0020
0000
0030
1001
,  // measure 5
0000
0000
1100
0000
0001
1000
0001
1000
,  // measure 6
0100
0001
0100
1000
0020
0000
0030
0110
,  // measure 7
0000
0000
0000
0000
0000
0000
0100
0000
0010
0000
0100
0000
0010
0000
0000
1000
0000
0000
0010
0000
0000
0000
0000
0000
,  // measure 8
0100
0001
0100
0010
0100
0001
0100
0001
,  // measure 9
0100
0000
0010
0000
0100
0000
0000
0001
1000
0000
0000
0010
0100
0000
0000
0000
,  // measure 10
1001
0000
1200
0000
0000
0010
0310
0000
,  // measure 11
1001
0000
0201
0000
0000
0010
0310
0000
,  // measure 12
1001
1000
0100
0010
0100
1000
0100
1001
,  // measure 13
0100
0000
0001
0000
0100
0000
0000
0010
1000
0000
0000
0001
0100
0000
0000
0000
,  // measure 14
0002
0000
0023
0000
0230
0000
2300
0010
,  // measure 15
3020
0100
0230
0001
0302
1000
1003
0000
,  // measure 16
0011
0001
1000
0010
0100
0010
1000
0000
,  // measure 17
0100
0001
0100
0001
0100
1000
0100
1000
,  // measure 18
0010
0001
0010
1000
0010
0100
0010
1000
,  // measure 19
1001
0110
0101
1001
,  // measure 20
1010
1000
0001
0010
0100
0010
0001
0000
,  // measure 21
0010
1000
0010
1000
0010
0001
0010
0001
,  // measure 22
0100
0010
0100
1000
0100
0010
0100
0001
,  // measure 23
1000
0100
0010
0001
0000
0000
0110
0000
0000
1010
0000
0000
,  // measure 24
1000
0000
0100
1000
0100
0000
0000
0000
1001
0000
0000
0000
0000
0000
0010
0000
,  // measure 25
0000
0100
0010
0000
0100
0001
0010
0001
,  // measure 26
0100
0000
0001
0010
0001
0000
0000
0000
1001
0000
0000
0000
0000
0000
0100
0000
,  // measure 27
0000
0000
0000
0000
0000
0000
0010
0000
1000
0000
0010
0000
1000
0000
0000
0100
0000
0000
1000
0000
0000
0000
0000
0000
,  // measure 28
0010
0000
0100
0001
0100
0000
0000
0000
0110
0000
0000
0000
0000
0000
1000
0000
,  // measure 29
0000
0100
0010
0001
0010
0100
0010
0100
,  // measure 30
0010
0000
0100
1000
0100
0000
0000
0000
0110
0000
0000
0000
0000
0000
0100
0000
,  // measure 31
0001
0000
0100
0000
0001
0000
0100
0000
0000
0010
0000
0000
1000
0000
0000
0010
0000
0000
1000
0000
0000
0000
0000
0000
,  // measure 32
1002
0000
1000
0013
,  // measure 33
2001
0000
0001
3100
,  // measure 34
0210
0000
0010
0301
,  // measure 35
0120
0000
0100
1030
,  // measure 36
0012
0000
0010
1003
,  // measure 37
2010
0000
0010
3001
,  // measure 38
1200
0000
1000
0310
,  // measure 39
0201
0000
0001
0310
,  // measure 40
0010
1000
0010
0000
0010
0001
0010
0000
,  // measure 41
0010
1000
0010
0001
0010
1000
0010
0000
,  // measure 42
0100
1000
0100
0000
0100
0001
0100
0000
,  // measure 43
0100
1000
0100
0001
0100
1000
0100
0000
,  // measure 44
0100
0001
0100
1000
0010
0001
0010
1000
,  // measure 45
0100
0001
0100
1000
0010
0001
0010
1000
,  // measure 46
0010
0100
0010
0100
0010
0100
0010
0100
,  // measure 47
0002
0000
0000
0000
1003
0100
0001
0000
,  // measure 48
1002
0103
2001
3100
,  // measure 49
1002
0103
2001
3100
,  // measure 50
1000
0100
0010
0001
1000
0100
0010
0001
,  // measure 51
1000
0001
0100
0001
0010
0100
1000
0000
,  // measure 52
1010
0000
0101
0000
,  // measure 53
0001
1000
0010
0000
,  // measure 54
0100
0010
0100
0010
,  // measure 55
1000
0001
1000
0000
,  // measure 56
0100
1000
0100
1000
,  // measure 57
0010
1000
0010
0000
,  // measure 58
0100
0001
0100
0001
,  // measure 59
0100
0020
0000
0130
,  // measure 60
0110
0000
0001
1000
,  // measure 61
1100
0000
0010
0001
,  // measure 62
0011
0000
1000
0001
,  // measure 63
0101
0000
0100
0000
,  // measure 64
0010
0000
0000
0000
0100
0000
0010
0000
0000
0000
1000
0000
,  // measure 65
0001
0000
0000
0000
0100
0000
0010
0000
0000
0000
0000
0000
,  // measure 66
1000
0100
0001
0100
,  // measure 67
1000
0010
0001
0000
,  // measure 68
0010
1000
0010
1000
,  // measure 69
0010
0100
0010
0100
,  // measure 70
0010
0001
0010
0001
,  // measure 71
0010
1000
0010
0001
,  // measure 72
1000
0100
1000
0100
,  // measure 73
1000
0010
1000
0010
,  // measure 74
1000
0000
0001
0000
0100
0000
0010
0000
0000
0000
0000
0000
,  // measure 75
0100
0020
0000
0100
,  // measure 76
0130
0001
0100
0001
,  // measure 77
0100
0010
0100
0010
,  // measure 78
0100
1000
0100
1000
,  // measure 79
0100
0001
0100
1000
,  // measure 80
0001
0010
0001
0010
,  // measure 81
0001
0100
0001
0100
,  // measure 82
0001
0000
0010
0000
0100
0000
1000
0000
0000
0010
0000
0000
,  // measure 83
0100
0100
0200
0000
,  // measure 84
0302
0000
0013
0000
0100
1000
0100
0001
,  // measure 85
0010
0100
1000
0100
0010
1000
0010
0000
;

//---------------dance-single - ----------------
#NOTES:
     dance-single:
     :
     Hard:
     8:
     0.522285,0.694740,0.506370,0.425351,0.000000,361.000000,311.000000,50.000000,42.000000,0.000000,0.000000,0.522285,0.694740,0.506370,0.425351,0.000000,361.000000,311.000000,50.000000,42.000000,0.000000,0.000000:
0000
0000
0000
0000
,
0000
0000
0000
0000
,
0000
0000
0000
0000
,
0000
0000
0000
0000
,
1000
0100
0010
0002
0200
0000
0303
0001
,
0100
0000
0010
0000
0100
0001
0000
0001
,
0100
0010
1000
0002
2000
0000
3003
0010
,
0100
0000
2000
0000
3010
0100
0010
0000
,
1000
0100
0001
0000
0100
0000
0100
0000
,
0001
0100
1000
0000
1001
0000
0101
0000
,
0020
0000
0130
0000
1100
0100
0010
0000
,
0100
0000
0101
0000
1001
0001
1000
0010
,
0000
0001
0010
1000
0001
0100
1000
0100
,
0000
0101
1001
0101
,
0020
0230
2300
3002
,
0203
0010
0310
0000
0020
0100
0130
0000
,
1000
0000
1100
0000
0001
0100
1000
0000
,
0001
0000
0101
0000
1000
0100
0001
0000
,
1000
0000
1010
0000
0001
0010
1000
0000
,
0001
0000
0011
0000
1000
0010
0001
0000
,
1000
0000
1100
0000
0010
0001
0100
0001
,
0010
0000
0110
0000
0100
1000
0010
1000
,
0100
0110
1100
0101
,
2000
0000
3001
0000
0002
0000
1003
0010
,
0100
0001
0000
0010
0100
0000
0000
0100
,
1000
0100
1000
0000
0010
0100
0000
0100
,
0010
1000
0000
0100
1000
0000
0000
0001
,
0010
0001
0010
0000
0000
2000
0000
3001
,
0100
1000
0000
0100
0001
0000
0000
0100
,
0010
0100
0010
0000
0000
0001
0000
1000
,
0010
0100
0000
0001
1000
0000
0000
0100
,
0020
0000
0000
0000
0031
1000
0001
0000
,
0201
1300
0101
0000
,
1200
0301
1100
0000
,
0210
0301
0110
0000
,
1020
0130
1010
0000
,
0021
1030
0011
0000
,
1020
0031
1010
0000
,
1200
0310
1100
0000
,
0201
0310
0101
0010
,
0200
1000
1000
1300
,
2000
0010
0010
3010
,
0002
0100
0100
0103
,
0020
1000
1000
1030
,
0200
0001
0001
0301
,
1000
0001
0100
0010
,
0100
0001
0100
0000
0100
1000
0100
0000
,
0002
0000
0000
0000
1003
0100
1000
0000
,
1001
0010
1001
0010
,
1001
0010
1001
0010
,
0001
0100
0001
0100
0001
0100
0001
0100
,
0010
1000
0010
1000
0010
0100
0001
0000
,
1000
0200
0000
0320
,
0000
0032
0000
1003
,
0001
0100
0001
0000
,
1000
0100
1000
0000
,
0010
0000
0010
0000
,
0100
0000
0100
0000
,
0001
0010
0100
1000
,
0000
0010
0000
0010
,
1010
0000
0000
0000
,
1001
0000
0000
0000
,
0110
0000
0000
0000
,
0101
0000
0000
0000
,
0020
0000
2030
0000
,
3002
0000
0203
0000
,
0310
0100
0010
0100
,
0001
1000
0001
0000
,
1000
0100
1000
0100
,
2000
0000
0000
0000
,
3010
0000
1010
0000
,
1000
0001
1000
0000
,
0001
0100
0001
0100
,
0002
0000
0000
0000
,
0103
0000
0100
0000
,
0020
0200
0000
0330
,
1010
0000
0101
0000
,
1001
0000
0110
0000
,
0100
0001
0100
0000
,
0010
1000
0010
0000
,
1100
0000
0011
0000
,
0110
0000
1001
0000
,
0020
0000
0000
0000
,
0130
0001
0100
0000
,
0001
0000
1000
0000
0100
0010
0100
0000
,
1000
0010
0100
0001
0010
1000
0010
0000
;

//---------------dance-single - ----------------
#NOTES:
     dance-single:
     :
     Beginner:
     3:
     0.228590,0.434212,0.212675,0.050637,0.000000,158.000000,137.000000,21.000000,5.000000,0.000000,0.000000,0.228590,0.434212,0.212675,0.050637,0.000000,158.000000,137.000000,21.000000,5.000000,0.000000,0.000000:
0000
0000
0000
0000
,
0000
0000
0000
0000
,
0000
0000
0000
0000
,
0000
0000
0000
0000
,
1000
0000
1001
0000
,
0000
0000
0010
0000
,
0100
0000
0110
0000
,
0000
0000
1000
1000
,
1000
0000
0000
0000
,
0001
0000
0001
0001
,
0000
0100
0000
0100
,
0000
0010
0000
0010
,
0010
0000
0000
0000
,
0000
1000
0000
0000
,
0001
0001
0001
0000
,
0000
0000
0000
0100
,
0100
0000
0010
0000
,
1000
0000
0000
0000
,
0010
0000
0000
0000
,
0010
0000
0000
0000
,
0001
0000
0100
0000
,
0010
0000
0000
0000
,
0100
0000
0000
0000
,
0010
0000
0000
0000
,
0100
0000
0110
0000
,
0000
0000
0001
0000
,
1000
0000
1001
0000
,
0000
0000
0100
0000
,
0010
0000
0110
0000
,
0000
0000
1000
0000
,
0001
0000
1001
0000
,
0100
0000
0010
0010
,
0010
0000
1000
0000
,
0010
0000
1000
0000
,
0010
0000
0100
0000
,
0010
0000
0100
0000
,
0100
0000
0001
0000
,
0100
0000
0001
0000
,
0010
0000
0001
0000
,
0010
0000
0001
0000
,
0100
0000
0010
0000
,
0100
0000
0010
0000
,
1000
0000
0100
0000
,
1000
0000
0100
0000
,
0010
0000
1000
0000
,
0010
0000
1000
0000
,
0001
0000
1000
0000
,
2002
0000
3003
0000
,
0110
0000
0110
0000
,
0110
0000
0110
0000
,
0220
0000
0330
0000
,
1000
1000
1000
0000
,
0010
0000
0010
0000
,
0010
0000
0010
0000
,
0010
0000
0000
0000
,
0000
0000
0000
0000
,
0100
0000
0100
0000
,
0100
0000
0100
0000
,
0100
0000
0000
0000
,
0000
0000
0000
0000
,
1001
0000
0000
0000
,
0110
0000
0000
0000
,
1001
0000
0000
0000
,
0110
0000
0000
0000
,
0001
0000
0001
0000
,
0001
0000
0001
0000
,
0001
0000
0000
0000
,
0100
0000
0100
0000
,
0010
0000
0010
0000
,
0010
0000
0010
0000
,
0010
0000
0000
0000
,
1001
0000
0000
0000
,
0100
0000
0100
0000
,
0100
0000
0100
0000
,
0100
0000
0000
0000
,
1001
0000
0000
0000
,
1000
0000
1000
0000
,
1000
0000
1000
0000
,
1000
0000
0000
0000
,
0110
0000
0000
0000
,
0001
0000
0001
0000
,
0001
0000
0001
0000
,
0002
0000
0003
0000
,
0110
0000
0110
0000
,
0010
0010
0010
0000
,
1000
1000
1000
1000
;

//---------------dance-single - ----------------
#NOTES:
     dance-single:
     :
     Easy:
     4:
     0.316843,0.477634,0.202548,0.374714,0.000000,219.000000,199.000000,20.000000,37.000000,0.000000,0.000000,0.316843,0.477634,0.202548,0.374714,0.000000,219.000000,199.000000,20.000000,37.000000,0.000000,0.000000:
0000
0000
0000
0000
,
0000
0000
0000
0000
,
0000
0000
0000
0000
,
0000
0000
0000
0000
,
0110
0000
1100
0000
,
0001
0100
0010
0000
,
0110
0000
0101
0000
,
0010
0100
1000
1000
,
0001
0100
0001
0100
,
0010
1000
1000
1000
,
0100
0020
0000
0032
,
0000
0203
0000
0320
,
1030
0000
0001
0000
1000
0000
0001
1000
,
0100
0010
0010
0010
,
0002
0023
0230
2300
,
3200
0320
0032
1003
,
0010
0010
0100
0010
,
0100
0001
1000
0000
,
1000
1000
0001
1000
,
0001
1000
0010
0000
,
0201
0000
1000
0000
,
0001
0001
0301
0000
,
0010
0100
1000
0001
,
0100
0010
0100
0000
,
1001
0000
0011
0000
,
0100
1000
0010
0000
,
1001
0000
1010
0000
,
0010
0100
0000
0000
,
0101
0000
1010
0000
,
0001
1000
0100
0000
,
1100
0000
0011
0000
,
0200
0000
0310
0010
,
2000
0000
3002
0000
,
0203
0000
0320
0000
,
0230
0000
0302
0000
,
2003
0000
3020
0000
,
2030
0000
3200
0000
,
0302
0000
0203
0000
,
2300
0000
3002
0000
,
0023
0000
0230
0000
,
1300
1000
1000
0010
,
0001
0001
0001
0010
,
1000
1000
1000
0100
,
0001
0001
0001
0010
,
1000
0100
0001
0010
,
1000
0100
0001
0010
,
1000
0001
1000
0001
,
2002
0000
0000
3003
,
0010
0000
0010
0000
,
0010
0000
0010
0000
,
0010
0010
0010
0010
,
0020
0000
0100
0000
,
0030
1000
0000
1000
,
0000
1000
0000
0000
,
0001
0000
1000
0000
,
0001
0000
1000
0000
,
0010
0000
0100
0000
,
0010
0000
0100
0000
,
0010
0000
0010
0000
,
0000
1001
0000
0000
,
0100
0000
0000
0000
,
0100
0000
0000
0000
,
0100
0000
0000
0000
,
0100
0000
0000
0000
,
0001
0000
0010
0000
,
0100
0000
1000
0000
,
0001
0000
0001
0000
,
0001
0000
0001
0000
,
1200
0000
0000
0000
,
1300
0000
0000
0000
,
0010
0000
0100
0000
,
0000
1001
0000
0000
,
0201
0000
0000
0000
,
1300
0000
0000
0000
,
1000
0000
0100
0000
,
0010
0000
0000
0000
,
0021
0000
0000
0000
,
1030
0000
0000
0000
,
0010
0000
0001
0000
,
1000
0000
0010
0000
,
1020
0000
0000
0000
,
0031
0000
0000
0000
,
0020
0000
0000
0000
,
1030
0000
1000
0000
,
1000
0100
0010
0001
,
1000
0100
0010
0001
0010
0100
1000
0000
;

//---------------dance-single - ----------------
#NOTES:
     dance-single:
     :
     Medium:
     7:
     0.520838,0.694740,0.516498,0.516498,0.000000,360.000000,309.000000,51.000000,51.000000,0.000000,0.000000,0.520838,0.694740,0.516498,0.516498,0.000000,360.000000,309.000000,51.000000,51.000000,0.000000,0.000000:
0000
0000
0000
0000
,
0000
0000
0000
0000
,
0000
0000
0000
0000
,
0000
0000
0000
0000
,
0001
0010
0100
1000
1100
0000
0000
0020
,
0000
0000
0000
0000
0000
0200
0030
0310
,
1000
0100
0010
0001
0011
0000
0000
0202
,
0000
0000
0000
0303
0001
1000
0001
0000
,
1000
0100
0010
0001
0100
0000
0100
0000
,
0010
0000
0010
0100
0010
0100
0001
0000
,
2000
0002
3003
0220
,
0030
0302
1003
1010
,
0100
0001
0100
0010
0100
0000
0001
1000
,
0100
0010
0100
1000
0100
1000
0100
1000
,
0020
0230
0302
2003
,
3010
0010
1001
1001
,
0200
0000
0301
0000
0100
1000
0100
0000
,
0200
0000
0301
0000
0100
1000
0100
0000
,
0002
0023
0230
1300
,
1100
1010
1100
0010
,
0100
0001
0100
0000
0100
0010
0100
0000
,
0002
2003
3010
1010
,
0100
0001
0100
0001
1000
0010
1000
0010
,
0100
0000
0100
0000
0100
0001
0010
0100
,
1000
0010
0100
0001
0101
0000
0000
0110
,
0000
0000
0000
0000
0010
1000
0010
0100
,
0001
0100
0010
1000
1010
0000
0000
1100
,
0000
0000
0000
0000
0100
0010
0001
0010
,
0001
1000
0010
0100
0110
0000
0000
1001
,
0000
0000
0000
0000
0010
0100
0010
0100
,
0010
1000
0001
0100
0101
0000
0000
1010
,
0000
0000
0000
0000
1000
0100
0010
0000
,
0002
0010
2003
0010
,
3002
0010
2003
0010
,
3002
0100
2003
0100
,
3002
0100
2003
3100
,
1100
0001
0101
1000
,
1100
0001
0101
1000
,
1010
0001
0011
1000
,
1010
0001
0011
1000
,
0010
0100
0010
0000
0010
0100
0010
0000
,
0100
0001
0100
0000
0100
0001
0100
0000
,
0001
0010
0001
0000
0001
0010
0001
0000
,
0100
1000
0100
0000
0100
1000
0100
0000
,
1010
0101
1001
0110
,
0010
0100
0001
1000
,
1100
0110
0011
1001
,
0020
0000
0000
0000
0130
0010
1000
0000
,
2200
3300
0022
0033
,
0202
0303
2020
3030
,
1001
0010
1001
0010
,
0001
0100
0001
0100
0002
0000
0000
0000
,
1003
0000
0100
0000
,
1000
0100
0010
0000
,
0001
0000
0010
0000
,
0001
0010
0100
0000
,
1000
0000
1000
0000
,
0001
0000
0001
0000
,
0100
0000
0010
0000
,
0100
0020
0000
0030
,
2200
0000
3300
0000
,
0202
0000
0303
0000
,
0220
0000
0330
0000
,
2002
0000
3003
0000
,
0110
0000
1000
0000
,
0101
0000
0010
0000
,
1000
0100
0010
0001
,
0010
0100
1000
0000
,
0010
0100
0010
0100
,
0110
0000
0000
0000
,
1000
0000
0001
0000
,
0100
0010
1000
0001
,
1000
0100
1000
0100
,
1100
0000
0000
0000
,
0010
0000
0001
0000
,
0100
0002
0000
0000
,
0013
0001
0010
0001
,
0011
0000
0000
0000
,
0100
0000
1000
0000
,
0010
0100
0001
1000
,
0010
1000
0010
1000
,
2020
0000
3030
0000
,
0002
0000
0000
0003
,
0100
0001
0100
0000
,
0010
0000
1000
0000
0100
0010
0001
0000
,
0010
0100
1000
0100
0001
0100
1000
0000
;

//---------------dance-double - ----------------
#NOTES:
     dance-double:
     :
     Easy:
     5:
     0.373267,0.651319,0.283567,0.465861,0.000000,258.000000,230.000000,28.000000,46.000000,0.000000,0.000000,0.373267,0.651319,0.283567,0.465861,0.000000,258.000000,230.000000,28.000000,46.000000,0.000000,0.000000:
00000000
00000000
00000000
00000000
,
00000000
00000000
00000000
00000000
,
00000000
00000000
00000000
00000000
,
00000000
00000000
00000000
00000000
,
00020100
00000000
00000000
00000000
00031000
00000000
00000000
00011000
,
00000000
00000000
00000000
00000000
00000000
00020000
00000000
00030000
,
02100000
00000000
00000000
00000000
03100000
00000000
00000000
01010000
,
00000000
00000000
00010000
00001000
,
00000100
00000010
00000010
00000100
,
00010000
00010000
00001000
00100000
,
00010000
02000000
03000000
00200000
,
00300000
20000000
30000000
00020000
,
00030000
00000000
00100000
00000000
00001000
00000000
00100000
00001000
,
00100000
00001000
00010000
00000010
,
00002000
00003200
00000320
00000032
,
00000203
00002300
00023000
02030000
,
23000000
00000000
30200000
00000000
,
02300000
00010000
03010000
00000000
,
00100000
01000000
10000000
00100000
,
00010000
00001000
00000010
00000010
,
00000002
00000000
00000023
00000000
,
00000230
00001000
00001300
00000000
,
00010000
00000100
00010000
00001000
,
00100000
00100000
02000000
00000000
,
13000000
01000000
11000000
00000000
,
00100000
00000000
00010000
00000000
00100000
00100000
00100000
00000000
,
00001000
00010000
00011000
00000000
,
00000100
00000000
00001000
00000000
00000010
00000100
00000000
00000000
,
00000001
00000010
00000011
00000000
,
00000100
00000000
00001000
00000000
00000010
00000010
00000010
00000000
,
00010000
00000100
00010100
00000000
,
00001000
00000000
00010000
00000000
00100000
01000000
00100000
00000000
,
02000000
00000000
23000000
00000000
,
32000000
00000000
03200000
00000000
,
02300000
00000000
03020000
00000000
,
02030000
00000000
03002000
00000000
,
00023000
00000000
00030200
00000000
,
00020300
00000000
00030020
00000000
,
00002030
00000000
00003020
00000000
,
00000230
00000000
00000302
00000010
,
00000013
00000010
00000010
00000010
,
00001000
00001000
00001000
00001000
,
00000100
00000100
00000100
00000100
,
00010000
00010000
00010000
00010000
,
00001000
00100000
00010000
01000000
,
00100000
10000000
01000000
00010000
,
00001000
00000100
00000001
00000010
,
00001100
00000000
00000000
00000000
00000100
00010000
00001000
00000000
,
00011000
00100000
00011000
00000100
,
00011000
00100000
00011000
00000100
,
00011000
00011000
00011000
00011000
,
00100000
00010000
20000000
32000000
,
03100000
00000000
00010000
00000000
,
00001000
00000000
00000100
00000000
,
00000010
00000000
00000010
00000000
,
00000001
00000000
00000100
00000000
,
00000010
00000000
00000010
00000000
,
00010000
00000000
00010000
00000000
,
00001000
00000000
00001000
00000000
,
00000000
00011000
00000000
00000000
,
00110000
00000000
00000000
00000000
,
01010000
00000000
00000000
00000000
,
01100000
00000000
00000000
00000000
,
00011000
00000000
00000000
00000000
,
00000200
00000000
00002300
00000000
,
00003020
00000000
00000230
00000000
,
00000302
00000000
00000003
00000000
,
00001001
00000000
00001001
00000000
,
00000010
00000000
00001000
00000000
,
00001010
00000000
00000010
00000000
,
00001000
00000000
00000100
00000000
,
00001000
00000100
00010000
00000000
,
00010000
00000000
00001000
00000000
,
00011000
00000000
00010000
00000000
,
00001000
00000000
00100000
00000000
,
00010000
00100000
00000000
00000000
,
01000000
00000000
10000000
00000000
,
11000000
00000000
01000000
00000000
,
10000000
00000000
00100000
00000000
,
01000000
00010000
01000000
00000000
,
00001000
00000000
00100000
00000000
,
00101000
00000000
00000000
00000000
,
00002000
00000000
00000000
00000000
,
00013000
00001000
00010000
00000000
,
00001000
00000000
00010000
00000000
00000100
00001000
00000010
00000000
,
00000100
00000001
00000010
00000100
00001000
00010000
00100000
00000000
;

//---------------dance-double - ----------------
#NOTES:
     dance-double:
     :
     Medium:
     7:
     0.465861,0.738161,0.303822,0.334204,0.000000,322.000000,292.000000,30.000000,33.000000,0.000000,0.000000,0.465861,0.738161,0.303822,0.334204,0.000000,322.000000,292.000000,30.000000,33.000000,0.000000,0.000000:
00000000
00000000
00000000
00000000
,
00000000
00000000
00000000
00000000
,
00000000
00000000
00000000
00000000
,
00000000
00000000
00000000
00000000
,
01000000
00010000
00100000
00010000
01000000
00000000
00000000
00100000
,
01000000
00000000
00000000
00000000
00000000
10000000
00000000
10000000
,
00100000
01000000
00010000
01000000
00100000
00000000
00000000
01000000
,
00010000
00000000
00100000
00001000
,
00010000
00000000
00000100
00000000
00001000
00000010
00001000
00000000
,
00000001
00000100
00000010
00001010
,
00010000
00000000
00002000
00000000
00000000
00100000
00103000
00000000
,
00010000
00000000
20000000
00000000
00000000
01000000
31000000
00000000
,
00100000
00000000
00010000
00000000
00100000
00000000
00010000
01000000
,
00100000
00000000
01000000
00100000
01000000
00100000
01000000
00000000
,
00100000
00001000
00010000
00000010
,
00001000
00000100
00001000
00000100
,
00002200
00003300
00000022
00000033
,
00000001
00000100
00001010
00000000
,
00010000
00001000
00010000
00000100
,
00010000
00010000
00010000
00000000
,
00200000
00000000
02300000
00000000
,
13000000
00100000
01010000
00000000
,
10000000
10000000
00010000
00010000
,
00100000
00100000
00022000
00033000
,
00001000
00010000
00001000
00010000
00001000
00000000
00000000
00000000
,
00010000
00000100
00001000
00000000
00000000
00002200
00000000
00003300
,
00000010
00000100
00000010
00000100
00000010
00000000
00000000
00000200
,
00000002
00000000
00000303
00000000
00000010
00000200
00000000
00000300
,
00001000
00000100
00001000
00000100
00001000
00000000
00000000
00000000
,
00000100
00010000
00001000
00000000
00000000
00220000
00000000
00330000
,
01000000
00010000
01000000
00010000
01000000
00000000
00000000
00200000
,
20000000
00000000
30300000
00000000
01000000
00100000
01000000
00000000
,
00110000
01000000
10100000
00000000
,
10000000
01000000
00010000
00000000
,
00001100
00000010
00000101
00000000
,
00000001
00000010
00001000
00000000
,
00011000
00100000
01100000
00000000
,
10000000
00100000
00010000
00000000
,
00101000
00010000
00010100
00000000
,
00001000
00000100
00000001
00001000
,
00000001
00000001
00000010
00000010
,
00000100
00000100
00001000
00001000
,
00010000
00010000
00100000
00100000
,
01000000
01000000
10000000
10000000
,
10000000
01000000
00100000
00010000
10000000
01000000
00100000
00010000
,
00001000
00000100
00000010
00000001
00001000
00000100
00000010
00000001
,
00000100
00000010
00001000
00000001
00000100
00000010
00001000
00000001
,
00000200
00000000
00000000
00000000
00000310
00001000
00000010
00000000
,
00022000
00033000
00220000
00330000
,
02200000
03300000
22000000
33000000
,
00100000
00001000
00010000
00000100
00001000
00000010
00000100
00000001
,
00000010
00000001
00000010
00000001
00000100
00000001
00001000
00000000
,
00000100
00000000
00000100
00000000
,
00010000
00000000
00010000
00000000
,
00011000
00000000
00101000
00000000
,
00100000
00010000
00100000
00000000
,
00010000
00000000
01000000
00000000
,
00100000
10000000
00010000
00000000
,
00100000
00001000
00010000
00000000
,
00002000
00020000
00000000
00033000
,
00011000
00000000
00000000
00000000
,
00001100
00000000
00000000
00000000
,
00000011
00000000
00000000
00000000
,
00000101
00000000
00000000
00000000
,
00001001
00000000
00000100
00000000
,
00010100
00000000
00001000
00000000
,
00110000
00000000
01000000
00000000
,
10000000
01000000
00100000
00000000
,
00010000
00001000
00010000
00001000
,
00010000
00000000
00000000
00000100
,
00001000
00000100
00001000
00000000
,
00000010
00000100
00000000
00000001
,
00000100
00000001
00000100
00000001
,
00000100
00000000
00000000
00000001
,
00000010
00000001
00000010
00000000
,
00000200
00002000
00000000
00003300
,
00000100
00010000
00000100
00010000
,
00000100
00000000
00000000
00010000
,
00001000
00010000
00001000
00000000
,
01000000
00100000
00000000
10000000
,
00100000
10000000
00100000
10000000
,
00100000
00000000
00000000
01000000
,
00020000
00000000
00000000
00030000
,
00100000
00001000
00100000
00000000
,
00101000
00000000
00001000
00000000
00010000
00000100
00001000
00000000
,
00000010
00000100
00000001
00000010
00001000
00010000
00100000
00000000
;

//---------------dance-double - ----------------
#NOTES:
     dance-double:
     :
     Hard:
     8:
     0.541093,0.738161,0.374714,0.455733,0.000000,374.000000,337.000000,37.000000,45.000000,0.000000,0.000000,0.541093,0.738161,0.374714,0.455733,0.000000,374.000000,337.000000,37.000000,45.000000,0.000000,0.000000:
00000000
00000000
00000000
00000000
,
00000000
00000000
00000000
00000000
,
00000000
00000000
00000000
00000000
,
00000000
00000000
00000000
00000000
,
10000000
01000000
00100000
00010000
00011000
00000000
00000000
00001000
,
00010000
00100000
00010000
00001000
00000100
00001000
00000100
00001000
,
00000010
00000100
00000001
00000010
00000100
00000000
00000000
00020000
,
00002000
00000000
00000000
00033000
00100000
00010000
00100000
00000000
,
00010000
00001000
00100000
00000000
00010000
00000000
00010000
00000000
,
01000000
00000000
01000000
00100000
10000000
00000000
10000000
00000000
,
01000000
02200000
03300000
00022000
,
00033000
00000220
00000330
00001001
,
00000001
00000100
00000010
00001000
00000100
00001000
00000010
00001010
,
00000000
00010100
00010100
00001000
,
00200000
00320000
02030000
03200000
,
20300000
32000000
03020000
00032000
,
00023000
00000000
00030020
00000000
,
00000230
00002300
00003200
00000300
,
00000002
00000023
00000230
00002300
,
00003010
00000000
00001000
00000000
00000010
00000100
00000001
00000000
,
00000020
00000000
00020030
00000000
,
00030020
00000230
00002300
00003000
,
00000200
00020300
02030000
23000000
,
30100000
00000000
01000000
00000000
00010000
00100000
01000000
00000000
,
10000000
01000000
00100000
00010000
00011000
00000000
00000000
00001000
,
00010000
00000100
00001000
00000010
00000100
00000010
00000100
00000010
,
00000100
00001000
00010000
00001000
00000100
00000000
00000000
00000020
,
00000200
00000000
00000000
00000000
00000330
00000001
00000000
00001000
,
00000001
00000010
00000100
00001000
00011000
00000000
00000000
00000000
,
00000000
00010000
00100000
01000000
00100000
00010000
10000000
01000000
,
00100000
00010000
01000000
00010000
01000000
00000000
00000000
00002000
,
00020000
00000000
00000000
00033000
00011000
00000000
00000110
00000000
,
00000001
00000100
00001000
00000000
00010000
00000000
00100000
00000000
,
10000000
00100000
00010000
00000000
00001000
00000000
00000100
00000000
,
00000001
00000100
00001000
00000000
00010000
00000000
00100000
00000000
,
10000000
00100000
00010000
00000000
00001000
00000000
00000100
00000000
,
00000001
00000010
00000100
00000000
00001000
00000000
00010000
00000000
,
00100000
01000000
10000000
00000000
01000000
00000000
00100000
00000000
,
00010000
00001000
00000100
00000000
00000010
00000000
00000001
00000000
,
00000010
00000100
00001000
00000000
00010000
00000000
00100000
00000000
,
01000000
11000000
01000000
11000000
,
00100000
00110000
00100000
00110000
,
00001000
00001100
00001000
00001100
,
00000010
00000011
00000010
00000011
,
00000001
00000010
00000100
00001000
00010000
00100000
01000000
10000000
,
01000000
00100000
00010000
00001000
00000100
00000010
00000001
00000000
,
00001100
00010010
00011000
00101000
,
00010000
00100000
01000000
00000000
10000000
01000000
00010000
00000000
,
00001100
00000000
00000101
00000000
00000010
00000100
00001000
00000000
,
00110000
00000000
11000000
00000000
10000000
00100000
01000000
00000000
,
00001000
00010000
00001000
00010000
00001000
00010000
00001000
00000000
,
00022000
00000000
00033000
00000000
00001000
00010000
00000100
00000000
,
00001000
00000010
00001000
00000000
,
00000001
00000000
00000101
00000000
,
00001000
00000010
00010000
00000000
,
00001000
00100000
00010000
00000000
,
01000000
10000000
01000000
00000000
,
00010000
00001000
00010000
00000000
,
00000100
00000001
00000100
00000000
,
00001000
00000200
00000000
00020300
,
00031000
00000000
00000000
00000000
,
00011000
00000000
00000000
00000000
,
00110000
00000000
00000000
00000000
,
11000000
00000000
00000000
00000000
,
01100000
00000000
00001000
00000000
,
00011000
00000000
00010000
00000000
,
00001100
00000000
00000010
00000000
,
00000100
00000001
00000100
00000000
,
00000010
00010000
00000100
00010000
,
00001000
00100000
00010000
01000000
,
10000000
01000000
00010000
00001000
,
00000100
00000001
00000100
00000001
,
00000100
00000010
00010000
00001000
,
00010000
00000000
00000000
01000000
,
00100000
01000000
10000000
01000000
,
00010000
01000000
10000000
00100000
,
00010000
00001000
00000010
00000001
,
00000200
00000000
00001300
00010000
,
01000000
10000000
00100000
00010000
,
00001000
00000100
00000001
00000010
,
00000100
00010000
00001000
00100000
,
00020000
00000000
01030000
10000000
,
02000000
00000000
00000000
03000000
,
00001000
00000100
00000001
00000000
,
00001100
00000000
00000010
00000000
00010000
00001000
00100000
00010000
,
01000000
10000000
01000000
00010000
00001000
00000100
00000001
00000000
;

//---------------dance-double - ----------------
#NOTES:
     dance-double:
     :
     Challenge:
     9:
     0.682876,0.868425,0.668409,0.172166,0.035446,472.000000,406.000000,66.000000,17.000000,0.000000,0.000000,0.682876,0.868425,0.668409,0.172166,0.035446,472.000000,406.000000,66.000000,17.000000,0.000000,0.000000:
00000000
00000000
00000000
00000000
,
00000000
00000000
00000000
00000000
,
00000000
00000000
00000000
00000000
,
00000000
00000000
00000000
00000000
,
00000010
00000000
00001000
00000100
00001000
00000000
00000010
00000000
00000120
00000000
00000000
00000000
00000030
00000000
00000100
00000000
,
00001000
00010000
00001000
00000100
00000001
00000100
00000001
00000100
,
00001000
00000000
00000100
00010000
00000100
00000000
00010000
00000000
00012000
00000000
00000000
00000000
00000000
00000000
00103000
00000000
,
00001000
00000000
00010000
00000000
00001000
00000000
00010000
00000000
00000000
00001000
00000000
00000000
01000000
00000000
00000000
00100000
00000000
00000000
01000000
00000000
00000000
00000000
00000000
00000000
,
10010000
00100000
01000000
00100000
00010000
00001000
00010000
00100000
,
01000000
10000000
10100000
00000000
00110000
00000000
00011000
00000000
,
00001200
00000000
00000301
00000000
00000001
00000100
00001000
00000000
,
00011000
00000000
01010000
00000000
10000000
01000000
00010000
00000000
,
00011000
00000100
00001000
00000010
00000100
00000001
00000010
00001100
,
00010000
00001000
00101000
00000000
00110000
00000000
01100000
00000000
,
12000000
03010000
00012000
00003100
,
00000102
00000000
00000103
00000100
00001000
00010000
00001000
00000000
,
00000010
00010000
00000010
00001000
00001010
00000000
00010000
00001000
,
00010000
00000000
01100000
00000000
11000000
10000000
01000000
00000000
,
10000000
00000000
00000000
10000000
01000000
00000000
00000000
01000000
00100000
00000000
00000000
00100000
00010000
00000000
00000000
00000000
,
00011000
00000000
00010100
00000000
00000010
00000100
00000001
00000000
,
00000001
00000100
00001000
00000000
00010000
00100000
10000000
00000000
,
10000000
00100000
00010000
00001000
00010000
00100000
01000000
00000000
,
00010000
01000000
00100000
10000000
01000000
00100000
00010000
00000000
,
00001000
00000100
00000010
00000000
00000001
00000100
00000010
00001000
,
00001100
00000100
00001000
00000010
00001010
00000000
00000000
00000010
,
00001000
00000100
00000010
00000001
00000100
00001000
00010000
01000000
,
11000000
10000000
00100000
01000000
01010000
00000000
00000000
00200000
,
02000000
00000000
03300000
01000000
00010000
01010000
00000000
00001000
,
00011000
00010000
00000100
00001000
00001010
00000000
00000000
00000100
,
00001000
00000010
00000100
00000001
00000010
00001000
00010000
00100000
,
10100000
10000000
01000000
00100000
00110000
00000000
00000000
00002000
,
00020000
00000000
00033000
00001000
00010000
00000010
00010010
00000000
,
00000110
00000000
00001000
00001000
00000001
00000000
00000110
00000000
,
00011000
00000000
00000100
00000100
00010000
00000000
00011000
00000000
,
01100000
00000000
00010000
00010000
10000000
00000000
01100000
00000000
,
11000000
00000000
10000000
10000000
01000000
00000000
11000000
00000000
,
00110000
00000000
00001000
00001000
00010000
00000000
00110000
00000000
,
00001100
00000000
00010000
00010000
00000100
00000000
00001100
00000000
,
00000011
00000000
00000001
00000001
00000010
00000000
00000011
00000000
,
00001100
00000000
00000100
00000100
00010000
00000000
00001100
00000000
,
00010000
00100000
01000000
00000000
10000000
01000000
00100000
00000000
,
00010000
00001000
00000100
00000000
00000010
00000001
00000100
00000000
,
00000010
00001000
00000010
00000000
00000010
00010000
00000010
00000000
,
00010000
00001000
00010000
00000000
00010000
00000100
00010000
00000000
,
00001000
00100000
00010000
10000000
01000000
00010000
00001000
00000010
,
00000001
00000100
00000010
00001000
00010000
00001000
00000010
00010000
,
00000100
00100000
00010000
01000000
00100000
10000000
01000000
00100000
,
20020000
00000000
00000000
00000000
00000000
00030000
30100000
00000000
,
01010000
00010000
00001100
00001000
,
00000110
00000010
00000101
00000100
,
00001010
00011000
10010000
11000000
,
00100000
00001000
00100000
00001000
00100000
00001000
00010000
00000000
,
00000100
00001000
00000000
00000000
00000100
00000010
00000000
00000000
,
00000001
00000010
00000100
00000000
,
00001000
00000010
00000100
00000000
,
00001000
00010000
00100000
00000000
,
01000000
00010000
10000000
00100000
,
01000000
00001000
01000000
00001000
,
01000000
00010000
10000000
01000000
,
00110000
00002000
00000000
00013000
,
00011000
00000000
00000100
00001000
,
00001010
00000000
00000100
00000001
,
00000101
00000000
00000001
00001000
,
00001001
00000000
00000010
00010000
,
00001000
00000000
00000000
00010000
00001000
00000000
00000000
00100000
,
00010000
00000000
00000000
01000000
00100000
00000000
00000000
00000000
,
10000000
01000000
00010000
00001000
,
00000010
00000001
00001001
00000000
,
00000010
00001000
00000010
00001000
,
00000010
00000100
00000010
00000100
,
00000010
00000001
00000010
00001000
,
00010000
00100000
10000000
00100000
,
00010000
01000000
00010000
01000000
,
00100000
10000000
00100000
10000000
,
02000000
00000000
00000000
00000000
,
03100000
00010000
00000000
00011000
,
00000100
00001000
00000100
00001000
,
00000100
00000010
00000100
00000010
,
00000100
00000001
00000100
00001000
,
00010000
01000000
10000000
01000000
,
00010000
00001000
00010000
00001000
,
00022000
00000000
00033000
00000010
,
00000200
00000000
00000000
00000000
,
00000301
00000100
00000010
00000000
,
00000110
00000000
00001000
00000000
00000100
00010000
00001000
00000000
,
00100000
10000000
00100000
00001000
00010000
00000100
00001000
00000000
;
