#TITLE:You'll Find A Way;
#SUBTITLE:;
#ARTIST:Santigold;
#TITLETRANSLIT:;
#SUBTITLETRANSLIT:;
#ARTISTTRANSLIT:;
#GENRE:Rock;
#CREDIT:;
#BANNER:youllfindaway-bn.png;
#BACKGROUND:youllfindaway-bg.png;
#LYRICSPATH:;
#CDTITLE:;
#MUSIC:You'll Find A Way.ogg;
#OFFSET:-0.742000;
#SAMPLESTART:41.149006;
#SAMPLELENGTH:12.000000;
#SELECTABLE:YES;
#BPMS:0.000000=163.960007
;
#STOPS:
;
#BGCHANGES:;
#KEYSOUNDS:;
#ATTACKS:;

//---------------dance-single - ----------------
#NOTES:
     dance-single:
     :
     Hard:
     8:
     0.566809,0.602200,0.277044,0.000000,0.000000,401.000000,373.000000,28.000000,0.000000,0.000000,0.000000,0.566809,0.602200,0.277044,0.000000,0.000000,401.000000,373.000000,28.000000,0.000000,0.000000,0.000000:
// measure 0
0000
0000
0000
0000
,  // measure 1
0000
0000
0000
0000
,  // measure 2
0000
0000
0000
0000
,  // measure 3
1010
0000
0000
0000
0000
0000
0100
0001
,  // measure 4
0010
0001
0010
0001
0100
0010
1000
0000
,  // measure 5
0100
1000
0100
1000
0010
0100
0001
0000
,  // measure 6
0010
0100
0010
0100
1000
0010
0001
0000
,  // measure 7
1000
0001
0100
1001
,  // measure 8
0110
0000
0010
0001
0010
0100
1000
0000
,  // measure 9
0100
0001
0100
0001
0010
0100
0010
0000
,  // measure 10
0100
1000
0100
1000
0001
0010
0100
0000
,  // measure 11
1000
0000
0100
0000
0001
0000
1000
0010
,  // measure 12
1000
0100
1100
0000
1000
0010
1010
0000
,  // measure 13
1000
0001
1001
0000
1000
0010
1010
0000
,  // measure 14
1000
0001
0100
0001
1000
0001
0100
0000
,  // measure 15
0001
1000
0100
0000
1000
0000
0001
0000
,  // measure 16
0001
0010
0011
0000
0001
0100
0101
0000
,  // measure 17
0001
1000
1001
0000
0001
0100
0101
0000
,  // measure 18
0001
1000
0010
1000
0001
1000
0010
1000
,  // measure 19
0001
0010
0100
0000
1000
0100
0010
0001
,  // measure 20
0100
0101
0010
0011
,  // measure 21
0100
0101
0010
0011
,  // measure 22
0100
0000
0101
0000
0010
1000
0100
1000
,  // measure 23
0010
0000
0100
0001
0010
0001
0100
0000
,  // measure 24
0010
1010
0100
1100
,  // measure 25
0010
1010
0100
1100
,  // measure 26
0010
1010
0100
0001
,  // measure 27
1000
0000
0010
1000
1010
0000
0000
0000
,  // measure 28
1000
0001
0000
0010
0001
0010
0000
0100
,  // measure 29
0001
0100
0000
0010
1000
0010
0000
0100
,  // measure 30
0010
0100
0000
1000
0100
1000
0000
0010
,  // measure 31
1000
0010
0000
0100
0010
0100
0000
0010
,  // measure 32
0001
0010
0000
0100
0010
0100
0000
1000
,  // measure 33
0010
1000
0000
0100
0001
0100
0000
1000
,  // measure 34
0010
0100
0001
0000
0010
0100
0001
0000
,  // measure 35
0010
0100
0001
1000
0001
0010
0010
0010
,  // measure 36
0001
1000
0000
0010
1000
0100
0000
1000
,  // measure 37
0010
0100
0000
0010
1000
0100
0000
1000
,  // measure 38
0100
0001
0000
0100
1000
0010
0000
0100
,  // measure 39
0001
0010
0000
0100
1000
0010
0000
0100
,  // measure 40
0001
1000
0000
0001
0010
0100
0000
0010
,  // measure 41
0001
0100
0000
0001
0100
1000
0000
0100
,  // measure 42
0001
0010
0100
0000
0001
0010
0100
0000
,  // measure 43
0001
0010
0100
1000
0100
0010
0100
1000
,  // measure 44
0010
0000
1100
0000
0010
0100
0001
0010
,  // measure 45
0001
0000
0101
0000
0010
1000
0100
0010
,  // measure 46
0100
0000
1010
0000
0100
0001
0010
0100
,  // measure 47
0010
0000
0011
0000
0100
1000
0010
1000
,  // measure 48
0100
0000
1001
0000
0100
0001
0010
1000
,  // measure 49
0010
0000
0101
0000
0010
1000
0100
0010
,  // measure 50
0100
1000
0000
0000
0000
0000
0000
0000
,  // measure 51
0000
0000
0000
0000
,  // measure 52
0000
0000
0000
0000
0010
0100
0000
0001
,  // measure 53
0010
0100
0000
0010
0001
1000
0000
0100
,  // measure 54
1000
0100
0000
1000
0010
0100
0000
0010
,  // measure 55
1000
0100
0000
0001
0100
1000
0000
0010
,  // measure 56
0100
0010
0000
0100
0001
0010
0000
0100
,  // measure 57
1000
0001
0000
0100
0001
0010
0000
1000
,  // measure 58
0010
0001
0000
0100
0001
1000
0010
0000
,  // measure 59
0001
1000
0010
0000
0001
1000
0010
0100
,  // measure 60
0001
0010
0100
1000
0010
0100
0000
1000
,  // measure 61
0100
0001
0000
0010
0100
0010
0000
0001
,  // measure 62
0100
0010
0000
1000
0100
0010
0000
0100
,  // measure 63
1000
0100
0000
1000
0010
0100
0000
0001
,  // measure 64
0010
0100
0010
0001
1000
0100
0000
0001
,  // measure 65
0100
1000
0000
0010
0100
0001
0000
0010
,  // measure 66
0100
0010
0000
0001
0100
0010
1000
0000
,  // measure 67
0100
0010
1000
0000
0100
0010
0000
0000
;

//---------------dance-single - ----------------
#NOTES:
     dance-single:
     :
     Medium:
     6:
     0.412739,0.501833,0.227572,0.009894,0.000000,292.000000,269.000000,23.000000,1.000000,0.000000,0.000000,0.412739,0.501833,0.227572,0.009894,0.000000,292.000000,269.000000,23.000000,1.000000,0.000000,0.000000:
0000
0000
0000
0000
,
0000
0000
0000
0000
,
0000
0000
0000
0000
,
2000
0000
0000
0000
0000
0000
3001
0100
,
0001
0000
0010
0100
1000
0000
0101
0000
,
0010
0100
0010
0100
1000
0000
0101
0000
,
1000
0001
0100
0010
,
0100
0001
1000
1010
,
0001
0000
0001
0100
0010
0000
1100
0000
,
0100
0010
0100
0010
0001
0000
1100
0000
,
0010
1000
0001
0100
,
0001
1000
0010
0101
,
0010
1000
0010
0000
0010
0100
0010
0000
,
0010
1000
0010
0000
0010
0100
0010
0000
,
0010
1000
0010
0000
0010
0100
0010
0000
,
1000
0001
0000
0001
,
0100
0001
0100
0000
0100
0010
0100
0000
,
0100
0001
0100
0000
0100
0010
0100
0000
,
0100
0001
0100
0000
0100
0010
0100
0000
,
0010
1000
0000
1000
,
0001
1000
0100
0001
,
1000
0001
0100
1000
,
0000
0010
0100
0001
,
1000
0000
0000
0000
,
1000
0001
0010
1000
,
0001
1000
0010
0001
,
0000
0100
0010
1000
,
0001
0000
0011
0000
,
0010
0100
0000
0010
1000
0000
0000
0001
,
1000
0000
0000
0001
0010
0000
0000
0100
,
1000
0000
0000
0010
0100
0000
0000
0100
,
0001
0000
0000
0010
0100
0000
0000
0000
,
1000
0010
0000
1000
0100
0000
0000
0010
,
0001
0000
0000
0100
0001
0000
0000
1000
,
0010
1001
0100
1001
,
0010
0000
1001
0000
0100
0001
0100
0001
,
0100
0001
0000
0100
0010
0000
0000
1000
,
0100
0000
0000
0010
0001
0000
0000
0100
,
0001
0000
0000
0010
0100
0000
0000
1000
,
0010
0000
0000
0100
0010
0000
0000
0000
,
0100
0001
0000
0010
0001
0000
0000
0010
,
0100
0000
0000
1000
0010
0000
0000
0100
,
0010
1100
0010
0101
,
0010
0000
1100
0000
0010
0100
0010
0100
,
0001
0010
0011
0001
,
1000
0100
1100
1000
,
0010
0100
0110
0010
,
1000
0010
1010
1000
,
0001
0100
0101
0001
,
1000
0000
0001
0000
0010
0001
0010
0001
,
0000
0000
0000
0000
,
0000
0000
0000
0000
,
0000
0000
0000
0000
0010
0100
0000
0100
,
0001
0000
0000
0010
0001
0000
0000
0010
,
0100
0000
0000
1000
0010
0000
0000
0100
,
0001
0000
0000
1000
0001
0000
0000
1000
,
0100
0000
0000
0000
0100
1000
0000
0010
,
1000
0000
0000
0001
0100
0000
0000
0010
,
0100
0000
0000
0001
1000
0000
0011
0000
,
0001
1010
1000
0011
,
1000
0001
0000
1000
0001
0010
0000
0100
,
1000
0000
0000
0010
0100
0000
0000
0010
,
1000
0000
0000
0100
0010
0000
0000
0001
,
0010
0000
0000
1000
0010
0000
0000
0001
,
1000
0000
0000
0100
1000
0000
0000
0010
,
0100
0000
0000
0001
0010
0000
0000
0010
,
0001
0000
0000
1000
0001
0000
0110
0000
,
1000
0000
0011
0000
0100
0010
0000
0000
;

//---------------dance-single - ----------------
#NOTES:
     dance-single:
     :
     Easy:
     3:
     0.251601,0.300543,0.059367,0.029683,0.000000,178.000000,172.000000,6.000000,3.000000,0.000000,0.000000,0.251601,0.300543,0.059367,0.029683,0.000000,178.000000,172.000000,6.000000,3.000000,0.000000,0.000000:
0000
0000
0000
0000
,
0000
0000
0000
0000
,
0000
0000
0000
0000
,
0000
0000
0000
0000
,
0100
0001
0001
0010
,
0100
1000
1000
0010
,
0100
0010
1000
0100
,
0010
0000
0001
0000
,
1000
0001
0001
0100
,
0001
1000
1000
0100
,
1000
0010
0100
0001
,
0100
0010
1000
0001
,
0100
0001
0000
1001
,
0000
1000
0000
1001
,
0000
0001
0000
1001
,
0000
0000
0000
0000
,
0000
0010
0000
0110
,
0000
0100
0000
0110
,
0000
0010
0000
0110
,
0000
0000
0000
0100
,
0001
1000
0010
1000
,
0010
0100
0001
0100
,
0000
0001
1000
0001
,
1000
0000
0000
0010
,
0100
0001
0010
0001
,
0010
0100
1000
0100
,
0000
1000
0001
0100
,
0010
0000
1000
0000
,
0001
0000
0001
0000
,
0001
0000
0001
0000
,
0001
0010
0100
1000
,
0100
0010
0001
1000
,
1000
0000
1000
0000
,
1000
0000
1000
0000
,
1000
0001
0001
1000
,
0010
0000
0100
0100
,
0100
0000
0100
0000
,
0100
0000
0100
0000
,
0100
0010
1000
0001
,
0100
0010
1000
0001
,
0010
0000
0010
0000
,
0010
0000
0010
0000
,
0001
1000
1000
0001
,
0100
0000
0010
0000
,
2000
0000
3100
0000
,
0001
0001
0001
0000
,
0002
0000
0103
0000
,
1000
1000
1000
0000
,
0020
0000
1030
0000
,
0100
0001
1000
0000
,
0000
0000
0000
0000
,
0000
0000
0000
0000
,
0000
0000
0010
0000
,
0010
0000
0010
0000
,
0010
0000
0100
0001
,
1000
0010
1000
0001
,
0100
0010
1000
0000
,
1000
0000
1000
0000
,
1000
0000
1000
0001
,
0001
0010
0100
0000
,
0000
0000
0001
0000
,
0001
0000
0001
0000
,
0001
0000
0001
0100
,
0010
1000
0010
0100
,
0001
1000
0100
0000
,
0100
0000
0100
0000
,
0100
0000
0100
1000
,
0010
0100
0001
0000
;

//---------------dance-single - ----------------
#NOTES:
     dance-single:
     :
     Beginner:
     1:
     0.100358,0.166968,0.000000,0.000000,0.000000,71.000000,71.000000,0.000000,0.000000,0.000000,0.000000,0.100358,0.166968,0.000000,0.000000,0.000000,71.000000,71.000000,0.000000,0.000000,0.000000,0.000000:
0000
0000
0000
0000
,
0000
0000
0000
0000
,
0000
0000
0000
0000
,
0000
0000
0000
0000
,
0000
1000
0000
0000
,
0000
1000
0000
0000
,
0000
0010
0000
0100
,
0000
0010
0000
0000
,
0000
0001
0000
0000
,
0000
0001
0000
0000
,
0000
0100
0000
0010
,
0000
0100
0000
0000
,
0000
0001
0001
0001
,
0001
0000
0000
0000
,
0000
1000
0000
0000
,
0000
0000
0000
0000
,
0000
0100
0100
0100
,
0100
0000
0000
0000
,
0000
0010
0000
0000
,
0000
0000
0000
0000
,
0000
0001
0000
0001
,
0000
0001
0000
0000
,
0000
1000
0000
0000
,
0000
0000
0000
0000
,
0000
1000
0000
1000
,
0000
1000
0000
0000
,
0000
0001
0000
0000
,
0000
0000
0000
0000
,
0010
0000
0000
0000
,
0000
0000
0000
0000
,
0100
0000
0000
0000
,
0000
0000
0000
0000
,
1000
0000
0000
0000
,
0000
0000
0000
0000
,
0001
0000
1000
0000
,
0001
0000
0000
0010
,
0010
0000
0000
0100
,
0100
0000
0000
1000
,
1000
0000
0000
0000
,
0000
0000
0000
0100
,
0100
0000
0000
0001
,
0001
0000
0000
1000
,
1000
0000
0001
0000
,
1000
0000
0000
0000
,
0010
0000
0000
0000
,
0000
0000
0000
0000
,
0100
0000
0000
0000
,
0000
0000
0000
0000
,
0001
0000
0000
0000
,
0000
0000
0000
0000
,
1000
0000
0000
0000
,
0000
0000
0000
0000
,
0000
0000
0010
0000
,
0000
0000
0000
0000
,
0000
0000
1000
0000
,
0000
0000
0000
0000
,
0000
0000
0001
0000
,
0000
0000
0000
0000
,
0000
0000
0100
0000
,
0010
0000
0100
0000
,
0000
0001
0001
0000
,
0000
1000
1000
0000
,
0000
0010
0010
0000
,
0000
0000
0000
0000
,
0000
0100
0100
0000
,
0000
0001
0001
0000
,
0000
1000
1000
0000
,
0000
0000
0001
0000
;
