#TITLE:You'll Find A Way;
#SUBTITLE:(Switch and Sinden Remix);
#ARTIST:Santigold;
#TITLETRANSLIT:;
#SUBTITLETRANSLIT:;
#ARTISTTRANSLIT:;
#GENRE:Dance;
#CREDIT:;
#BANNER:youllfindawayremix-bn.png;
#BACKGROUND:youllfindawayremix-bg.png;
#LYRICSPATH:;
#CDTITLE:;
#MUSIC:You'll Find A Way (Switch and Sinden Remix).ogg;
#OFFSET:-0.025000;
#SAMPLESTART:46.625000;
#SAMPLELENGTH:12.000000;
#SELECTABLE:YES;
#BPMS:0.000000=185.860001
;
#STOPS:
;
#BGCHANGES:;
#KEYSOUNDS:;
#ATTACKS:;

//---------------dance-single - ----------------
#NOTES:
     dance-single:
     :
     Challenge:
     8:
     0.603942,0.648443,0.339055,0.084764,0.000000,399.000000,367.000000,32.000000,8.000000,0.000000,0.000000,0.603942,0.648443,0.339055,0.084764,0.000000,399.000000,367.000000,32.000000,8.000000,0.000000,0.000000:
// measure 0
0000
0000
0000
0000
,  // measure 1
0000
0000
0000
0000
,  // measure 2
0000
0000
0000
0000
,  // measure 3
0000
0000
0010
0010
0010
0000
0010
0000
,  // measure 4
2010
0000
0000
0001
3010
0000
0000
0000
,  // measure 5
0001
1000
0010
0000
,  // measure 6
0012
0000
0000
1000
0013
0000
0000
0000
,  // measure 7
1000
0000
0100
0001
0010
0000
0000
0000
,  // measure 8
1020
0000
0000
0100
0031
0000
0000
0000
,  // measure 9
0200
0010
1000
0300
,  // measure 10
0021
0000
0000
0100
1030
0000
0000
0000
,  // measure 11
0010
0100
0001
0010
0100
1000
0010
0100
,  // measure 12
0101
0000
0000
0001
0011
0000
0100
1000
,  // measure 13
0100
1000
0000
0010
0000
0100
0001
0100
,  // measure 14
0101
0000
0000
1000
1100
0000
0000
0000
,  // measure 15
0010
0000
0001
0010
1000
0000
0100
0000
,  // measure 16
1100
0000
0000
0100
0101
0000
0001
0010
,  // measure 17
0001
0010
0000
0100
0000
1000
0010
1000
,  // measure 18
1010
0000
0000
0001
0011
0000
0000
0000
,  // measure 19
0001
0010
1000
0100
0010
0001
1000
0010
,  // measure 20
2001
0000
0000
0010
0010
0000
0100
0000
,  // measure 21
0001
0010
0100
3001
,  // measure 22
1001
0000
0000
0010
0100
0000
0001
0000
,  // measure 23
0001
0000
1000
0010
0100
0000
0011
0000
,  // measure 24
1002
0000
0000
0010
0010
0000
0100
0000
,  // measure 25
1000
0010
0100
1003
,  // measure 26
1001
0000
0000
0100
0010
0000
1000
0000
,  // measure 27
1000
0001
0100
1000
0100
0001
0100
0010
,  // measure 28
1000
0100
0000
1000
0100
0000
0000
0000
,  // measure 29
0001
0100
0000
0001
0100
0010
1000
0000
,  // measure 30
0100
0001
0000
0100
0001
0000
0000
0000
,  // measure 31
0010
0000
1000
0001
0010
0000
1100
0000
,  // measure 32
0010
1000
0000
0010
1000
0000
0000
0000
,  // measure 33
0001
0100
0000
0001
0100
0010
0001
0000
,  // measure 34
0010
1000
0000
0010
1000
0000
0000
0000
,  // measure 35
0100
1000
0010
0100
0001
0010
0100
1000
,  // measure 36
0010
0001
0000
0010
0001
0000
0000
0000
,  // measure 37
0010
1000
0000
0010
1000
0100
0001
0000
,  // measure 38
0100
1000
0000
0100
1000
0000
0000
0000
,  // measure 39
0010
0100
0000
0010
0100
1000
0001
0000
,  // measure 40
0010
1000
0000
0010
1000
0000
0000
0000
,  // measure 41
0001
0010
0000
0001
0010
0100
1000
0100
,  // measure 42
0010
0001
0010
0001
1000
0100
0010
0001
,  // measure 43
1000
0100
1000
0100
0001
0000
1010
0000
,  // measure 44
0001
0010
0001
0010
0001
0010
0001
0010
,  // measure 45
0100
0010
0100
0010
0100
0010
0100
0010
,  // measure 46
0100
1000
0100
1000
0100
1000
0100
1000
,  // measure 47
0100
1000
0100
1000
0100
1000
0100
1000
,  // measure 48
0010
1000
0010
1000
0010
1000
0010
1000
,  // measure 49
0001
0100
0001
0100
0001
0100
0001
0100
,  // measure 50
0010
0100
0010
0100
0010
0100
0010
0100
,  // measure 51
0010
0000
1000
0100
0001
0000
1010
0000
,  // measure 52
0010
1000
0010
1000
0010
1000
0010
1000
,  // measure 53
0001
0100
0001
0100
0001
0100
0001
0100
,  // measure 54
0010
1000
0100
0010
0001
0100
0010
1000
,  // measure 55
0100
0001
0100
1000
0010
0100
0001
1000
,  // measure 56
0010
0001
0010
0001
0010
0001
0010
0001
,  // measure 57
1000
0100
1000
0100
1000
0100
1000
0100
,  // measure 58
0010
0001
0010
1000
0100
0010
0001
0100
,  // measure 59
0001
0010
0100
0010
1000
0000
0011
0000
,  // measure 60
1100
0000
1000
0001
,  // measure 61
0010
0000
0001
1000
,  // measure 62
0010
0000
1000
0001
,  // measure 63
0010
0000
0001
1000
,  // measure 64
0110
0000
0000
0100
0101
0000
0000
0000
,  // measure 65
1010
0000
0010
1000
0001
0000
0000
0000
,  // measure 66
0110
0000
0000
1000
1001
0000
0010
0000
,  // measure 67
0101
0000
0010
0100
1000
0000
0000
0000
,  // measure 68
0011
0000
0000
0100
0101
0000
0000
0000
,  // measure 69
0020
1000
0031
0000
,  // measure 70
1100
0000
0000
0010
1010
0000
0001
0000
,  // measure 71
0100
0001
0010
1000
0100
0010
0001
0100
,  // measure 72
1000
0000
0000
0000
;
