#TITLE:Ye Ye;
#SUBTITLE:;
#ARTIST:Daphni;
#TITLETRANSLIT:;
#SUBTITLETRANSLIT:;
#ARTISTTRANSLIT:;
#GENRE:Downtempo;
#CREDIT:;
#BANNER:yeye-bn.png;
#BACKGROUND:yeye-bg.png;
#LYRICSPATH:;
#CDTITLE:;
#MUSIC:Ye Ye.ogg;
#OFFSET:-0.020000;
#SAMPLESTART:29.480000;
#SAMPLELENGTH:12.000000;
#SELECTABLE:YES;
#BPMS:0.000000=129.000000
;
#STOPS:
;
#BGCHANGES:;
#KEYSOUNDS:;
#ATTACKS:;

//---------------dance-single - ----------------
#NOTES:
     dance-single:
     :
     Hard:
     8:
     0.522077,0.562119,0.086328,0.115103,0.268575,381.000000,372.000000,9.000000,12.000000,0.000000,0.000000,0.522077,0.562119,0.086328,0.115103,0.268575,381.000000,372.000000,9.000000,12.000000,0.000000,0.000000:
// measure 0
0000
0000
0000
0000
,  // measure 1
0000
0000
0000
0000
,  // measure 2
0000
0000
0000
0000
,  // measure 3
0000
0000
0000
0000
0000
0000
0000
0120
,  // measure 4
0000
1000
0000
1030
0010
1000
0000
0001
,  // measure 5
0100
0001
0000
0001
0100
0010
0000
0210
,  // measure 6
0000
0010
0000
0301
1000
0001
0000
2100
,  // measure 7
0000
0010
0000
3010
0100
0010
0000
0102
,  // measure 8
0000
0010
0000
0013
0001
0000
1000
0000
,  // measure 9
0010
1000
0010
1000
0100
1000
0100
0010
0100
0010
0001
0010
,  // measure 10
0001
0100
0000
1001
0000
0010
0100
1000
,  // measure 11
0010
1000
0010
1000
0010
1000
0001
0010
,  // measure 12
0001
0100
0000
0000
0100
0000
0010
1000
0000
0000
1000
0000
0001
0000
0000
0000
,  // measure 13
0010
0100
0000
0000
0100
0000
1000
0010
0000
0000
0010
0000
0100
0000
0000
0000
,  // measure 14
0001
1000
0000
0000
1000
0000
0010
0100
0000
0000
0100
0000
0001
0000
0000
0000
,  // measure 15
0010
0001
0000
0000
0001
0000
1000
0100
0000
0000
0100
0000
1000
0000
0002
0000
,  // measure 16
0010
0013
0000
1000
0100
0001
0000
0100
,  // measure 17
1000
0010
0000
0100
0001
0010
0000
0002
,  // measure 18
1000
1003
0000
0010
1000
0100
0010
0200
,  // measure 19
0000
0310
0001
0010
0001
0010
0001
2000
,  // measure 20
0010
3010
0000
1000
0100
1000
0000
0010
,  // measure 21
0001
0100
0001
0100
0010
0100
0010
1000
0010
1000
0100
1000
,  // measure 22
0100
0010
0000
0100
1000
0001
0000
0020
,  // measure 23
0100
0130
0000
0010
0001
1000
0100
2000
,  // measure 24
0001
3001
0000
0100
1000
0100
0000
0001
,  // measure 25
0010
0100
0000
0010
0001
0000
0001
0200
,  // measure 26
0001
0301
0000
0100
0001
1000
0000
0200
,  // measure 27
1000
1300
0000
0010
0001
1000
0000
0001
,  // measure 28
1000
0100
0000
0000
1000
0000
0001
0010
0000
0000
0001
0000
0100
0000
0000
0000
,  // measure 29
0100
0001
0000
0000
0100
0000
0010
1000
0000
0000
0010
0000
1000
0000
0000
0000
,  // measure 30
0001
0100
0000
0000
0001
0000
1000
0100
0000
0000
1000
0000
0001
0000
0000
0000
,  // measure 31
0001
0100
0000
0000
0010
0000
1000
0100
0000
0000
0001
0000
1000
0000
0100
0000
,  // measure 32
1000
0100
1000
0100
1000
0100
1000
0100
,  // measure 33
1000
0010
0000
0100
0001
0010
0000
1001
,  // measure 34
0001
1000
0010
1000
0010
0100
0000
0110
,  // measure 35
0100
0001
0000
0010
0100
1000
0000
0011
,  // measure 36
0001
1000
0000
0010
1000
0010
0100
0000
,  // measure 37
0010
1000
0010
1000
0100
1000
0100
0010
0100
0010
0001
0010
,  // measure 38
0001
0010
0001
1000
0010
0100
0000
1010
,  // measure 39
1000
0100
0000
0001
0100
0001
0000
0010
,  // measure 40
0100
0010
0000
0000
0001
0000
1000
0100
0000
0000
0010
0000
0100
0000
1000
0000
,  // measure 41
0010
1000
0000
0000
0100
0000
0010
0001
0000
0000
0100
0000
0010
0000
1000
0000
,  // measure 42
0001
1000
0000
0000
0100
0000
0010
0100
0000
0000
0010
0000
0100
0000
0001
0000
,  // measure 43
0010
0001
0010
0001
0010
0001
0010
0001
,  // measure 44
0100
0001
0000
0000
1000
0000
0001
0100
0000
0000
0010
0000
0100
0000
0010
0000
,  // measure 45
0100
1000
0000
0000
0100
0000
0010
0001
0000
0000
1000
0000
0100
0000
0001
0000
,  // measure 46
0100
1000
0000
0000
0010
0000
0100
0001
0000
0000
1000
0000
0010
0000
0100
0000
,  // measure 47
0001
0100
0001
0100
0001
0100
0001
0100
,  // measure 48
0001
0100
0001
0100
0001
0100
0001
0100
,  // measure 49
0001
0010
0000
0000
0100
0000
1000
0000
0010
0000
0100
0000
0001
0000
0000
0000
,  // measure 50
0010
0100
0001
0100
0001
0010
0100
0010
,  // measure 51
0000
0001
1000
0001
0000
1000
0100
1000
,  // measure 52
0010
0000
0100
0010
0000
0000
1000
0000
0001
1000
0000
0000
1000
0000
0010
0000
,  // measure 53
0100
0010
0100
0010
0100
0010
1000
0100
,  // measure 54
0010
0001
0000
0100
1000
0100
0000
0001
,  // measure 55
0010
0000
0100
0000
0010
0000
0001
0000
1000
0000
0100
0000
0001
0100
0000
0000
;

//---------------dance-single - ----------------
#NOTES:
     dance-single:
     :
     Medium:
     5:
     0.363124,0.481277,0.326127,0.393270,0.000000,265.000000,231.000000,34.000000,41.000000,0.000000,0.000000,0.363124,0.481277,0.326127,0.393270,0.000000,265.000000,231.000000,34.000000,41.000000,0.000000,0.000000:
0000
0000
0000
0000
,
0000
0000
0000
0000
,
0000
0000
0000
0000
,
0000
0000
0000
0000
0000
0000
0000
0020
,
0000
1000
0000
0100
0000
0100
0000
1000
,
0000
0001
0000
0100
0000
0130
0000
0020
,
0000
2000
3000
0001
0000
1030
0000
0020
,
0000
0001
0000
1000
0000
0031
0000
0020
,
0000
0200
0300
0200
0300
1000
0000
0031
,
0000
2002
0000
0000
0000
0000
0000
3003
,
0000
0100
0010
0100
0000
0001
0000
1100
,
0000
1100
0000
1100
0000
1100
0000
1000
,
0100
0010
0002
0000
0100
0000
1003
0000
,
0001
0010
0200
0000
1000
0000
0310
0000
,
0100
1000
0020
0000
0100
0000
0031
0000
,
0100
0010
2000
0000
0001
0000
3010
0002
,
0000
1000
0000
0100
0000
0010
0000
0010
,
0000
0100
0000
1000
0000
1003
0000
0002
,
0000
0100
0000
0010
0000
0203
0300
0002
,
0000
2000
3000
2000
3000
2003
3000
2002
,
3000
0010
0000
1000
0000
0100
0000
0013
,
0000
2002
0000
0000
0000
0000
0000
3003
,
0000
0100
0000
0001
0000
1000
0010
0200
,
0000
0001
0000
0320
0000
1000
0000
0230
,
0000
0001
0000
1000
0000
0010
0000
0010
,
0000
1000
0000
0001
0000
0310
0000
0200
,
0000
0001
0000
1000
0000
0310
0000
0200
,
0000
1000
0000
0010
0000
0301
0000
0100
,
0000
1010
0000
1010
0000
1010
0000
1010
,
0000
1000
0001
0100
0010
0000
1000
0001
,
1000
0100
0010
0001
0100
0000
0010
1000
,
0001
0010
0100
1000
0001
0000
0100
2000
,
0000
0020
0030
0020
0030
0020
0030
0020
,
0030
0001
0000
0100
0000
3010
0000
2000
,
0000
0002
0003
0002
0003
3100
0000
2000
,
0000
0010
0000
0001
0000
3100
0000
2000
,
0000
0010
0000
0100
0000
3001
0000
1000
,
0000
0022
0000
0000
0000
0000
0000
0033
,
0000
0001
1000
0010
0000
1000
0000
0110
,
0000
1000
0000
0100
0010
0001
0000
0100
,
0000
1001
0000
1001
0000
0010
0100
1000
,
0000
0010
0000
0100
0000
0001
0010
0001
,
0000
1000
0000
0100
0000
0010
0000
1100
,
0000
1100
0000
1100
0000
1100
0000
0001
,
0100
0010
1000
0001
0100
0000
0010
1000
,
0100
0010
0100
0010
0001
0000
0100
0001
,
1000
0010
1000
0100
0010
0000
0000
0110
,
0000
0110
0000
0110
0000
0110
0000
0110
,
0000
0110
0000
0110
0000
0110
0000
0110
,
0000
0010
1000
0001
0000
0100
0001
1000
,
0000
0011
0000
0011
0000
0001
1000
0100
,
0000
0010
0000
0100
0000
1000
0100
0010
,
0000
0001
0000
0100
0000
0001
0000
1001
,
0000
1001
0000
1001
0000
1001
0000
0010
,
0000
1000
0000
0100
0000
1000
0000
0001
,
0000
0100
0000
0010
0000
0100
0001
0000
;

//---------------dance-single - ----------------
#NOTES:
     dance-single:
     :
     Easy:
     2:
     0.134287,0.240638,0.047960,0.297351,0.000000,98.000000,93.000000,5.000000,31.000000,0.000000,0.000000,0.134287,0.240638,0.047960,0.297351,0.000000,98.000000,93.000000,5.000000,31.000000,0.000000,0.000000:
0000
0000
0000
0000
,
0000
0000
0000
0000
,
0000
0000
0000
0000
,
0000
0000
0000
0000
0000
0000
0000
0020
,
0000
0000
0000
0000
0000
0000
0000
0030
,
0000
0000
0000
0000
0000
0000
0000
2000
,
0000
0001
0000
0000
0000
3000
0000
0002
,
0000
0000
0000
0000
0000
0003
0000
0200
,
0000
0010
0000
0010
0000
0300
0000
0000
,
0000
2002
0000
0000
0000
0000
0000
3003
,
0000
0000
0000
0000
0000
0000
0000
0010
,
0000
1000
0000
0001
0000
1000
0000
0000
,
0001
0100
0000
0000
,
0001
0010
0000
0000
,
1000
0010
0000
0000
,
1000
0000
0100
0000
0000
0000
0000
2000
,
0000
0000
0000
0000
0000
3000
0000
0000
,
0000
0000
0000
0000
0000
0000
0000
0020
,
0000
0000
0000
0000
0000
0130
0000
0200
,
0000
0001
0000
0001
0000
0301
0000
0002
,
0000
0000
0000
0000
0000
0003
0000
0000
,
0000
2002
0000
0000
0000
0000
0000
3003
,
0000
0000
0000
0000
0000
0000
0000
0020
,
0000
0000
0000
2000
0000
3030
0000
0200
,
0000
0000
0000
0000
0000
0300
0000
0000
,
0000
0000
0000
0000
0000
0000
0000
2000
,
0000
0000
0000
0000
0000
3000
0000
0002
,
0000
0000
0000
0000
0000
0003
0000
0020
,
0000
0100
0000
0100
0000
0100
0000
0130
,
0000
0000
0000
0000
,
0001
1000
0000
0000
,
0010
0000
0100
0000
0000
0000
0000
0002
,
0000
1000
0000
1000
0000
1000
0000
1003
,
0000
0000
0000
0000
0000
0000
0000
0200
,
0000
0010
0000
0010
0000
0300
0000
0020
,
0000
0000
0000
0000
0000
0030
0000
2000
,
0000
0000
0000
0000
0000
3000
0000
0000
,
0000
2002
0000
0000
0000
0000
0000
3003
,
0000
0000
0000
0000
0000
0000
0000
0200
,
0000
0000
0000
0002
0000
0303
0000
2000
,
0000
0001
0000
0001
0000
3000
0000
0000
,
0000
0000
0000
0000
0000
0000
0000
0020
,
0000
0000
0000
0000
0000
0030
0000
0200
,
0000
0001
0000
0001
0000
0301
0000
0002
,
0000
0000
0000
0000
0000
0003
0000
0000
,
0000
0000
0000
0000
0000
0000
0000
2000
,
0000
0000
0000
0000
0000
3000
0000
0010
,
0000
0100
0000
0001
0000
1000
0000
0010
,
0000
1000
0000
0001
0000
0100
0000
0001
,
0000
0000
0000
0000
,
0000
1001
0000
1001
0000
0000
0000
0000
,
0000
0000
0100
0010
,
1000
0000
0001
0000
0000
0000
0000
0100
,
0000
0010
0000
1000
0000
0001
0000
0000
,
1000
0100
1000
0010
,
0100
0001
0010
0100
;

//---------------dance-single - ----------------
#NOTES:
     dance-single:
     :
     Beginner:
     1:
     0.058922,0.133688,0.000000,0.000000,0.000000,43.000000,43.000000,0.000000,0.000000,0.000000,0.000000,0.058922,0.133688,0.000000,0.000000,0.000000,43.000000,43.000000,0.000000,0.000000,0.000000,0.000000:
0000
0000
0000
0000
,
0000
0000
0000
0000
,
0000
0000
0000
0000
,
0000
0000
0000
0000
,
1000
0000
0000
0000
,
0000
0000
0000
0000
,
0001
0000
0000
0000
,
0100
0000
0000
0000
,
0010
0000
0000
0000
,
0000
0001
0000
0000
,
0000
0000
0000
0000
,
0000
0000
0000
0000
,
0001
0000
0001
0000
,
1000
0000
1000
0000
,
0010
0000
0010
0000
,
0100
0000
0100
0000
,
0010
0000
0000
0000
,
0000
0000
0000
0000
,
1000
0000
0000
0000
,
0001
0000
0000
0000
,
0100
0000
0000
0000
,
0000
0010
0000
0000
,
0000
0000
0000
0000
,
0000
0000
0000
0000
,
0010
0000
0000
0000
,
0000
0000
0000
0000
,
1000
0000
0000
0000
,
0001
0000
0000
0000
,
0010
0000
0000
0000
,
0000
0000
0000
0000
,
0000
0000
0000
0000
,
0000
0000
0000
0000
,
0100
0000
0000
0000
,
0000
0000
0000
0000
,
1000
0000
0000
0000
,
0010
0000
0000
0000
,
0100
0000
0000
0000
,
0000
0001
0000
0000
,
0000
0000
0000
0000
,
0010
0000
0000
0000
,
1000
0000
0000
0000
,
0000
0000
0000
0000
,
0001
0000
0000
0000
,
0010
0000
0000
0000
,
0100
0000
0000
0000
,
0000
0000
0000
0000
,
1000
0000
0000
0000
,
0010
0000
0000
0000
,
0000
0000
0000
0000
,
0010
0000
0010
0000
,
1000
0000
1000
0000
,
0001
0000
0000
0000
,
0100
0000
0000
0000
,
0000
0000
0000
0000
,
0001
0000
0000
0000
,
1000
0000
0000
0010
;
