#TITLE:やれよ。;
#SUBTITLE:;
#ARTIST:Charisma.com;
#TITLETRANSLIT:Yare yo.;
#SUBTITLETRANSLIT:;
#ARTISTTRANSLIT:;
#GENRE:Hip Hop;
#CREDIT:;
#BANNER:yareyo-bn.png;
#BACKGROUND:yareyo-bg.png;
#LYRICSPATH:;
#CDTITLE:;
#MUSIC:やれよ。.ogg;
#OFFSET:-0.342000;
#SAMPLESTART:7.854000;
#SAMPLELENGTH:12.000000;
#SELECTABLE:YES;
#BPMS:0.000000=123.000000
;
#STOPS:
;
#BGCHANGES:;
#KEYSOUNDS:;
#ATTACKS:;

//---------------dance-single - ----------------
#NOTES:
     dance-single:
     :
     Hard:
     7:
     0.441075,0.475054,0.235924,0.071803,0.225666,301.000000,278.000000,23.000000,7.000000,0.000000,0.000000,0.441075,0.475054,0.235924,0.071803,0.225666,301.000000,278.000000,23.000000,7.000000,0.000000,0.000000:
// measure 0
0000
0000
0000
0000
,  // measure 1
0000
0000
0000
0000
,  // measure 2
0000
0000
0000
0000
,  // measure 3
2001
0000
0000
0000
0000
0000
3100
1000
,  // measure 4
0100
0010
0001
1000
0100
0010
0001
0000
,  // measure 5
1010
0000
0000
0000
0101
0000
0000
0000
0001
0010
0001
0010
0001
0000
1000
0000
,  // measure 6
0010
0100
0001
1000
0010
0100
0001
0000
,  // measure 7
0101
0000
0000
0000
1010
0000
0000
0000
1000
0100
1000
0100
1000
0000
0001
0000
,  // measure 8
0010
0100
1000
0001
0010
0100
1000
0000
,  // measure 9
0110
0000
0000
0000
0101
0000
0000
0000
1000
0010
1000
0010
1000
0000
0001
0000
,  // measure 10
1000
0010
0100
0001
1000
0010
0100
0000
,  // measure 11
1010
0000
0000
0000
0011
0000
0000
0000
1000
0001
1000
0001
2000
0000
0000
0000
,  // measure 12
3010
1000
0100
0000
0100
1000
0010
0000
,  // measure 13
0100
0001
0010
0000
0010
0001
0100
0000
,  // measure 14
0001
0000
0010
0000
0100
0010
1000
0000
,  // measure 15
0010
0000
1000
0000
0100
0010
0001
0000
,  // measure 16
0010
1000
0010
0100
0001
0000
1000
0000
,  // measure 17
0100
0001
0010
0001
1000
0000
0001
0000
,  // measure 18
0010
1000
0001
0000
0001
1000
0010
0000
,  // measure 19
0100
1000
0010
0000
0010
1000
0100
0000
,  // measure 20
0010
0000
0001
0010
0000
0000
0000
0000
0001
0000
1000
0001
0000
0000
0000
0000
,  // measure 21
1000
0000
0100
1000
0000
0000
0000
0000
0010
0000
1000
0010
0000
0000
0000
0000
,  // measure 22
0100
0001
0100
0010
1000
0010
0100
0000
,  // measure 23
1000
0100
0010
0100
0001
0100
1000
0000
,  // measure 24
0100
0000
1000
0100
0000
0000
0000
0000
1000
0000
0001
1000
0000
0000
0000
0000
,  // measure 25
0001
0000
0100
0001
0000
0000
0000
0000
0010
0000
0100
0010
0000
0000
0000
0000
,  // measure 26
0001
1000
0000
1000
0001
0000
0000
0000
0100
0000
0010
0000
1000
0000
0000
0000
,  // measure 27
0101
0000
0000
1000
0000
0000
0001
0000
0000
0000
0000
0000
0000
0000
0100
0000
,  // measure 28
0010
1000
0001
0100
0010
1000
0001
0000
,  // measure 29
1010
0000
0000
0000
1001
0000
0000
0000
0010
1000
0010
1000
0010
0000
0100
0000
,  // measure 30
0001
1000
0010
0100
0001
1000
0010
0000
,  // measure 31
1100
0000
0000
0000
0011
0000
0000
0000
1000
0010
1000
0010
1000
0000
0010
0000
,  // measure 32
0100
0001
1000
0010
0100
0001
1000
0000
,  // measure 33
0011
0000
0000
0000
0101
0000
0000
0000
1000
0001
1000
0001
1000
0000
0010
0000
,  // measure 34
1000
0001
0100
0010
1000
0001
0100
0000
,  // measure 35
0011
0000
0000
0000
1100
0000
0000
0000
0010
1000
0010
1000
0010
0000
0000
0000
,  // measure 36
0101
0000
0000
0001
0000
0000
1000
0000
0001
0000
0000
0010
0000
0000
0000
0000
,  // measure 37
0200
0000
0000
1300
0010
0000
0000
0000
,  // measure 38
1010
0000
0000
0010
0000
0000
1000
0000
0001
0000
0000
0100
0000
0000
0000
0000
,  // measure 39
0002
0000
0000
0013
1000
0000
0000
0000
,  // measure 40
0110
0000
0000
0001
0000
0000
1000
0000
0100
0000
0000
1000
0000
0000
0000
0000
,  // measure 41
0020
0000
0000
0130
0001
0000
0000
0000
,  // measure 42
0101
0000
0000
0010
0000
0000
1000
0000
0100
0000
0000
1000
0000
0000
0001
0000
,  // measure 43
0010
0000
0000
0010
0000
0000
0010
0000
0000
0000
0000
0000
0000
0000
0000
0000
,  // measure 44
0010
0000
0000
1000
0100
0000
1000
0000
0001
0000
0000
0010
0100
0000
0010
0000
,  // measure 45
0001
0000
0000
1000
0010
0000
1000
0000
0001
0000
0000
0100
0010
0000
1000
0000
,  // measure 46
0010
0000
0000
0100
0001
0000
0010
0000
0001
0000
0000
0010
0100
0000
0010
0000
,  // measure 47
0001
0000
0000
1000
0000
0000
0001
0000
0000
1000
0000
0000
0220
0000
0000
0000
,  // measure 48
0000
0000
0000
0330
;

//---------------dance-single - ----------------
#NOTES:
     dance-single:
     :
     Challenge:
     8:
     0.511413,0.500056,0.287212,0.092318,0.317985,349.000000,321.000000,28.000000,9.000000,0.000000,0.000000,0.511413,0.500056,0.287212,0.092318,0.317985,349.000000,321.000000,28.000000,9.000000,0.000000,0.000000:
0000
0000
0000
0000
,
0000
0000
0000
0000
,
0000
0000
0000
0000
,
2002
0000
0000
0000
0000
0000
0000
0000
3003
0000
0000
0000
0010
0000
0100
0010
,
0100
0000
0001
0000
1000
0000
0100
0010
0100
0000
1000
0000
0001
0000
0000
0000
,
1000
0000
0000
0000
1100
0000
0000
0000
0001
0100
0001
0000
0100
0000
0001
0010
,
0001
0000
0100
0000
0010
0000
1000
0100
1000
0000
0010
0000
0100
0000
0000
0000
,
0010
0000
0000
0000
1100
0000
0000
0000
0010
0100
0010
0000
0100
0000
0010
1000
,
0010
0000
0100
0000
0001
0000
0010
0001
0010
0000
0100
0000
1000
0000
0000
0000
,
0001
0000
0000
0000
1010
0000
0000
0000
0100
0001
0100
0000
0010
0000
1000
0100
,
1000
0000
0001
0000
0010
0000
0001
0100
0001
0000
1000
0000
0010
0000
0000
0000
,
0001
0000
0000
0000
1001
0000
0000
0000
0001
1000
0001
1000
0001
0000
0000
0000
,
0100
0010
0000
0100
0010
0000
0000
0000
1000
0010
0000
1000
0010
0000
0000
0000
,
0100
0001
0010
0000
0100
1000
0001
0001
,
0010
0001
0010
0000
0100
0010
1000
1000
,
0010
0100
0001
0000
0100
0010
0100
0001
,
0010
0001
0101
0000
0010
1000
0110
0000
,
0100
0001
1000
0010
1000
0100
0010
0001
,
0100
0001
0100
0000
0010
1000
0100
0100
,
0010
0100
1000
0000
0010
0100
0001
0010
,
0001
0000
0100
0001
0000
0000
0100
0000
0010
0000
0100
0010
0000
0000
0100
0000
,
0010
0000
1000
0010
0000
0000
1000
0000
0100
0000
1000
0100
0000
0000
0010
0000
,
0001
0001
0100
0010
0001
0001
0010
1000
,
0010
0100
0010
0100
0001
1000
0010
0000
,
0010
0000
1000
0010
0000
0000
1000
0000
0100
0000
1000
0100
0000
0000
0010
0000
,
0100
0000
0010
0100
0000
0000
0010
0000
0001
0000
0010
0001
0000
0000
0100
0000
,
0001
0010
0000
0001
0010
0000
0000
0000
0100
1000
0000
0100
1000
0000
0000
0000
,
1000
0000
0000
0001
0000
0000
0101
0000
0000
0000
0000
0000
0100
0010
0100
0010
,
0100
0000
0010
0000
1000
0000
0010
0100
0010
0000
0100
0000
0001
0000
1000
0000
,
0001
0000
0000
0000
0110
0000
0000
0000
0001
0010
0001
0000
1000
0000
0100
0010
,
0100
0000
1000
0000
0010
0000
0100
0001
0100
0000
0001
0000
1000
0000
0000
0000
,
0100
0000
0000
0000
0011
0000
0000
0000
0100
1000
0100
0000
1000
0000
0001
0010
,
0001
0000
1000
0000
0100
0000
1000
0001
1000
0000
0010
0000
0100
0000
0000
0000
,
0101
0000
0000
0000
1100
0000
0000
0000
0010
0100
0010
0000
1000
0000
0010
1000
,
0010
0000
0100
0000
0001
0000
1000
0100
1000
0000
0010
0000
0100
0000
0000
0000
,
0011
0000
0000
0000
1010
0000
0000
0000
0001
1000
0001
1000
0001
0000
0000
0000
,
0110
0000
0000
0101
0000
0000
0010
0000
0100
0000
0000
1010
0000
0000
1000
0000
,
0200
0000
0000
0310
0002
0000
0000
0103
,
0101
0000
0000
1001
0000
0000
0010
0000
1000
0000
0000
1100
0000
0000
1000
0000
,
0002
0000
0000
0103
0020
0000
0000
1030
,
1100
0000
0000
0110
0000
0000
0001
0000
0100
0000
0000
0110
0000
0000
0010
0000
,
2000
0000
0000
3001
0020
0000
0000
0031
,
0011
0000
0000
1001
0000
0000
1000
0000
0100
0000
0000
0011
0000
0000
0000
0000
,
0100
0000
0000
0001
0000
0000
0010
0000
0100
0000
0100
1000
0100
0000
0000
0000
,
1000
0000
0000
0100
1000
0000
0010
0000
0100
0000
0000
0001
0010
0000
0100
0000
,
0010
0000
0000
0001
1000
0000
0100
0000
0010
0000
0000
0100
1000
0000
0010
0000
,
0100
0000
0000
0010
1000
0000
0001
0000
0100
0000
0000
0010
0100
0000
0001
0000
,
0010
0000
0000
1001
0000
0000
0100
0000
0000
1100
0000
0000
0020
0000
0000
0000
,
0000
0000
0000
0030
;

//---------------dance-single - ----------------
#NOTES:
     dance-single:
     :
     Medium:
     5:
     0.298935,0.350040,0.041030,0.287212,0.000000,204.000000,200.000000,4.000000,28.000000,0.000000,0.000000,0.298935,0.350040,0.041030,0.287212,0.000000,204.000000,200.000000,4.000000,28.000000,0.000000,0.000000:
0000
0000
0000
0000
,
0000
0000
0000
0000
,
0000
0000
0000
0000
,
0200
0000
0000
0310
,
1000
0100
1000
0000
1000
0010
1000
0000
,
0001
0000
0001
0000
1000
0010
1000
0000
,
0001
0100
0001
0000
0001
0010
0001
0000
,
0100
0000
0100
0000
0001
0010
0001
0000
,
0100
0010
0100
0000
0100
0001
0100
0000
,
0001
0000
0001
0000
0100
0010
0100
0000
,
0010
0100
0010
0000
0010
1000
0010
0000
,
0001
0000
0001
0000
0010
1000
0010
0000
,
1000
0000
0100
0001
,
0010
0000
0000
0000
0100
0000
1000
0001
,
0000
0000
0001
0000
0010
0000
0100
0010
,
0000
0000
0010
0000
0001
0000
1000
1000
,
0010
0000
0010
0000
1000
0001
1000
0000
,
0010
0000
0010
0000
0001
1000
0001
0000
,
0100
0000
0100
0000
0010
1000
0010
0000
,
0100
0000
0100
0000
0001
0010
0001
0000
,
2000
0200
3000
0320
0000
0032
0000
0003
,
0002
0200
0003
0320
0000
2030
0000
3000
,
0010
1000
0010
0100
0010
0000
1001
0000
,
0100
0001
0100
0001
0100
0000
0010
0000
,
0200
0020
0300
2030
0000
3002
0000
0003
,
0020
0200
0030
0302
0000
2003
0000
3000
,
0010
1000
0001
0000
0100
0001
0010
0000
,
0102
0000
1000
1003
,
0001
0010
0001
0000
0001
0100
0001
0000
,
1000
0000
1000
0000
0001
0100
0001
0000
,
0100
0010
0100
0000
0100
0001
0100
0000
,
0010
0000
0010
0000
0100
0001
0100
0000
,
1000
0010
1000
0000
1000
0100
1000
0000
,
0010
0000
0010
0000
1000
0100
1000
0000
,
0010
0100
0010
0000
0010
1000
0010
0000
,
1000
0000
1000
0000
0010
1000
0010
0100
,
0200
0000
0302
0000
,
1003
0001
0100
0010
0000
0000
0000
0000
,
0020
0000
2030
0000
,
3001
0010
0100
0010
0000
0000
0000
0000
,
0200
0000
0302
0000
,
1003
0100
0010
0001
0000
0000
0000
0000
,
0002
0000
2000
3003
,
0110
0000
1000
0100
,
0001
0000
0100
1000
0100
0000
0000
0000
,
1000
0000
0010
0001
0010
0000
0000
0000
,
1000
0000
0100
0010
1000
0000
0000
0000
,
1020
0000
0000
0032
,
0000
0000
0000
0003
;

//---------------dance-single - ----------------
#NOTES:
     dance-single:
     :
     Easy:
     2:
     0.127487,0.220409,0.051288,0.133348,0.000000,87.000000,82.000000,5.000000,13.000000,0.000000,0.000000,0.127487,0.220409,0.051288,0.133348,0.000000,87.000000,82.000000,5.000000,13.000000,0.000000,0.000000:
0000
0000
0000
0000
,
0000
0000
0000
0000
,
0000
0000
0000
0000
,
2002
0000
0000
3003
,
0010
1000
0000
0000
,
1000
0100
0000
0000
,
0100
0001
0000
0000
,
0010
0001
0000
0000
,
0010
1000
0000
0000
,
0001
0100
0000
0000
,
0010
0100
0000
0000
,
1001
0110
1001
0000
,
0010
0000
0100
0000
,
0001
0000
0000
0000
,
1000
0000
0010
0000
,
0001
0000
0000
0000
,
0100
0100
0000
0000
,
0010
0000
0000
0000
,
0001
0000
1000
0000
,
0100
0000
0010
0000
,
2000
0000
0000
3000
,
0002
0000
0000
0003
,
0100
0000
0000
0000
,
0010
0010
0010
0000
,
0200
0000
0000
0300
,
0020
0000
0000
0030
,
1000
0000
0000
0000
,
0001
0100
0010
0000
,
1000
0100
0000
0000
,
0010
0001
1000
0000
,
0100
0001
0000
0000
,
1000
0010
0001
0000
,
0100
0001
0000
0000
,
1000
0001
0010
0000
,
0100
1000
0000
0000
,
0010
0001
0100
0000
,
0002
0000
1003
0000
,
0000
0000
0000
0000
,
0200
0000
0301
0000
,
0000
0000
0000
0000
,
0020
0000
1030
0000
,
0000
0000
0000
0000
,
2000
0000
3100
0000
,
0002
0000
0003
0000
,
1000
0100
0001
0000
,
0100
0001
1000
0000
,
0010
0100
1000
0000
,
2020
0000
0000
3030
;

//---------------dance-single - ----------------
#NOTES:
     dance-single:
     :
     Beginner:
     1:
     0.073268,0.122450,0.010258,0.061545,0.000000,50.000000,49.000000,1.000000,6.000000,0.000000,0.000000,0.073268,0.122450,0.010258,0.061545,0.000000,50.000000,49.000000,1.000000,6.000000,0.000000,0.000000:
0000
0000
0000
0000
,
0000
0000
0000
0000
,
0000
0000
0000
0000
,
0002
0000
0000
0003
,
0001
0000
0000
0000
,
0000
0000
0100
0000
,
1000
0000
0000
0000
,
0000
0000
0010
0000
,
0001
0000
0000
0000
,
0000
0000
0010
0000
,
0100
0000
0000
0000
,
0000
0000
0001
0001
,
0001
0000
0000
1000
,
0000
0010
0000
0000
,
0000
0100
0000
0010
,
0000
0100
0000
0001
,
0001
0000
0000
0000
,
1000
0000
0000
0000
,
0000
0010
0000
0000
,
0000
1000
0000
0000
,
0001
0000
0000
0000
,
0000
0000
0000
0000
,
0100
0000
0000
0000
,
0010
0010
0000
0000
,
1000
0000
0000
0000
,
0000
0000
0000
0000
,
0010
0000
0000
0000
,
1001
0000
0000
0000
,
0100
0000
0000
0000
,
0000
0000
0001
0000
,
0010
0000
0000
0000
,
0000
0000
1000
0000
,
0010
0000
0000
0000
,
0000
0000
0100
0000
,
0001
0000
0000
0000
,
0000
0000
0010
0010
,
0020
0000
0000
0030
,
0000
0000
0000
0000
,
0002
0000
0000
0003
,
0000
0000
0000
0000
,
2000
0000
0000
3000
,
0000
0000
0000
0000
,
0200
0000
0000
0300
,
0000
0000
0001
0000
,
1000
0000
0010
0000
,
0001
0000
0100
0000
,
1000
0000
0001
0000
,
0200
0000
0000
0300
;

//---------------dance-double - ----------------
#NOTES:
     dance-double:
     :
     Easy:
     2:
     0.158260,0.220409,0.092318,0.348757,0.000000,108.000000,99.000000,9.000000,34.000000,0.000000,0.000000,0.158260,0.220409,0.092318,0.348757,0.000000,108.000000,99.000000,9.000000,34.000000,0.000000,0.000000:
00000000
00000000
00000000
00000000
,
00000000
00000000
00000000
00000000
,
00000000
00000000
00000000
00000000
,
00022000
00000000
00000000
00033000
,
00010000
00001000
00000000
00000000
,
00010000
00000100
00000000
00000000
,
00010000
00000010
00000000
00000000
,
00010000
00010000
00001000
00001000
,
00001000
00010000
00000000
00000000
,
00001000
00100000
00000000
00000000
,
00001000
01000000
00000000
00000000
,
00100000
10000000
00010000
00000000
,
00100000
00000000
00001000
00000000
,
00010000
00010000
00000000
00000000
,
00000100
00000000
00000010
00000000
,
00000001
00000001
00000000
00000000
,
00001000
00000000
00000100
00000000
,
00010000
00010000
00000000
00000000
,
00001000
00000000
00100000
00000000
,
00010000
00010000
00000000
00000000
,
20000000
32000000
03200000
00320000
,
20030000
32000000
03200000
00320000
,
00130000
00000000
00001000
00000000
,
00010000
00010000
00000100
00000100
,
00002000
00003200
00000320
00000032
,
00002003
00003200
00000320
00000032
,
00000103
00000000
00000010
00000000
,
00001000
00001000
00001000
00000000
,
00000100
00000010
00000000
00000000
,
00000100
00001000
00000000
00000000
,
00000100
00010000
00000000
00000000
,
00001000
00001000
00000000
00000000
,
00100000
00001000
00000000
00000000
,
00100000
00010000
00000000
00000000
,
00100000
01000000
00000000
00000000
,
00010000
00010000
00000000
00000000
,
20020000
30030000
02200000
03300000
,
00000000
00000000
00000000
00000000
,
00022000
00033000
00022000
00033000
,
00000000
00000000
00000000
00000000
,
00002002
00003003
00000220
00000330
,
00000000
00000000
00000000
00000000
,
00022000
00033000
00022000
00033000
,
00000000
00000000
00010000
00001000
,
00010000
00000000
00000100
00000000
,
00001000
00000000
00000010
00000000
,
00010000
00000000
00001000
00000000
,
01000000
00010000
00100000
01000000
;

//---------------dance-double - ----------------
#NOTES:
     dance-double:
     :
     Medium:
     5:
     0.339965,0.367349,0.246182,0.112833,0.000000,232.000000,208.000000,24.000000,11.000000,0.000000,0.000000,0.339965,0.367349,0.246182,0.112833,0.000000,232.000000,208.000000,24.000000,11.000000,0.000000,0.000000:
00000000
00000000
00000000
00000000
,
00000000
00000000
00000000
00000000
,
00000000
00000000
00000000
00000000
,
00220000
00000000
00330000
00011000
,
00010000
00000100
00001000
00000000
00001000
00000100
00010000
00000000
,
00000010
00000000
00000010
00000000
00000100
00000010
00000100
00000000
,
00000001
00001000
00000100
00000000
00000100
00001000
00000001
00000000
,
00001000
00000000
00001000
00000000
00000100
00010000
00000100
00000000
,
00010000
00001000
00100000
00000000
00100000
00001000
00010000
00000000
,
00001000
00000000
00001000
00000000
01000000
00010000
01000000
00000000
,
00100000
10000000
00010000
00000000
00010000
10000000
00100000
00000000
,
01000000
00100000
10010000
01100000
,
01000000
00000000
00001000
00000000
01000000
00100000
01000000
00000000
,
00001000
00000000
00010000
00000000
00001000
00100000
00001000
00000000
,
00010000
00000000
00000100
00000000
00001000
00000010
00000100
00000000
,
00000001
00000000
00001000
00000000
00000010
00000100
00000010
00000100
,
00000010
00001000
00001100
00001100
,
00000100
00010000
00000100
00000000
00010000
00001000
00010000
00001000
,
00010000
00001000
00101000
00101000
,
00100000
00000000
00010000
00000000
01000000
00010000
01000000
00010000
,
01000000
00100000
10010000
10010000
,
00100000
01000000
10010000
10010000
,
10000000
01000000
00100000
00010000
01000000
00000000
01000000
00000000
,
00001000
00010000
00001000
00010000
00001000
00000000
00010000
00000000
,
00000010
00000100
00001001
00001001
,
00000010
00000100
00001001
00001001
,
00000010
00001000
00000010
00001000
,
00000100
00010000
00001000
00011000
,
00001000
00100000
00010000
00000000
00010000
00100000
00001000
00000000
,
01000000
00000000
00010000
00000000
01000000
00100000
01000000
00000000
,
00100000
10000000
00010000
00000000
00010000
10000000
00100000
00000000
,
01000000
00000000
00001000
00000000
00010000
00001000
00010000
00000000
,
00000100
00010000
00001000
00000000
00001000
00010000
00000100
00000000
,
00001000
00000000
00000010
00000000
00000100
00000001
00000100
00000000
,
00000010
00010000
00001000
00000000
00001000
00010000
00000010
00000000
,
00001000
00000100
00001100
00010100
,
00001000
00100000
00001000
00101000
,
00020000
00000000
02030000
00000000
,
03100000
10000000
00100000
01100000
,
02000000
00000000
03020000
00000000
,
00130000
00001000
00100000
00101000
,
00020000
00000000
00030200
00000000
,
00001300
00000010
00001000
00001010
,
00000200
00000000
00000301
00000000
,
00000010
00000000
00001000
00000000
00000100
00010000
00000100
00000000
,
00010000
00000000
00001000
00000000
00100000
00010000
00100000
00000000
,
00001000
00000000
01000000
00000000
00010000
10000000
00010000
00000000
,
02000000
00000000
00000000
03020000
00000000
00030000
00101000
00000000
;

//---------------dance-double - ----------------
#NOTES:
     dance-double:
     :
     Hard:
     7:
     0.458660,0.475054,0.379530,0.071803,0.087189,313.000000,276.000000,37.000000,7.000000,0.000000,0.000000,0.458660,0.475054,0.379530,0.071803,0.087189,313.000000,276.000000,37.000000,7.000000,0.000000,0.000000:
00000000
00000000
00000000
00000000
,
00000000
00000000
00000000
00000000
,
00000000
00000000
00000000
00000000
,
00012000
00000000
00000000
00000000
00000000
00000000
00103000
00010000
,
10000000
01000000
00100000
00010000
10000000
01000000
00100000
00010000
,
00110000
00000000
00011000
00000000
00001000
00010000
00000100
00001000
,
00000010
00000100
00000001
00001000
00000010
00000100
00000101
00000000
,
00001010
00000000
00011000
00000000
00001000
00100000
00010000
10000000
,
00010000
01000000
00100000
10000000
00010000
01000000
01100000
00000000
,
00110000
00000000
00011000
00000000
00010000
00000010
00000100
00000001
,
00000010
00000100
00001000
00000001
00000010
00000100
00001100
00000000
,
00011000
00000000
00000000
00000000
00110000
00000000
00000000
00000000
00010000
01000000
00010000
01000000
00020000
00000000
00000000
00000000
,
10030000
01000000
00010000
00000000
00001000
00000010
00000001
00000000
,
00000100
00000010
00010000
00000000
00001000
01000000
00100000
00000000
,
10000000
00100000
00010000
00100000
10000000
00000000
10010000
00000000
,
00010000
00000100
00001000
00000100
00010000
00000000
00010100
00000000
,
00000001
00000100
00000010
00010000
00010000
00001000
01000000
00100000
,
10000000
10000000
01000000
00100000
00010000
00010000
00010000
00100000
,
00000000
00001000
00000000
00010000
00000000
00000100
00001000
00000100
,
00000000
00000010
00000000
00000001
00000000
00001000
00000100
00001000
,
00000100
00010000
00000100
00001000
00000100
00010000
00000100
00000000
,
00010000
00001000
00010000
00000010
00010000
00001000
00010000
00000000
,
00001000
01000000
00100000
00000000
10000000
00010000
00100000
00000000
,
10000000
01000000
10000000
01000000
10000000
00000000
00010000
00000000
,
00100000
00001000
00100000
00010000
00100000
00001000
00100000
00000000
,
00001000
01000000
00001000
00010000
00001000
01000000
00001000
00000000
,
00011000
00000000
00010100
00000000
00000010
00000100
00000001
00000000
,
00000110
00000000
00000000
00010010
00000000
00000000
00011000
00000000
00000000
00000000
00000000
00000000
00000000
00000000
00010000
00000000
,
10000000
00100000
01000000
00010000
10000000
00100000
01100000
00000000
,
10100000
00000000
10010000
00000000
00100000
00001000
00010000
00000010
,
00000100
00000001
00001000
00000010
00000100
00000001
00001001
00000000
,
00010100
00000000
00011000
00000000
00100000
00010000
10000000
00010000
,
01000000
00100000
10000000
00010000
01000000
00100000
10100000
00000000
,
00110000
00000000
00011000
00000000
00000010
00000001
00001000
00000001
,
00000010
00000100
00001000
00000001
00000010
00000100
00001100
00000000
,
00011000
00000000
00000000
00000000
00110000
00000000
00000000
00000000
00010000
10000000
00010000
10000000
00010000
00000000
00000000
00000000
,
01000000
00000000
00000000
00100000
00000000
00000000
00010000
00000000
00001000
00000000
00000000
01000000
00000000
00000000
00000000
00000000
,
02000000
00000000
00010000
03010000
01000000
00000000
01001000
00000000
,
00010000
00000000
00000000
00000100
00000000
00000000
00001000
00000000
00010000
00000000
00000000
00001000
00000000
00000000
00000000
00000000
,
00000200
00000000
00001000
00001300
00000100
00000000
00000110
00000000
,
00000001
00000000
00000000
00000100
00000000
00000000
00001000
00000000
00010000
00000000
00000000
00100000
00000000
00000000
00000000
00000000
,
20000000
00000000
00010000
30010000
10000000
00000000
00110000
00000000
,
00001000
00000000
00000000
00010000
00000000
00000000
00001000
00000000
00000100
00000000
00000000
00001000
00000000
00000000
00010000
00000000
,
00011000
00000000
00000000
00010100
00000000
00000000
00000110
00000000
00000000
00000000
00000000
00000000
00000000
00000000
00000000
00000000
,
00000001
00000000
00000000
00001000
00000100
00000000
00001000
00000000
00000010
00000000
00010000
00000000
00001000
00000000
00000000
00000000
,
00100000
00000000
00000000
00010000
01000000
00000000
00010000
00000000
10000000
00000000
01000000
00000000
00010000
00000000
00000000
00000000
,
00001000
00000000
00000000
00100000
00010000
00000000
00100000
00000000
00001000
00000000
00010000
00000000
00000010
00000000
00000000
00000000
,
00000001
00000010
00001000
00000010
00000100
00002000
00020000
00000000
,
00000000
00000000
00000000
00033000
;

//---------------dance-double - ----------------
#NOTES:
     dance-double:
     :
     Challenge:
     8:
     0.501155,0.525059,0.266697,0.246182,0.271826,342.000000,316.000000,26.000000,24.000000,0.000000,0.000000,0.501155,0.525059,0.266697,0.246182,0.271826,342.000000,316.000000,26.000000,24.000000,0.000000,0.000000:
00000000
00000000
00000000
00000000
,
00000000
00000000
00000000
00000000
,
00000000
00000000
00000000
00000000
,
00022000
00000000
00000000
00000000
00000000
00000000
00000000
00000000
00033000
00000000
00000000
00000000
00010000
00000000
00100000
01000000
,
00100000
00000000
00010000
00000000
10000000
00000000
01000000
00100000
01000000
00000000
10000000
00000000
00010000
00000000
00000000
00000000
,
01010000
00000000
00000000
00000000
00011000
00000000
00000000
00000000
00010000
00000100
00010000
00000000
00001000
00000000
00000010
00001000
,
00000010
00000000
00000100
00000000
00000010
00000000
00000100
00000001
00000100
00000000
00000010
00000000
00000100
00000000
00000000
00000000
,
00001010
00000000
00000000
00000000
00011000
00000000
00000000
00000000
00010000
00100000
00010000
00000000
01000000
00000000
00100000
10000000
,
00100000
00000000
10000000
00000000
00010000
00000000
01000000
00010000
01000000
00000000
00100000
00000000
01000000
00000000
00000000
00000000
,
00110000
00000000
00000000
00000000
00011000
00000000
00000000
00000000
00001000
00000010
00001000
00000000
00000100
00000000
00000001
00000100
,
00000001
00000000
00001000
00000000
00000100
00000000
00001000
00000100
00001000
00000000
00000001
00000000
00001000
00000000
00000000
00000000
,
00001100
00000000
00011000
00000000
01000000
00010000
01000000
00000000
,
00010000
10000000
01000000
10000000
00010000
00100000
00001000
00001000
,
00000000
00010000
00001000
00000000
00010000
00000010
00010000
00010000
,
00000000
00000010
00000100
00000001
00001000
00000100
00000010
00000010
,
00000000
00000100
00001000
00000000
00000100
00001000
00010000
00000000
,
01000000
10000000
00100000
01000000
00010000
00100000
00010000
10000000
,
01000000
00010000
00001000
00000010
00000001
00000100
00000001
00000010
,
00000000
00000100
00010000
00000000
00000100
00000010
00000100
00010000
,
00000000
00001000
00100000
00000000
00001000
00100000
01000000
00100000
,
00010000
00000000
01000000
00010000
00000000
00000000
01000000
00000000
00100000
00000000
01000000
00100000
00000000
00000000
01000000
00000000
,
00100000
00000000
10000000
00100000
00000000
00000000
10000000
00000000
01000000
00000000
10000000
01000000
00000000
00000000
00100000
00000000
,
00001000
00010000
00001000
00100000
00010000
00010000
00100000
00001000
,
00010000
00000100
00010000
00000100
00001000
00000010
00000100
00000010
,
00000100
00000000
00000001
00000100
00000000
00000000
00000001
00000000
00000010
00000000
00000001
00000010
00000000
00000000
00000100
00000000
,
00000010
00000000
00000100
00000010
00000000
00000000
00000100
00000000
00001000
00000000
00000100
00001000
00000000
00000000
00000010
00000000
,
00010000
00001000
00000000
00010000
00001000
00000000
00000000
00000000
00001000
00010000
00000000
00001000
00010000
00000000
00001000
00000000
,
01001000
00000000
00000000
01100000
00000000
00000000
10100000
00000000
00000000
00000000
00000000
00000000
01000000
00100000
01000000
00100000
,
01000000
00000000
00100000
00000000
01000000
00000000
00010000
00100000
00010000
00000000
10000000
00000000
01000000
00000000
00000000
00000000
,
11000000
00000000
00000000
00000000
00101000
00000000
00000000
00000000
00010000
00000000
00000010
00000000
00001000
00000000
00000001
00000010
,
00000001
00000000
00001000
00000000
00000100
00000000
00001000
00000010
00001000
00000000
00000001
00000000
00000100
00000000
00000000
00000000
,
00000101
00000000
00000000
00000000
00001010
00000000
00000000
00000000
00001000
00000000
00100000
00000000
00010000
00000000
01000000
00010000
,
01000000
00000000
00100000
00000000
01000000
00000000
00100000
10000000
00100000
00000000
10000000
00000000
00010000
00000000
00000000
00000000
,
11000000
00000000
00000000
00000000
00110000
00000000
00000000
00000000
00100000
00000000
00001000
00000000
00010000
00000000
00001000
00010000
,
00001000
00000000
00010000
00000000
00000100
00000000
00010000
00001000
00010000
00000000
00001000
00000000
00100000
00000000
00001000
00000000
,
00011000
00000000
00010100
00000000
00000010
00000100
00000001
00001000
,
00000200
00000000
00000000
00002300
00000000
00000000
00023000
00000000
00002000
00030000
00000000
00003200
00000000
00000000
00010300
00000000
,
00001000
00000000
00000000
00100000
00000000
00000000
00010000
00000000
01000000
00000000
00000000
00000000
00100000
00000000
10000000
00000000
,
02000000
00000000
00000000
03020000
00000000
00000000
00032000
00000000
00000020
00003000
00000000
00000032
00000000
00000000
00001003
00000000
,
00000010
00000000
00000000
00000100
00000000
00000000
00000010
00000000
00010000
00000000
00000000
00000000
00001000
00000000
01000000
00000000
,
00020000
00000000
00000000
02030000
00000000
00000000
23000000
00000000
02000000
30000000
00000000
03020000
00000000
00000000
01030000
00000000
,
00100000
00000000
00000000
01000000
00000000
00000000
00010000
00000000
00001000
00000000
00000000
00000000
00000100
00000000
00001000
00000000
,
00000020
00000000
00000000
00002030
00000000
00000000
00003020
00000000
00020000
00000030
00000000
00002000
00000000
00000000
00033000
00000000
,
00011000
00000000
00000000
01001000
00000000
00000000
00011000
00000000
00000000
00000000
00000000
00000000
00000000
00000000
00000000
00000000
,
10000000
00000000
00000000
00010000
00100000
00000000
00001000
00000000
00010000
00000000
00000000
00100000
00010000
00000000
00001000
00000000
,
00010000
00000000
00000000
00000010
00001000
00000000
00000010
00000000
00000001
00000000
00000000
00000010
00001000
00000000
00000100
00000000
,
00000001
00000000
00000000
00000100
00001000
00000000
00010000
00000000
00100000
00000000
00000000
00010000
01000000
00000000
00100000
00000000
,
11000000
00000000
00000000
00100000
00000000
00000000
00011000
00000000
00000000
00000100
00000000
00000000
00000220
00000000
00000000
00000000
,
00000000
00000000
00000000
00000330
;
