#TITLE:X;
#SUBTITLE:;
#ARTIST:D.J.Amuro;
#TITLETRANSLIT:;
#SUBTITLETRANSLIT:;
#ARTISTTRANSLIT:;
#GENRE:Hardcore;
#CREDIT:;
#BANNER:X-bn.png;
#BACKGROUND:X-bg.png;
#LYRICSPATH:;
#CDTITLE:;
#MUSIC:X.ogg;
#OFFSET:-0.010000;
#SAMPLESTART:63.989994;
#SAMPLELENGTH:12.000000;
#SELECTABLE:YES;
#BPMS:0.000000=180.000000
;
#STOPS:
;
#BGCHANGES:;
#KEYSOUNDS:;
#ATTACKS:;

//---------------dance-single - ----------------
#NOTES:
     dance-single:
     :
     Challenge:
     9:
     0.722678,0.742035,0.578142,0.309719,0.041296,490.000000,434.000000,56.000000,30.000000,0.000000,0.000000,0.722678,0.742035,0.578142,0.309719,0.041296,490.000000,434.000000,56.000000,30.000000,0.000000,0.000000:
0000
0000
0000
0000
,
0000
0000
0000
0000
,
0000
0000
0000
0000
,
0000
0000
0000
0000
,
2000
0000
0010
0010
3000
0000
0101
0000
,
0020
0000
0100
0100
0030
0000
1100
0000
,
0010
1000
0100
0010
0001
1000
0010
0100
,
0202
0000
0300
1003
,
0001
0010
0010
0001
0010
0010
0100
0100
,
1000
0010
0010
1000
0100
0100
0010
0010
,
0100
1000
1000
0100
0010
0010
0001
0001
,
0010
0100
0100
0010
0100
0100
1000
1000
,
0001
0100
0000
1000
0100
0000
1001
0000
,
1000
0010
0000
0001
0010
0000
1001
0000
,
0010
1000
0010
1000
0010
1000
0010
1000
,
0100
0010
0100
0010
0100
0010
0100
0010
,
0001
0100
0001
0010
0001
0100
0001
0010
,
0001
0100
0001
0010
0100
1000
0001
1000
,
0100
0010
0100
1000
0100
0010
0100
1000
,
0100
0010
0100
1000
0100
0010
0001
1000
,
1001
0000
0110
0000
0100
1000
0100
0000
,
1010
0000
0101
0000
0110
0010
0100
0010
,
2000
0000
0000
0000
,
0000
0000
0000
3001
,
0100
1000
0100
0001
0100
1000
0100
0001
,
0010
0100
1000
0010
0100
0010
1000
0100
,
0010
0001
0010
1000
0010
0001
0010
1000
,
0010
0001
0100
0001
0010
0100
1000
0020
,
0000
0130
0100
0010
0001
1000
0010
0100
,
0001
0001
1000
0100
0010
0100
1000
0001
,
0010
0010
0100
1000
0100
0100
0001
0100
,
1000
0100
0010
0001
0010
0100
1000
0010
,
0200
0000
0320
1000
2030
0000
3002
0100
,
0203
0000
0310
0001
0010
1000
0010
0100
,
0020
0000
2030
0100
3200
0000
2300
0001
,
3010
0100
0010
0001
1000
0100
0010
0100
,
2000
0000
3200
0010
0320
0000
0032
1000
,
2003
0000
3010
1000
0100
0001
0100
1000
,
1020
0000
0130
0001
0201
0000
0310
1000
,
0001
0100
0001
0100
0010
1000
0010
1000
,
1100
0101
0011
1010
,
1100
0101
0011
1010
,
1100
0101
0011
1010
,
1000
0100
0001
0100
1000
0100
0001
0000
,
0011
1010
1100
0101
,
0011
1010
1100
0101
,
0011
1010
1100
0101
,
0010
1000
0100
0001
0100
1000
0010
0000
,
0001
0100
0010
0200
0000
0300
0010
0010
,
1000
0000
0100
0000
0020
0000
0000
0000
0130
0000
1000
0100
1000
0000
0000
0000
,
1000
0010
1000
0002
0000
0000
0103
1000
,
0100
0002
0000
0000
0013
1000
0010
0001
,
0101
0000
1000
0100
0001
0001
0100
0000
,
1010
0000
0000
0000
0100
0000
0001
0000
0010
0000
0001
0000
0100
0010
0100
0010
,
0100
0000
0000
0000
1001
0000
0000
0000
0010
0000
0100
0000
1000
0010
1000
0010
,
2000
0000
0000
0000
3100
0010
0001
0100
,
0010
0000
1000
0001
1000
0000
0020
0000
0000
0000
0000
0000
0100
0000
0130
0000
,
0001
0000
1100
0000
0010
0100
0010
0100
,
0001
0010
0000
1001
0000
1000
0010
0001
,
0000
2002
0000
3003
0100
1000
0100
0001
,
0010
0000
0100
1000
0100
0000
1000
0000
1000
0000
0000
0000
0010
0000
0001
0000
,
0000
0010
1000
0000
0100
0010
0001
1000
,
0010
0100
0010
0100
0010
0100
0010
0100
,
0001
0100
0001
0100
0001
0100
0001
0100
,
0101
1100
1010
0011
,
1010
0000
1100
0000
0101
0001
0100
1000
,
1100
1010
0011
0101
,
0011
0000
1010
0000
1100
1000
0010
0001
,
0010
1000
1000
0010
1000
1000
0010
1000
,
0100
0010
0010
0100
0010
0010
0100
0010
,
0001
0100
0100
1000
0100
0100
0001
0100
,
1000
0000
0100
0000
0001
0000
0010
0000
0100
0000
0000
1000
0000
0000
0001
0000
;

//---------------dance-single - ----------------
#NOTES:
     dance-single:
     :
     Hard:
     7:
     0.525047,0.556526,0.165183,0.361339,0.005162,356.000000,340.000000,16.000000,35.000000,0.000000,0.000000,0.525047,0.556526,0.165183,0.361339,0.005162,356.000000,340.000000,16.000000,35.000000,0.000000,0.000000:
// measure 0
0000
0000
0000
0000
,  // measure 1
0000
0000
0000
0000
,  // measure 2
0000
0000
0000
0000
,  // measure 3
0000
0000
0000
0000
,  // measure 4
1000
0000
0100
0100
0000
1000
0010
0100
,  // measure 5
0001
0000
0001
0001
0000
0010
0100
1000
,  // measure 6
0010
1000
0001
0100
0001
1000
0010
0000
,  // measure 7
0202
0000
0303
1000
,  // measure 8
1010
0000
1000
0100
0000
0100
0010
0000
,  // measure 9
0101
0000
0001
0100
0000
0100
0010
0000
,  // measure 10
1001
0000
0001
0100
0000
0010
0100
0000
,  // measure 11
1001
0000
1000
0100
0000
0010
0100
0000
,  // measure 12
1010
0000
0010
1000
0000
1000
0100
0000
,  // measure 13
0011
0000
0001
0100
0000
0100
0010
0000
,  // measure 14
0100
0001
0010
0001
0100
0010
1000
0010
,  // measure 15
0200
0000
0000
0000
0000
0000
0310
0100
,  // measure 16
0010
0000
1000
0100
0000
1000
0100
0000
,  // measure 17
1000
0100
0000
1000
0100
0010
0001
0100
,  // measure 18
0001
0000
0010
0001
0000
0010
0001
0000
,  // measure 19
0010
0001
0000
0100
0010
1000
0001
0100
,  // measure 20
0010
1100
0001
0110
,  // measure 21
1000
0000
0001
0000
1000
0001
1000
0001
,  // measure 22
1000
0000
0000
0000
,  // measure 23
0000
0000
0000
0010
,  // measure 24
0100
0000
0001
0000
0100
0001
0100
0001
,  // measure 25
0010
0000
0100
0000
0010
0100
0010
0100
,  // measure 26
1000
0000
0010
0000
1000
0010
1000
0010
,  // measure 27
0100
0000
0001
0000
0100
0001
0100
0002
,  // measure 28
0000
1003
0001
0000
0101
0000
1001
0000
,  // measure 29
0010
0000
0100
0000
1000
0001
1000
0001
,  // measure 30
1001
0010
1001
0100
,  // measure 31
1000
0000
1000
0000
1000
0010
0100
0001
,  // measure 32
0020
0230
0320
0032
,  // measure 33
0023
0000
0230
0000
0310
0001
1000
0010
,  // measure 34
0200
2300
3200
0320
,  // measure 35
0130
0001
0010
0100
1000
0010
0100
0001
,  // measure 36
2000
3200
2300
3020
,  // measure 37
2030
0000
3200
0000
0310
0001
0010
0100
,  // measure 38
0020
0032
0023
0230
,  // measure 39
0310
0001
0100
0010
1000
0100
0010
0001
,  // measure 40
1000
0100
0001
0010
,  // measure 41
1000
0100
0001
0010
,  // measure 42
1000
0100
0001
0010
,  // measure 43
1000
0100
0001
0100
1000
0000
1000
0000
,  // measure 44
0001
0100
1000
0010
,  // measure 45
0001
0100
1000
0010
,  // measure 46
0001
0100
1000
0010
,  // measure 47
0001
0100
1000
0100
0001
0010
0200
0000
,  // measure 48
1300
0100
0010
0002
0000
0003
0100
0001
,  // measure 49
0100
0020
0000
0000
0000
0000
0030
0000
,  // measure 50
0100
1000
0010
0200
0000
0000
0310
1000
,  // measure 51
0001
0020
0000
0000
0031
1000
0100
0010
,  // measure 52
0100
0000
0100
1000
0000
0100
1000
0000
,  // measure 53
0010
0000
1000
0000
0001
0010
0001
0010
,  // measure 54
0001
0000
1000
0000
0001
0000
1000
0100
,  // measure 55
2200
0000
0000
3300
,  // measure 56
0010
1000
0001
0200
0000
0000
0310
0100
,  // measure 57
0020
0000
0000
0000
1030
0100
0010
0001
,  // measure 58
0010
0100
0000
1000
0000
0010
1000
0002
,  // measure 59
0000
2000
0000
3003
0000
0010
0100
0010
,  // measure 60
0100
0001
0010
0001
1000
0000
0100
0010
,  // measure 61
0000
0100
0010
0000
0001
0000
1000
0000
,  // measure 62
0010
1000
0101
1001
,  // measure 63
0010
0000
1000
0000
0100
0010
0001
0000
,  // measure 64
1000
1000
1000
1000
,  // measure 65
1000
0000
1000
0000
1000
0100
0010
0001
,  // measure 66
0001
0001
0001
0001
,  // measure 67
0001
0000
0001
0000
0001
0010
0100
1000
,  // measure 68
0010
0000
0010
1000
0000
0000
1000
0000
,  // measure 69
0001
0000
0001
0100
0000
0000
0010
0000
,  // measure 70
0100
1000
0000
1000
0010
0000
0010
0100
,  // measure 71
0000
0000
0100
0000
0001
0000
0000
0000
1000
0000
0000
1000
0000
0000
1000
0000
;

//---------------dance-single - ----------------
#NOTES:
     dance-single:
     :
     Medium:
     5:
     0.364289,0.408829,0.103240,0.330367,0.000000,247.000000,237.000000,10.000000,32.000000,0.000000,0.000000,0.364289,0.408829,0.103240,0.330367,0.000000,247.000000,237.000000,10.000000,32.000000,0.000000,0.000000:
0000
0000
0000
0000
,
0000
0000
0000
0000
,
0000
0000
0000
0000
,
0000
0000
0000
0000
,
1000
0000
0000
0010
0000
0000
1000
0000
,
0100
0000
0000
0010
0000
0000
0001
0000
,
0200
0000
0000
0000
,
0320
0000
0000
1030
,
1000
0000
0100
0010
0000
0000
1000
0000
,
1000
0000
0010
0100
0000
0000
0001
0000
,
0001
0000
0010
0100
0000
0000
0001
0000
,
0001
0000
0100
0010
0000
0000
0100
0000
,
0100
0000
0001
0010
0000
0000
0100
0000
,
0100
0000
0010
1000
0000
0000
0100
0000
,
0010
0000
0001
0000
1000
0100
0010
0000
,
2002
0000
0000
3003
,
1000
0000
0000
1100
0000
0000
1000
0000
,
0000
1100
0000
0000
0010
0000
0100
0000
,
0100
0000
0000
0101
0000
0000
0100
0000
,
0000
0101
0000
0000
0001
0000
0010
0000
,
0100
1000
0100
0001
,
0010
0000
0100
0000
1000
0100
1000
0100
,
0000
0000
0000
0000
,
0000
0000
0000
0010
,
0001
1000
0001
0100
,
0001
0010
0001
0000
0001
0100
0001
0000
,
1000
0100
1000
0010
,
1000
0100
1000
0000
1000
0010
1000
0010
,
0000
0100
0001
0100
,
0010
1000
0010
0100
,
1001
0000
0110
0000
,
0100
0100
0010
0100
,
0002
0023
0032
0203
,
0302
0000
0023
0000
0130
1000
0100
1000
,
0200
2300
3200
0320
,
0230
0000
2300
0000
,
3020
0230
0320
2030
,
3020
0000
0230
0000
0301
0010
0001
0010
,
0002
0203
0302
2003
,
3020
0000
0000
0000
,
1030
1000
1000
1000
,
1000
1000
1000
1000
,
1000
1000
1000
1000
,
0100
0010
0001
1000
,
0001
0001
0001
0001
,
0001
0001
0001
0001
,
0001
0001
0001
0001
,
0100
0000
0010
0000
1000
0100
1000
0000
,
0010
0000
1000
0001
0000
0000
0100
0000
,
0010
0000
0000
0000
,
1000
0000
0100
0010
0000
0000
0100
0000
,
1000
0000
0000
0010
,
0100
0000
0000
0001
0000
0000
0010
0000
,
0000
0000
0000
0000
0000
0010
0100
0010
,
0100
0000
0000
0000
0000
1000
0100
1000
,
0200
0000
0000
0300
,
1000
0010
0000
0100
,
0001
0000
0000
0100
,
1000
0100
0000
0010
0000
0001
0000
0010
,
0000
0100
0000
0000
0000
0000
1000
0000
,
0001
1000
0010
0100
,
0010
1000
0002
0000
,
0103
0000
0000
2000
,
3010
0000
0100
0010
,
0100
0100
0100
0100
,
0100
0100
0001
1000
,
0010
0010
0010
0010
,
0010
0010
1000
0001
,
1000
0000
0000
1010
0000
0000
1000
0000
,
0010
0000
0000
0110
0000
0000
0100
0000
,
0001
0010
0000
0100
1000
0000
0001
1000
,
0000
0010
0100
0000
2002
0000
0000
0000
,
3003
0000
0000
0000
;

//---------------dance-single - ----------------
#NOTES:
     dance-single:
     :
     Easy:
     3:
     0.263999,0.371663,0.010324,0.206479,0.000000,179.000000,178.000000,1.000000,20.000000,0.000000,0.000000,0.263999,0.371663,0.010324,0.206479,0.000000,179.000000,178.000000,1.000000,20.000000,0.000000,0.000000:
0000
0000
0000
0000
,
0000
0000
0000
0000
,
0000
0000
0000
0000
,
0000
0000
0000
0000
,
1000
0000
0000
0100
0000
0000
0100
0000
,
1000
0000
0000
1000
0000
0000
0100
0000
,
0020
0000
0000
0000
,
1030
0000
0000
0010
,
0100
0000
0000
0100
0000
0000
0010
0000
,
0001
0000
0000
0001
0000
0000
0100
0000
,
0010
0000
0000
0010
0000
0000
1000
0000
,
0100
0000
0000
0100
0000
0000
1000
0000
,
0010
0000
0000
0100
0000
0000
0001
0000
,
0010
0000
0000
0100
0000
0000
1000
0000
,
0002
0000
0000
0000
,
0020
0000
0000
0033
,
0200
0000
0000
2300
,
0000
0000
3010
0010
,
0200
0000
0000
0302
,
0000
0000
0013
0010
,
0100
0100
0100
0100
,
0100
0100
1000
0000
,
0010
0000
0000
0000
,
0000
0000
0000
0100
,
0001
0010
0000
0001
,
0001
0100
0000
0001
,
0001
1000
0000
0001
,
0100
0010
1000
0001
,
0000
0000
0000
0100
,
0010
0010
0000
1000
,
0001
0001
0100
0100
,
0010
0000
0000
0000
,
2000
0000
0100
0000
,
3200
0000
0320
0000
,
0230
0000
1000
0000
,
2300
0000
3002
0000
,
0023
0000
0100
0000
,
0230
0000
0320
0000
,
0032
0000
1000
0000
,
2003
0000
0000
0000
,
3010
0010
0010
0010
,
0010
0010
0010
0010
,
0010
0010
0010
0010
,
0010
0010
0010
0010
,
0100
0100
0100
0100
,
0100
0100
0100
0100
,
0100
0100
0100
0100
,
0100
0100
0100
0110
,
0001
0100
0000
0010
,
1000
0000
0000
0000
,
1000
0100
0000
0010
,
0001
0000
0000
0001
,
1000
0100
0100
0010
,
0000
0000
0000
0100
,
1000
0000
0000
0100
,
2000
0000
0000
0000
,
3001
0010
0000
0100
,
0000
0000
0000
0001
,
0100
0010
0010
1000
,
0000
0100
0000
0000
0000
0000
1000
0000
,
0001
0010
0001
0100
,
0001
0000
0000
0000
,
0100
0010
0000
1000
,
0100
0000
0000
0000
,
1000
1000
1000
1000
,
1000
1000
0010
0010
,
0001
0001
0001
0001
,
0001
0001
0010
0010
,
1000
0000
0000
0001
0000
0000
0001
0000
,
0100
0000
0000
0100
0000
0000
0010
0000
,
1000
0000
0000
0001
0000
0000
0100
0000
,
0000
0010
0000
0000
2000
0000
0000
0000
,
3000
0000
0000
0000
;

//---------------dance-single - ----------------
#NOTES:
     dance-single:
     :
     Beginner:
     2:
     0.153385,0.332174,0.020648,0.030972,0.000000,104.000000,102.000000,2.000000,3.000000,0.000000,0.000000,0.153385,0.332174,0.020648,0.030972,0.000000,104.000000,102.000000,2.000000,3.000000,0.000000,0.000000:
0000
0000
0000
0000
,
0000
0000
0000
0000
,
0000
0000
0000
0000
,
0000
0000
0000
0000
,
0100
0000
0000
0000
,
0001
0000
0000
0000
,
0020
0000
0030
0000
,
0100
0000
0000
1000
,
1000
0000
0000
0010
,
0010
0000
0000
0100
,
0100
0000
0000
0100
,
0100
0000
0000
0010
,
0010
0000
0000
1000
,
1000
0000
0000
0001
,
0001
0000
0000
0000
,
0100
0000
0000
0000
,
0020
0000
0000
0000
,
0030
0000
0110
0000
,
2000
0000
0000
0000
,
3000
0000
1001
0000
,
0001
0001
0001
0001
,
0001
0001
0001
0000
,
0000
0000
0000
0000
,
0000
0000
0000
0100
,
0100
0000
0000
0000
,
0001
0000
0000
0000
,
0010
0000
0000
0000
,
1000
0000
0000
0000
,
0000
0000
0000
0000
,
0100
0000
0000
0000
,
1000
0000
0010
0000
,
0000
0000
0000
0000
,
0001
0000
0000
0000
,
1000
0000
0001
0000
,
0100
0000
0000
0000
,
0010
0000
1000
0000
,
0001
0000
0000
0000
,
0010
0000
0100
0000
,
0010
0000
0000
0000
,
0000
0001
0000
0000
,
0001
0000
0001
0000
,
0001
0000
0000
0000
,
1000
0000
1000
0000
,
1000
0000
0000
0000
,
0010
0000
0010
0000
,
0010
0000
0000
0000
,
0100
0000
0100
0000
,
0100
0000
0000
0001
,
0001
0000
0000
0010
,
0000
0000
0000
0000
,
1000
0000
0000
0100
,
0000
0000
0000
1000
,
1000
0000
0000
0001
,
0000
0000
0000
0010
,
0010
0000
0000
0100
,
0100
0000
0000
0000
,
0001
0000
0000
0010
,
0000
0000
0000
1000
,
1000
0000
0000
0001
,
0000
0000
0000
0100
,
0000
0000
0000
0001
,
0000
0000
0000
0000
,
0010
0000
0000
0000
,
0100
0000
0000
0000
,
1000
1000
1000
1000
,
1000
1000
1000
0000
,
0001
0001
0001
0001
,
0001
0001
0001
0000
,
0100
0000
0000
0010
,
0010
0000
0000
0100
,
0100
0000
0000
0000
,
0000
0000
0001
0000
;
