#TITLE:We Are Explorers;
#SUBTITLE:;
#ARTIST:Cut Copy;
#TITLETRANSLIT:;
#SUBTITLETRANSLIT:;
#ARTISTTRANSLIT:;
#GENRE:Dance;
#CREDIT:;
#BANNER:weareexplorers-bn.png;
#BACKGROUND:weareexplorers-bg.png;
#LYRICSPATH:;
#CDTITLE:;
#MUSIC:We Are Explorers.ogg;
#OFFSET:-0.040000;
#SAMPLESTART:46.349998;
#SAMPLELENGTH:14.000000;
#SELECTABLE:YES;
#BPMS:0.000000=114.000000
;
#STOPS:
;
#BGCHANGES:;
#KEYSOUNDS:;
#ATTACKS:;

//---------------dance-single - ----------------
#NOTES:
     dance-single:
     :
     Hard:
     9:
     0.525767,0.612054,0.253819,0.054390,0.557494,406.000000,378.000000,28.000000,6.000000,0.000000,0.000000,0.525767,0.612054,0.253819,0.054390,0.557494,406.000000,378.000000,28.000000,6.000000,0.000000,0.000000:
0000
0000
0000
0000
,
0000
0000
0000
0000
,
0000
0000
0000
0000
,
0000
0000
0000
0000
,
1000
0100
0010
0000
0001
0000
0100
0001
0100
0001
0000
0001
0100
0000
0010
0000
,
0100
0001
1000
0000
0001
0000
1000
0010
1000
0010
0000
0010
1000
0000
0010
0000
,
0100
0000
0001
0000
0000
0001
0000
0000
1000
0000
0100
0000
0000
0100
0000
0000
,
0001
0000
0100
0000
0000
0100
0000
0000
1000
0000
0010
0000
0000
0010
0000
0000
,
0100
0000
1000
0000
0000
1000
0000
0000
0100
0000
0001
0000
0000
0001
0000
0000
,
1000
0000
0010
0000
0000
0010
0000
0000
0001
0000
0010
0000
0000
0010
0000
0000
,
0100
0000
1000
0000
0000
0010
0000
0000
0001
0000
0010
0000
0000
1000
0000
0000
,
0001
0000
0100
0000
0000
0010
0000
0000
0001
0000
0010
0000
0000
1000
0000
0000
,
0100
0000
0001
0000
0000
0100
0000
0000
1000
0000
0100
0000
0000
0010
0000
0000
,
1000
0000
0010
0000
0000
0001
0000
0000
0100
0000
0010
0000
0000
1000
0000
0000
,
1000
0000
0100
0000
1000
0000
0010
0100
0000
1000
0000
0000
0000
0000
0100
0000
,
0001
0000
1000
0000
0000
1000
0000
0000
0001
0000
0100
0000
0000
0100
0000
0000
,
0100
0000
0001
0000
1000
0000
0010
1000
0000
0001
0000
0000
0000
0000
0010
0000
,
1001
0000
1001
0000
0000
0010
0000
0000
1100
0000
1100
0000
0000
0001
0000
0000
,
0010
0000
0100
0000
1000
0000
0001
0010
0001
0000
1000
0000
0010
0000
0100
0010
,
1000
0000
0001
0000
0100
0000
0010
0001
1000
0000
0010
0000
0100
0000
1000
0010
,
0100
0000
0010
0000
1000
0000
0001
0100
1000
0000
0001
0000
0010
0000
0001
1000
,
0100
0000
1000
0010
0000
0010
0000
0100
0010
0000
0100
0001
0000
0001
0000
0010
,
0001
1000
0100
1000
0010
1000
0001
0010
,
0011
0000
0000
1010
0000
0000
0011
0000
0000
0000
0000
0001
1000
0000
0001
0000
,
0100
0010
1000
0010
0001
0010
1000
0001
,
1100
0000
0000
0101
0000
0000
1100
0000
0000
0000
0000
0010
1000
0000
0100
0000
,
0010
0001
0100
0001
0010
0001
1000
0100
,
1010
0000
0000
0110
0000
0000
0101
0000
0000
0000
0000
0000
1001
0000
0000
0000
,
0010
0000
1000
0001
0000
0100
0020
0000
0000
0000
0000
0000
1000
0000
1030
0000
,
1001
0000
0010
2002
0000
0000
0000
3003
,
0010
0000
0000
0000
0001
0010
0100
1000
0000
0000
0000
0000
1000
0100
0010
0001
,
0000
0000
0000
0000
0100
0010
1000
0001
0000
0000
0000
0000
0010
1000
0001
0100
,
0000
0000
0000
0000
0001
0100
0010
1000
0000
0000
0000
0000
1000
0010
0100
0001
,
0000
0000
0000
0000
0100
0001
1000
0010
0000
0000
0100
0000
0010
0000
1000
0000
,
0100
1000
0000
0100
1000
0001
0000
0100
0001
1000
0000
0010
1000
0100
0010
0000
,
0001
0000
0000
0000
0000
0000
0100
0000
0001
0000
0100
0000
0001
0000
0000
0000
0000
0000
1000
0000
0000
0000
0000
0000
0010
0000
0000
1000
0000
0000
0000
0000
0000
0010
0000
0000
1000
0000
0000
0001
0000
0000
0100
0000
0000
0010
0000
0000
,
0100
0000
0010
1000
0000
0010
1000
0000
0001
0100
0000
0001
0100
0000
0010
0000
,
1000
0000
0001
1000
0000
0001
1000
0000
0010
1000
0000
0010
1000
0010
0000
0100
,
0010
0100
0010
0100
1000
0100
0001
0010
,
0011
0000
0000
1010
0000
0000
0011
0000
0000
0000
0000
0100
0010
0000
1000
0000
,
0010
0100
1000
0100
0001
0100
0010
1000
,
1100
0000
0000
0101
0000
0000
1100
0000
0000
0000
0000
0010
1000
0000
0001
0000
,
0100
0010
0001
0010
0100
0010
1000
0001
,
1001
0000
0000
0110
0000
0000
1100
0000
0000
0000
0000
0000
1001
0000
0000
0000
,
0010
0000
1000
0001
0000
0100
0002
0000
0000
0000
0000
0000
0100
0000
0103
0000
,
0110
0000
1000
0220
0000
0000
0000
0330
,
1000
0010
1000
0000
0100
0000
0010
0001
0010
0001
0000
0001
0010
0000
0001
0000
,
0100
0001
0100
0000
0010
0000
1000
0100
1000
0100
0000
0100
1000
0000
0010
0000
,
0100
0010
0100
0000
0001
0000
0010
0001
0010
0001
0000
0001
0010
0000
0001
0000
,
0100
0001
1000
0000
0010
0000
0100
0010
0100
0010
0000
0010
0100
0000
0001
0000
,
0010
0000
0001
0100
0000
0100
0000
0010
0100
0000
0010
1000
0000
1000
0000
0100
,
1000
0000
0010
0100
0000
0100
0000
0001
0100
0000
0001
0010
0000
0010
0000
0100
;

//---------------dance-single - ----------------
#NOTES:
     dance-single:
     :
     Medium:
     6:
     0.290078,0.374836,0.199429,0.135974,0.018130,224.000000,202.000000,22.000000,15.000000,0.000000,0.000000,0.290078,0.374836,0.199429,0.135974,0.018130,224.000000,202.000000,22.000000,15.000000,0.000000,0.000000:
// measure 0
0000
0000
0000
0000
,  // measure 1
0000
0000
0000
0000
,  // measure 2
0000
0000
0000
0000
,  // measure 3
0000
0000
0000
0000
,  // measure 4
1000
0100
0000
0010
0001
0010
0000
0100
,  // measure 5
1000
0100
0000
1000
0001
1000
0001
0000
,  // measure 6
0100
0001
1000
0000
0010
1000
0001
0000
,  // measure 7
1000
0100
0010
0000
0001
0000
0001
0000
,  // measure 8
0010
0001
0100
0000
0010
1000
0100
0000
,  // measure 9
1000
0010
0100
0000
0010
0000
0010
0000
,  // measure 10
1000
0001
0100
0000
0010
1000
0100
0000
,  // measure 11
0010
0001
0100
0000
0001
0000
0001
0000
,  // measure 12
1000
0100
1000
0000
0001
0010
0100
0000
,  // measure 13
0001
1000
0100
0000
1000
0000
1000
0000
,  // measure 14
0020
0000
0000
0000
1030
0001
0000
1000
,  // measure 15
0100
0000
0010
1000
,  // measure 16
0200
0000
0000
0000
1300
0010
0000
0010
,  // measure 17
0100
0000
0000
0000
0001
1000
0001
1000
,  // measure 18
0001
0000
0000
2002
0000
3003
0000
2020
,  // measure 19
0000
3030
0000
0202
0000
0303
0000
2002
,  // measure 20
0000
3003
0000
0220
0000
0330
0000
0000
,  // measure 21
2000
0000
0000
3000
,  // measure 22
0010
1000
0010
0100
0010
1000
0010
0000
,  // measure 23
1001
0000
0000
0010
0000
0000
0000
0000
,  // measure 24
1000
0010
1000
0100
1000
0010
1000
0000
,  // measure 25
1001
0000
0000
0001
0000
0000
0000
0000
,  // measure 26
0100
0001
0100
0010
0100
0001
0100
0000
,  // measure 27
1001
0000
0000
0100
0000
0000
0010
0000
,  // measure 28
2000
0000
0000
3000
,  // measure 29
1001
0000
0000
1000
0000
0000
0000
0000
,  // measure 30
0010
0100
0001
1000
,  // measure 31
0010
1000
0000
0001
0000
0000
0000
0000
,  // measure 32
0100
0000
0001
0000
1000
0010
0000
0100
,  // measure 33
0000
0000
0000
1001
0000
0000
0000
0000
,  // measure 34
0010
0000
1001
0000
1100
0000
0011
0001
,  // measure 35
0100
0000
0010
0010
0010
0000
1000
0001
,  // measure 36
1000
0100
0010
0001
0000
0001
1000
0001
,  // measure 37
0100
0010
1000
0001
1000
0000
0001
0000
,  // measure 38
1000
0100
0010
0100
1000
0000
0001
0000
,  // measure 39
0101
0000
0000
0100
0000
0000
0000
0000
,  // measure 40
0010
0100
0001
0100
0010
0000
1000
0000
,  // measure 41
1100
0000
0000
0010
0000
0000
0000
0000
,  // measure 42
1000
0001
0010
0001
1000
0000
0010
0000
,  // measure 43
0110
0000
0000
1000
0000
0000
0010
0000
,  // measure 44
0200
0000
0000
0300
,  // measure 45
1001
0000
0010
1001
0000
0000
0000
0000
,  // measure 46
1000
0100
0010
0001
1000
0000
0001
0000
,  // measure 47
0101
0000
0000
1001
0000
0000
0010
0100
,  // measure 48
0001
0010
0100
1000
0001
0000
1000
0000
,  // measure 49
1001
0000
0000
1010
0000
0000
0000
0000
,  // measure 50
0010
0000
0000
1000
0000
0000
0000
0000
0100
0000
0000
0001
0000
0000
0000
0000
,  // measure 51
0010
0000
0000
0100
0000
0000
0000
0000
1000
0000
0000
0010
0000
0000
0000
0000
;

//---------------dance-single - ----------------
#NOTES:
     dance-single:
     :
     Easy:
     2:
     0.108779,0.164982,0.018130,0.063455,0.000000,84.000000,82.000000,2.000000,7.000000,0.000000,0.000000,0.108779,0.164982,0.018130,0.063455,0.000000,84.000000,82.000000,2.000000,7.000000,0.000000,0.000000:
0000
0000
0000
0000
,
0000
0000
0000
0000
,
0000
0000
0000
0000
,
0000
0000
0000
0000
,
0000
0000
0000
0000
,
0000
0010
1000
0001
,
0010
0000
0000
0000
,
0000
0001
1000
0100
,
0010
0000
0000
0000
,
0000
0100
1000
0001
,
0010
0000
0000
0000
,
0000
0001
1000
0010
,
1000
0000
0000
0000
,
0000
1000
0100
0010
,
0001
0000
0000
0000
,
0000
0001
0010
0100
,
1000
0000
0000
0000
,
0000
0000
0100
0010
,
0200
0300
0002
0003
,
2000
3000
0010
0010
,
2000
3000
0200
0300
,
0000
0000
0000
0000
,
0001
0000
0000
0000
,
1000
0000
0000
1000
0000
0000
0000
0000
,
0010
0000
0000
0000
,
0010
0000
0000
0010
0000
0000
0000
0000
,
0100
0000
0000
0000
,
0100
0000
0000
0100
0000
0000
0000
0000
,
1001
0000
0000
0000
,
0010
0000
0000
0010
0000
0000
0000
0000
,
1000
0000
0000
0000
,
0100
0000
0000
0000
,
0001
0100
1000
0000
,
0000
0000
0000
0000
,
0010
0010
0010
0000
,
0000
1000
1000
0001
,
0100
0000
0000
0000
,
0010
0000
0000
0000
,
0100
0000
0000
0000
,
0001
0000
0000
0001
0000
0000
0000
0000
,
0010
0000
0000
0000
,
1000
0000
0000
1000
0000
0000
0000
0000
,
0100
0000
0000
0000
,
0010
0000
0000
0010
0000
0000
0000
0000
,
0110
0000
0000
0000
,
1000
0000
0000
1000
0000
0000
0000
0000
,
0001
0010
0001
0100
,
0001
0000
0000
0000
,
1000
0010
1000
0100
,
1000
0000
0000
0000
,
0000
0000
0000
0000
,
2000
0000
0002
0000
,
3003
0000
0000
0000
;

//---------------dance-single - ----------------
#NOTES:
     dance-single:
     :
     Beginner:
     1:
     0.084175,0.163396,0.027195,0.090650,0.000000,65.000000,62.000000,3.000000,10.000000,0.000000,0.000000,0.084175,0.163396,0.027195,0.090650,0.000000,65.000000,62.000000,3.000000,10.000000,0.000000,0.000000:
0000
0000
0000
0000
,
0000
0000
0000
0000
,
0000
0000
0000
0000
,
0000
0000
0000
0000
,
0000
0000
0000
0000
,
0000
0000
0010
0010
,
0010
0000
0000
0000
,
0000
0000
0100
0000
,
0001
0000
0000
0000
,
0000
0000
1000
1000
,
1000
0000
0000
0000
,
0000
0000
0010
0000
,
1000
0000
0000
0000
,
0000
0000
0001
0001
,
0001
0000
0000
0000
,
0000
0000
0100
0100
,
0100
0000
0000
0000
,
0000
0000
1001
0000
,
0010
0000
0000
0000
,
0000
0000
0100
0000
,
1000
0000
0000
0000
,
0002
0003
0002
0003
,
0001
0000
0000
0000
,
2000
0000
3000
0000
,
0010
0000
0000
0000
,
0200
0000
0300
0000
,
0001
0000
0000
0000
,
0020
0000
0030
0000
,
0200
0000
0000
0300
,
0100
0000
0000
0000
,
1000
1000
1000
0000
,
1000
0000
0000
0000
,
0001
0001
0001
0000
,
0001
0000
0000
0000
,
0100
0000
0010
0000
,
0100
0000
0000
0000
,
0001
0000
0000
0100
,
0100
0000
0000
0000
,
0010
0000
0000
0000
,
2000
0000
3000
0000
,
0100
0000
0000
0000
,
0002
0000
0003
0000
,
0010
0000
0000
0000
,
0200
0000
0300
0000
,
0002
0000
0000
0003
,
0001
0000
0000
0000
,
1000
1000
1000
0000
,
1001
0000
0000
0000
,
0010
0010
0010
0000
,
0110
0000
0000
0000
,
0000
0000
0000
0000
,
0100
0000
0100
0000
;

//---------------dance-double - ----------------
#NOTES:
     dance-double:
     :
     Easy:
     4:
     0.220149,0.235689,0.099714,0.163169,0.000000,170.000000,159.000000,11.000000,18.000000,0.000000,0.000000,0.220149,0.235689,0.099714,0.163169,0.000000,170.000000,159.000000,11.000000,18.000000,0.000000,0.000000:
00000000
00000000
00000000
00000000
,
00000000
00000000
00000000
00000000
,
00000000
00000000
00000000
00000000
,
00000000
00000000
00000000
00000000
,
10000000
01000000
10000000
00100000
,
10000000
01000000
00010000
00001000
,
00000100
00000001
00001000
00001000
,
00000010
00000100
00001000
00010000
,
01000000
10000000
10000000
00100000
,
00100000
00010000
00001000
00000010
,
00000001
00001000
00000010
00000010
,
00000100
00000100
00000001
00001000
,
00000010
00000100
00000100
00000001
,
00000001
00000100
00001000
00010000
,
01000000
10000000
01000000
00000000
,
10000000
00010000
00100000
00010000
,
10000000
01000000
00010000
00000000
,
00001000
00000000
00000100
00000001
,
00000100
00000000
00000110
00000000
,
00001010
00000000
00010100
00000000
,
00011000
00000000
00101000
00000000
,
00100000
00100000
01000000
01000000
,
10000000
00010000
10000000
00010000
,
02000000
00000000
00000000
03100000
00000000
00000000
00000000
00000000
,
10000000
01000000
00010000
00001000
,
00000200
00000000
00000000
00000301
00000000
00000000
00000000
00000000
,
00000001
00001000
00000001
00001000
,
00000020
00000000
00000000
00000130
00000000
00000000
00001001
00000000
,
00000002
00000023
00002030
00023000
,
00230000
00000000
00000000
10300000
00000000
00000000
00000000
00000000
,
10000000
01000000
00100000
00010000
,
01000000
00100000
01000000
00000000
,
00100000
00010000
00001000
00000010
,
00000001
00000000
00000000
00001000
00000000
00000000
00000000
00000000
,
00000010
00000010
00000010
00000100
,
00000001
00001000
00000001
00000001
,
00000100
00001000
00010000
01000000
,
10000000
00010000
10000000
00010000
,
10000000
00100000
10000000
01000000
,
20000000
00000000
00000000
30100000
00000000
00000000
00000000
00000000
,
10000000
01000000
00010000
00001000
,
00000200
00000000
00000000
00000301
00000000
00000000
00000000
00000000
,
00000001
00000010
00000001
00000100
,
00000002
00000000
00000000
00000013
00000000
00000000
00001001
00000000
,
00000002
00000023
00002030
00023000
,
00230000
00000000
00000000
10300000
00000000
00000000
00000000
00000000
,
10000000
01000000
00100000
00010000
,
02000000
00000000
00000000
03100000
00000000
00000000
00000000
00000000
,
10000000
01000000
00010000
00001000
,
00000200
00000000
00000000
00000301
00000000
00000000
00000000
00000000
,
00001001
00000000
00010100
00000000
,
00011000
00000000
00101000
00000000
,
01000000
00000000
00000000
00000000
;

//---------------dance-double - ----------------
#NOTES:
     dance-double:
     :
     Hard:
     9:
     0.519292,0.612054,0.135974,0.135974,0.598287,401.000000,386.000000,15.000000,15.000000,0.000000,0.000000,0.519292,0.612054,0.135974,0.135974,0.598287,401.000000,386.000000,15.000000,15.000000,0.000000,0.000000:
00000000
00000000
00000000
00000000
,
00000000
00000000
00000000
00000000
,
00000000
00000000
00000000
00000000
,
00000000
00000000
00000000
00000000
,
01000000
00010000
01000000
00000000
00001000
00000000
00010000
00000100
00010000
00001000
00000000
00001000
00010000
00000000
00000010
00000000
,
00000100
00000010
00000100
00000000
00000010
00000000
00010000
00001000
00100000
00010000
00000000
00010000
01000000
00000000
00100000
00000000
,
10000000
00000000
01000000
00000000
00000000
10000000
00000000
00000000
00100000
00000000
00010000
00000000
00000000
00001000
00000000
00000000
,
00000010
00000000
00000001
00000000
00000000
00000100
00000000
00000000
00000010
00000000
00001000
00000000
00000000
00000001
00000000
00000000
,
00000100
00000000
00000010
00000000
00000000
00000100
00000000
00000000
00001000
00000000
00010000
00000000
00000000
01000000
00000000
00000000
,
10000000
00000000
00010000
00000000
00000000
01000000
00000000
00000000
00100000
00000000
00010000
00000000
00000000
00001000
00000000
00000000
,
00010000
00000000
00001000
00000000
00000000
00000010
00000000
00000000
00000001
00000000
00000100
00000000
00000000
00000010
00000000
00000000
,
00001000
00000000
00000100
00000000
00000000
00000010
00000000
00000000
00001000
00000000
00010000
00000000
00000000
00100000
00000000
00000000
,
10000000
00000000
00010000
00000000
00000000
01000000
00000000
00000000
00100000
00000000
10000000
00000000
00000000
01000000
00000000
00000000
,
00010000
00000000
00001000
00000000
00000000
00000010
00000000
00000000
00000001
00000000
00000100
00000000
00000000
00000010
00000000
00000000
,
00000100
00000001
00000100
00000001
00001000
00000010
00001000
00000010
00002000
00000000
00000002
00000000
00000000
00000000
00003003
00000000
,
00000001
00000000
00000001
00000000
00000000
00000100
00000000
00000000
00001000
00000000
00010000
00000000
00000000
01000000
00000000
00000000
,
10000000
00100000
10000000
00100000
01000000
00010000
01000000
00010000
20000000
00000000
00020000
00000000
00000000
00000000
30030000
00000000
,
10000000
00000000
10000000
00000000
00000000
01000000
00000000
00000000
00010000
00000000
00001000
00000000
00000000
00000010
00000000
00000000
,
00000001
00000000
00001000
00000000
00000010
00000100
00000010
00000000
00001000
00000000
00000001
00000000
00000100
00000010
00000100
00000000
,
00001000
00000000
00010000
00000000
01000000
10000000
01000000
00000000
10000000
00000000
01000000
00000000
10000000
01000000
10000000
00000000
,
00010000
00000000
10000000
00000000
00100000
01000000
00100000
00000000
10000000
00000000
00010000
00000000
01000000
00100000
01000000
00000000
,
00100000
00000000
00010000
00001000
00000000
00001000
00000000
00010000
00000100
00000000
00010000
00001000
00000000
00001000
00000000
00010000
,
00001000
00100000
01000000
10000000
01000000
00010000
00001000
00000010
,
00000001
00000000
00000000
00001000
00000000
00000000
00000101
00000000
00000000
00000000
00001000
00000000
00000001
00001000
00000001
00000000
,
00001000
00000100
00000010
00000001
00000100
00001000
00010000
01000000
,
10000000
00000000
00000000
00010000
00000000
00000000
10100000
00000000
00000000
00000000
00010000
00000000
10000000
00010000
10000000
00000000
,
00100000
01000000
00010000
10000000
01000000
00010000
00001000
00000010
,
00000001
00000000
00000000
00000110
00000000
00000000
00002020
00000000
00000000
00000000
00003030
00000000
00000101
00000000
00000000
00000000
,
00001001
00000000
00000001
00001000
00000000
00010000
20000000
00000000
00000000
00000000
30000000
00000000
10000000
00000000
00010000
00000000
,
00002000
00000000
00000000
00003002
00000000
00000000
00000003
00000000
,
00000100
00000000
00000001
00000000
00001000
00000100
00000010
00000001
00000000
00000000
00000000
00000000
00000001
00000010
00000100
00001000
,
00000000
00000000
00000000
00000000
00010000
00100000
01000000
10000000
00000000
00000000
00000000
00000000
10000000
01000000
00100000
00010000
,
00000000
00000000
00000000
00000000
00001000
00000010
00000100
00000001
00000000
00000000
00000000
00000000
00000001
00000100
00000010
00001000
,
00000000
00000000
00000000
00000000
00010000
01000000
00100000
10000000
00000000
00000000
20000000
00000000
00000000
00000000
30010000
00000000
,
10000000
01000000
00000000
10000000
01000000
10000000
00000000
01000000
10000000
01000000
00000000
10000000
01000000
00010000
00001000
00000000
,
00000010
00000000
00000000
00000000
00000000
00000000
00000001
00000000
00001000
00000000
00000001
00000000
00001000
00000000
00000000
00000000
00000000
00000000
00000010
00000000
00000000
00000000
00000000
00000000
00000100
00000000
00000000
00000010
00000000
00000000
00000000
00000000
00000000
00000100
00000000
00000000
00000010
00000000
00000000
00001000
00000000
00000000
00000001
00000000
00000000
00000100
00000000
00000000
,
00000010
00000000
00001000
00000100
00000000
00000001
00000100
00000000
00001000
00000010
00000000
00000100
00001000
00010000
01000000
00000000
,
10000000
00000000
00100000
01000000
00000000
00010000
10000000
00000000
01000000
00100000
00000000
00010000
01000000
00100000
10000000
00010000
,
10000000
01000000
00100000
00010000
01000000
00100000
00010000
00001000
,
00000010
00000000
00000000
00000001
00000000
00000000
00001100
00000000
00000010
00000000
00000000
00000100
00000010
00000100
00000001
00000000
,
00001000
00000010
00000100
00000001
00000010
00001000
00010000
00100000
,
10000000
00000000
00000000
00010000
00000000
00000000
01100000
00000000
10000000
00000000
00000000
00010000
01000000
00010000
10000000
00000000
,
00100000
01000000
00010000
10000000
01000000
00010000
00001000
00000010
,
00000001
00000000
00000000
00001100
00000000
00000000
00000202
00000000
00000000
00000000
00000303
00000000
00000110
00000000
00000000
00000000
,
00000100
00000000
00000001
00001000
00000000
00010000
20000000
00000000
00000000
00000000
30000000
00000000
10000000
00000000
00010000
00000000
,
00002000
00000000
00000000
00003002
00000000
00000000
00000003
00000000
,
00000100
00000001
00000100
00000000
00000010
00001000
00000000
00001000
00000100
00000010
00000000
00000001
00000100
00000000
00000010
00000000
,
00010010
00000000
00000000
00000000
00000100
00000000
00010010
00000000
00010000
00001000
00000000
00001000
00010000
00001000
00000000
00100000
,
01000000
10000000
00000000
00100000
01000000
00010000
00000000
10000000
00010000
10000000
00000000
00100000
01000000
00000000
00010000
00000000
,
00101000
00000000
00000000
00000000
00010000
00000000
00101000
00000000
00001000
00010000
00000000
00000100
00001000
00000000
00000010
00000100
,
00000001
00000000
00001000
00000010
00000000
00000100
00000000
00001000
00010000
00000000
01000000
10000000
00000000
00100000
00000000
00010000
,
00001000
00000000
00010000
00000100
00000000
00001000
00000000
00000010
00000100
00000000
00000001
00000010
00000000
00001000
00000000
00010000
;

//---------------dance-double - ----------------
#NOTES:
     dance-double:
     :
     Medium:
     7:
     0.343173,0.376649,0.090650,0.253819,0.117844,265.000000,255.000000,10.000000,28.000000,0.000000,0.000000,0.343173,0.376649,0.090650,0.253819,0.117844,265.000000,255.000000,10.000000,28.000000,0.000000,0.000000:
00000000
00000000
00000000
00000000
,
00000000
00000000
00000000
00000000
,
00000000
00000000
00000000
00000000
,
00000000
00000000
00000000
00000000
,
10000000
02000000
00000000
03010000
00001000
00000200
00000000
00000301
,
00000010
00000100
00001000
00000010
00000100
00000001
00000010
00000200
,
00000000
00000000
00002300
00000000
00000000
00000000
00003000
00000000
00000010
00000000
00000100
00000000
00000000
00000010
00000000
00000000
,
00000100
00000010
00001000
00000001
00000100
00000010
00010000
00001000
,
00100000
00000000
01000000
00000000
00000000
00100000
00000000
00000000
01000000
00000000
00100000
00000000
00000000
01000000
00000000
00000000
,
00100000
00010000
10000000
01000000
00100000
00001000
00010000
00000200
,
00000000
00000000
00001300
00000000
00000010
00000000
00000000
00000000
00000100
00000000
00000001
00000000
00000000
00000100
00000000
00000000
,
00000001
00000000
00000100
00000000
00000000
00000001
00000000
00000000
00000010
00000000
00000001
00000000
00001000
00000000
00000000
00000000
,
00020200
00000000
00000000
00000000
00030300
00000000
00000000
00000000
00010000
00000000
00001000
00000000
00000000
00100000
00000000
00000000
,
00001000
00000000
00010000
00000000
00000000
00000100
00000000
00000000
00010000
00000000
00001000
00000000
00000000
00100000
00000000
00000000
,
01000000
10000000
01000000
10000000
01000000
00200000
00000000
00300000
,
00010000
00100000
00000000
00100000
00001000
00010000
00000000
00000100
,
00001000
00000010
00001000
00000010
00000100
00000002
00000000
00000003
,
00001000
00000000
00000001
00000000
00000000
00001000
00000000
00000000
00000001
00000000
00001000
00000000
00000000
00000001
00000000
00000000
,
00000100
00000010
00000000
00000000
00000100
00000010
00000000
00000000
,
00010000
00001000
00000000
00000000
00001000
00100000
00000000
00000000
,
01000000
10000000
00000000
00000000
01000000
10000000
00000000
00000000
,
11000000
00100000
01010000
00100000
,
10000000
00010000
10000000
01000000
10000000
00010000
10000000
01000000
,
10000000
00000000
00000000
00010000
00000000
00000000
10000000
00000000
00000000
00000000
00000000
00000000
00000000
00000000
00000000
00000000
,
00100000
00001000
00100000
00010000
00100000
00001000
00100000
00010000
,
00100000
00000000
00000000
00001000
00000000
00000000
00010000
00000000
00000000
00000000
00000000
00000000
00000000
00000000
00000000
00000000
,
00000100
00000010
00000100
00001000
00000100
00000010
00000100
00001000
,
00000100
00000000
00000000
00000010
00000000
00000000
00000001
00000000
00000000
00000000
00000000
00000000
00001001
00000000
00000000
00000000
,
00000100
00000000
00000010
00000100
00000000
00000010
00000200
00000000
00000000
00000000
00000300
00000000
00000001
00000000
00001000
00000000
,
00000200
00000000
00000300
00020000
00000000
00030000
00000000
00000000
,
00002000
00000000
00203000
00000000
02300000
00000000
13000000
00100000
,
01000000
00020000
00000000
20030000
00000000
30000000
00000000
00000000
,
01100000
00000000
10010000
00000000
10000000
02000000
00000000
03020000
,
00000000
00030000
00000000
00002000
00000000
00003020
00000000
00000031
,
00001000
00000000
00000010
00000000
00001000
00000000
00000001
00000100
,
00000010
00000000
00010000
00001000
00100000
00000000
11000000
00000000
,
00100000
00000000
00010000
00000000
10000000
01000000
00100000
00000000
,
00010000
01000000
00100000
00000000
10000000
01000000
00010000
00001000
,
00000010
00000001
00000010
00000100
00000010
00000001
00000010
00000100
,
00000010
00000000
00000000
00000001
00000000
00000000
00001000
00000000
00000000
00000000
00000000
00000000
00000000
00000000
00000000
00000000
,
00000100
00010000
00000100
00001000
00000100
00010000
00000100
00001000
,
00000100
00000000
00000000
00010000
00000000
00000000
00001000
00000000
00000000
00000000
00000000
00000000
00000000
00000000
00000000
00000000
,
00100000
00010000
00100000
01000000
00100000
00010000
00100000
01000000
,
10000000
00000000
00000000
00100000
00000000
00000000
01000000
00000000
00000000
00000000
00000000
00000000
10010000
00000000
00000000
00000000
,
10000000
00000000
00100000
01000000
00000000
00100000
02000000
00000000
00000000
00000000
03000000
00000000
00100000
00000000
10000000
00000000
,
02000000
00000000
03000000
00200000
00000000
00300000
00000000
00000000
,
00001000
00010000
00001100
00000010
,
00000002
00000000
00000103
00002000
00000000
00003000
00010000
01000000
,
10000000
00010000
10100000
01000000
,
00020000
00000000
00031000
00000020
00000000
00000030
00000000
00000000
,
00000001
00000000
00001000
00000010
00000000
00000000
00000000
00000000
00000100
00000000
00000010
00010000
00000000
00000000
00000000
00000000
,
00010000
00000000
00001000
00100000
00000000
00000000
00000000
00000000
01000000
00000000
10000000
00100000
00000000
01000000
00000000
00010000
;
