#TITLE:Up!;
#SUBTITLE:(The Dance Remix);
#ARTIST:TK;
#TITLETRANSLIT:;
#SUBTITLETRANSLIT:;
#ARTISTTRANSLIT:;
#GENRE:Dance;
#CREDIT:;
#BANNER:up-bn.png;
#BACKGROUND:up-bg.png;
#LYRICSPATH:;
#CDTITLE:;
#MUSIC:Up! (The Dance Remix).ogg;
#OFFSET:-0.020000;
#SAMPLESTART:34.759998;
#SAMPLELENGTH:12.000000;
#SELECTABLE:YES;
#BPMS:0.000000=138.000000
;
#STOPS:
;
#BGCHANGES:;
#KEYSOUNDS:;
#ATTACKS:;

//---------------dance-single - ----------------
#NOTES:
     dance-single:
     :
     Challenge:
     8:
     0.524268,0.592826,0.352872,0.020164,0.262134,364.000000,329.000000,35.000000,2.000000,0.000000,0.000000,0.524268,0.592826,0.352872,0.020164,0.262134,364.000000,329.000000,35.000000,2.000000,0.000000,0.000000:
// measure 0
0000
0000
0000
0000
,  // measure 1
0000
0000
0000
0000
,  // measure 2
0000
0000
0000
0000
,  // measure 3
0110
0000
0000
0000
,  // measure 4
0010
0000
1000
0000
0010
1000
0000
0010
0000
0000
0000
0000
0100
0001
0000
0100
,  // measure 5
0000
0000
0000
0000
0001
0010
0000
0001
0000
0000
0000
0000
0010
0100
0000
1000
,  // measure 6
0000
0000
0000
0000
0100
1000
0000
0100
0000
0000
0000
0000
1000
0010
0000
1000
,  // measure 7
0000
0000
0000
0000
0001
1000
0000
0001
0000
0000
0000
0000
0100
0010
0000
1000
,  // measure 8
0000
0000
0000
0000
0010
0100
0000
0001
0000
0000
0000
0000
0001
1000
0000
0010
,  // measure 9
0000
0000
0000
0000
0100
0001
0000
1000
0000
0000
0000
0000
0010
1000
0000
0100
,  // measure 10
0000
0000
0000
0000
1000
0010
0000
1000
0000
0000
0000
0000
0001
0100
0000
0001
,  // measure 11
0000
0000
0000
0000
1000
0100
0010
0001
,  // measure 12
0100
0000
0010
0000
0100
0000
0001
1000
0000
0001
1000
0000
0100
0000
0010
0000
,  // measure 13
0000
0001
1000
0001
0000
1000
0100
1000
,  // measure 14
0000
0000
0010
0000
1000
0000
0010
0100
0000
0010
0100
0000
0010
0000
1000
0000
,  // measure 15
0000
0100
0010
0100
0000
0010
0001
0010
,  // measure 16
0000
0000
0001
0000
0010
0000
0100
1000
0000
0100
1000
0000
0001
0000
0010
0000
,  // measure 17
0000
0000
1000
0000
0100
0000
0010
0001
0000
0010
0001
0000
1000
0000
0100
0000
,  // measure 18
1000
0000
0010
0001
0010
0000
1000
0001
,  // measure 19
1001
0000
0110
0000
1001
0001
1000
0001
,  // measure 20
0011
0000
1010
0000
0011
0000
0001
0100
,  // measure 21
0000
1000
0100
0001
0000
0000
0100
1000
,  // measure 22
0000
0000
1010
0000
0011
0000
1000
0100
,  // measure 23
0000
0001
0000
0100
0000
1000
0100
0001
,  // measure 24
0100
0000
0011
0000
1010
0000
1000
0001
,  // measure 25
0000
0010
0100
0010
0000
0000
0001
1000
,  // measure 26
0100
0010
0001
0000
0010
0100
1000
0000
,  // measure 27
1000
0010
0100
0001
0100
0010
1000
0001
,  // measure 28
1000
0000
0100
0000
1000
0100
1000
0000
0100
0000
1000
0000
0100
1000
0100
0000
,  // measure 29
0010
0000
0100
0000
0010
0100
0010
0000
0100
0000
0010
0000
0100
0010
0100
0000
,  // measure 30
0010
0000
0001
0000
0010
0001
0010
0000
0001
0000
0010
0000
0001
0010
0001
0000
,  // measure 31
1000
0010
0100
0010
0001
0010
0100
0010
,  // measure 32
0000
2001
0000
0010
0000
0010
0000
3001
,  // measure 33
0000
0100
0010
0100
1000
0100
0010
0000
,  // measure 34
0100
0000
1002
0000
0000
0010
0000
0013
,  // measure 35
0000
1000
0100
1000
0010
1000
0001
1000
,  // measure 36
1001
0000
0000
0001
0100
0001
0010
0001
,  // measure 37
1001
1000
0010
1000
0100
1000
0001
1000
,  // measure 38
1001
0000
0010
0100
0101
0000
0100
0010
,  // measure 39
1010
1001
0110
0101
,  // measure 40
1000
0000
0100
0000
0010
0000
0100
1000
0000
0100
1000
0000
0010
0000
0000
0000
,  // measure 41
0100
0000
0001
0000
0010
0000
0001
0100
0000
0001
0100
0000
0010
0000
0000
0000
,  // measure 42
0100
0000
0001
0000
1000
0000
0010
0100
0000
0010
0100
0000
0001
0000
0000
0000
,  // measure 43
0100
0000
1000
0000
0100
0000
0001
0010
0000
0001
0010
0000
0100
0000
0000
0000
,  // measure 44
1010
0000
0011
0000
1010
0000
1000
0100
,  // measure 45
0000
0010
1000
0010
0000
0000
0001
0100
,  // measure 46
0000
0000
1010
0000
0011
0000
0100
0010
,  // measure 47
0000
0001
0000
0010
0000
1000
0001
0100
,  // measure 48
1000
0000
0011
0000
1010
0000
0010
0100
,  // measure 49
0000
0001
0100
1000
0000
0000
0100
0001
,  // measure 50
0100
1000
0100
0001
0100
1000
0100
0001
,  // measure 51
1000
0000
0010
0000
0000
0000
0100
0000
0001
1000
0001
1000
0001
0000
0010
0000
,  // measure 52
1001
0000
1001
0010
0000
0000
0000
0010
,  // measure 53
1100
0000
1100
0010
0000
0000
0000
0010
,  // measure 54
0101
0000
0101
0010
0000
1001
0000
0100
,  // measure 55
0000
0010
0010
0000
0100
1000
0010
0000
,  // measure 56
0001
0000
0000
0000
;

//---------------dance-single - ----------------
#NOTES:
     dance-single:
     :
     Hard:
     8:
     0.483939,0.592826,0.302462,0.211723,0.236929,336.000000,306.000000,30.000000,21.000000,0.000000,0.000000,0.483939,0.592826,0.302462,0.211723,0.236929,336.000000,306.000000,30.000000,21.000000,0.000000,0.000000:
0000
0000
0000
0000
,
0000
0000
0000
0000
,
0000
0000
0000
0000
,
1200
0000
0000
0300
,
0010
0000
0100
0000
1000
0001
0000
0001
0000
0000
0000
0000
0010
0100
0000
0100
,
0000
0000
0000
0000
1000
0010
0000
0010
0000
0000
0000
0000
0100
0001
0000
0001
,
0000
0000
0000
0000
0010
0100
0000
0100
0000
0000
0000
0000
1000
0100
0000
0100
,
0000
0000
0000
0000
0010
0001
0000
0001
0000
0000
0000
0000
1000
0100
0000
0010
,
0000
0000
0000
0000
0001
0010
0000
0100
0000
0000
0000
0000
1000
0100
0000
0010
,
0000
0000
0000
0000
0001
0010
0000
0100
0000
0000
0000
0000
1000
0100
0000
0010
,
0000
0000
0000
0000
0001
0100
0000
0100
0000
0000
0000
0000
1000
0100
0000
0100
,
0000
0000
0000
0000
0100
0010
1000
0001
,
1000
0000
0000
0000
0000
0000
0010
0000
0000
0100
0000
0000
0010
0000
0010
0000
,
0000
0100
0000
0010
0000
0001
0000
1000
,
0001
0000
0000
0000
0100
0000
0001
0000
0000
1000
0000
0000
0001
0000
0001
0000
,
0000
0100
0000
1000
0000
0100
0000
0001
,
1000
0000
0000
0000
0000
0000
1000
0000
0000
0100
0000
0000
0001
0000
0100
0000
,
0001
0000
0000
0000
0000
0000
0001
0000
0000
0100
0000
0000
1000
0000
0100
0000
,
1000
0000
1100
1000
0100
0000
1001
0001
,
0010
0000
0010
0000
0100
0010
0100
0001
,
0011
0000
1010
0000
0011
0000
0001
0200
,
0000
0310
1000
0020
0000
0030
0001
0100
,
0010
0000
1010
0000
0011
0000
1000
0200
,
0000
0320
0000
2030
0000
3020
0001
0031
,
0100
0000
0011
0000
1010
0000
0001
0200
,
0000
0310
0100
0020
0000
0030
1000
0001
,
1000
0100
0001
0000
0001
0100
1000
0000
,
0001
0100
1000
0100
0001
0100
1000
0100
,
0001
0000
0010
0000
0100
1000
0100
0000
1000
0000
0100
0000
0010
0001
0010
0000
,
0001
0000
0100
0000
0010
1000
0010
0000
1000
0000
0010
0000
0100
0001
0100
0000
,
0001
0000
1000
0000
0010
0100
0010
0000
1000
0000
0001
0000
0100
0010
0100
0000
,
0001
0000
0010
0000
0100
1000
0100
0000
1000
0000
1000
0000
0001
0000
0001
0000
,
0200
0010
0000
0010
0000
0010
0000
0310
,
0000
1000
0000
0001
0000
1000
0000
0001
,
0020
0100
0000
0100
0000
0100
0000
0130
,
0000
1000
0000
0001
0000
1000
0000
0001
,
0100
1000
0000
0100
0001
0100
0000
0001
,
0010
1000
0000
0010
1000
0010
0000
0001
,
0100
0000
1000
0100
1100
0000
0001
0100
,
0101
1001
1010
0110
,
2000
0000
0000
0000
0000
0000
0001
0000
0000
0001
0000
0000
3001
0000
0100
0000
,
0002
0000
0000
0000
0000
0000
0010
0000
0000
0010
0000
0000
0013
0000
0001
0000
,
0200
0000
0000
0000
0000
0000
0010
0000
0000
0010
0000
0000
0310
0000
1000
0000
,
0001
0000
0000
1000
0010
0000
0000
0100
0001
0000
0000
1000
0010
0000
0000
0000
,
1010
0000
0011
0000
1010
0000
0001
0200
,
0000
0310
0001
0020
0000
0030
1000
0001
,
1000
0000
1010
0000
0011
0000
0100
2000
,
0000
3200
0000
0302
0000
0013
1000
0010
,
0001
0000
0011
0000
1010
0000
1000
0200
,
0000
0310
0001
0020
0000
0030
0100
1000
,
0010
0001
0010
1000
0100
0001
0100
1000
,
0001
0000
1001
0000
0000
0000
0010
0000
0100
0010
0100
0010
0100
0000
0010
0000
,
1000
0000
1000
0110
0000
1001
0000
0010
,
0001
0000
0001
0110
0000
1001
0000
0010
,
1000
0000
0001
0010
0100
1000
0010
0100
,
0001
1000
1010
0000
0100
0001
0011
0000
,
1001
0000
0000
0000
;

//---------------dance-single - ----------------
#NOTES:
     dance-single:
     :
     Medium:
     5:
     0.321186,0.423447,0.221805,0.060492,0.000000,223.000000,201.000000,22.000000,6.000000,0.000000,0.000000,0.321186,0.423447,0.221805,0.060492,0.000000,223.000000,201.000000,22.000000,6.000000,0.000000,0.000000:
0000
0000
0000
0000
,
0000
0000
0000
0000
,
0000
0000
0000
0000
,
0020
0001
0001
0031
,
0011
1000
0011
1000
,
0011
0000
0100
0010
1000
0010
0100
0000
,
1100
0001
1100
0001
,
1100
0000
0010
0100
0001
0100
0010
0000
,
1001
0110
1000
0001
,
0110
1001
0010
0010
,
0100
0001
0000
1000
,
0000
0000
0100
1000
0001
1000
0100
0000
,
1000
0000
0001
1000
0000
1000
0001
0000
,
0000
0000
0010
0001
1000
0001
0010
0000
,
0001
0000
1000
0001
0000
0001
1000
0000
,
0000
0010
0010
0100
,
0100
1001
0010
0100
,
1001
0010
0100
1000
,
0001
0000
0101
0000
,
1010
1100
0011
0101
,
0010
0000
0010
0000
0010
0000
1000
0001
,
0000
0001
1000
0000
0000
0000
0010
0100
,
0010
0000
0010
0000
0010
0000
1000
0100
,
0000
0010
0000
0001
0000
1000
0001
0000
,
0001
0000
0010
0000
0010
0000
0100
1000
,
0000
0000
0010
1000
0000
0000
0100
1000
,
0000
0000
0000
0000
,
0010
0010
0100
0100
,
0002
0000
1000
1000
,
2003
0000
0000
0010
,
3010
0000
0000
0000
,
0000
0000
0100
0000
0010
0000
0100
0001
,
0000
0001
0000
0000
0000
0000
0000
0000
,
0000
0010
0100
0010
,
0100
0100
0000
0000
,
0000
1000
0010
0100
,
0101
0000
0001
0010
,
0110
0000
0100
1000
,
1100
0000
1010
0000
,
0100
0001
0010
0100
,
2000
0000
0010
3100
,
0002
0000
0100
0013
,
2000
0000
0001
3010
,
0001
0100
0010
1000
,
0010
0000
0010
0000
0010
0000
0100
0001
,
0000
0001
0010
0000
0000
0000
0010
0100
,
0010
0000
0010
0000
0010
0000
0001
1000
,
0000
0100
0000
0010
0000
0100
1000
0000
,
1000
0000
0010
0000
0010
0000
0100
0001
,
0000
0000
0010
0001
0000
0000
0100
0001
,
0100
0000
0010
0000
,
1000
0010
0000
0010
0100
0010
0000
0100
,
0001
0000
0001
0010
0000
0000
0000
0100
,
1000
0000
1000
0010
0000
0000
0000
0100
,
0001
0000
0001
0010
0000
0100
0000
1000
,
0000
0010
0100
0000
0001
1000
0001
0000
,
0110
0000
0000
0000
;

//---------------dance-single - ----------------
#NOTES:
     dance-single:
     :
     Easy:
     4:
     0.283738,0.338757,0.080657,0.120985,0.000000,197.000000,189.000000,8.000000,12.000000,0.000000,0.000000,0.283738,0.338757,0.080657,0.120985,0.000000,197.000000,189.000000,8.000000,12.000000,0.000000,0.000000:
0000
0000
0000
0000
,
0000
0000
0000
0000
,
0000
0000
0000
0000
,
0020
0000
0000
0000
,
0031
0100
0001
0010
,
0001
0100
0001
0010
,
0100
1000
0100
0010
,
0100
1000
0100
0010
,
0010
0010
0001
0001
,
1000
1000
0100
0100
,
1000
0010
1000
0100
,
1000
0010
1000
0100
,
0020
0000
0001
0031
,
0011
0000
0100
1000
,
0200
0000
1000
1300
,
1100
0000
1000
0001
,
1000
0000
0010
0100
,
0010
1000
0001
1000
,
1001
0000
0110
0000
,
0001
1000
0010
0100
,
0010
0010
0010
1000
,
0001
0010
0010
0001
,
1000
0010
0010
1000
,
0001
1000
0001
1000
,
0010
0010
0010
0001
,
0100
0010
1000
0100
,
0010
0000
0001
0000
,
0100
0010
1000
0010
,
0200
0001
0010
0010
,
0001
0010
0001
0001
,
0310
0001
1000
0010
,
0100
0001
1000
0001
,
0011
1001
0010
0010
,
0100
1000
0100
1000
,
1100
1001
0100
0100
,
0001
0010
0100
1000
,
0010
0100
0010
0100
,
0001
0010
0100
1000
,
0010
0100
0001
1000
,
0010
0010
0100
0100
,
0002
0000
1000
1003
,
0200
0000
0010
0310
,
0200
0000
1000
1300
,
0010
0100
0001
1000
,
0010
0010
0010
0100
,
0001
0010
0010
0001
,
0100
0010
0010
1000
,
0100
0001
0100
0010
,
0100
0010
0010
0100
,
1000
0010
0100
0001
,
0020
0000
0230
0000
,
1300
0000
0001
0001
,
0002
0000
0000
0013
0000
0000
0000
0000
,
2000
0000
0000
3010
0000
0000
0000
0000
,
0002
0000
0000
0013
0000
0000
0000
0000
,
0100
1000
0100
1000
,
0010
0000
0000
0000
;

//---------------dance-single - ----------------
#NOTES:
     dance-single:
     :
     Beginner:
     2:
     0.168515,0.225838,0.040328,0.000000,0.000000,117.000000,113.000000,4.000000,0.000000,0.000000,0.000000,0.168515,0.225838,0.040328,0.000000,0.000000,117.000000,113.000000,4.000000,0.000000,0.000000,0.000000:
0000
0000
0000
0000
,
0000
0000
0000
0000
,
0000
0000
0000
0000
,
0110
0000
0000
0000
,
1000
1000
0000
1000
,
0000
0000
0010
0010
,
0000
0100
0000
0100
,
0000
0001
0001
0001
,
0000
0001
0000
0001
,
0000
0010
0000
0010
,
0000
0100
0000
0100
,
0000
0100
0000
0000
,
1000
0000
1001
0000
,
0000
0000
0000
0000
,
0001
0000
1001
0000
,
0000
0000
0010
0010
,
0010
0000
0100
0100
,
0100
0000
1000
0000
,
0001
0000
1000
0000
,
0100
0100
0100
0000
,
0010
0010
0010
0000
,
0001
0000
1000
0000
,
0000
0010
0010
0000
,
0001
0000
1000
0000
,
0000
0010
0010
0000
,
0001
0000
0010
0000
,
0100
0000
0000
0000
,
1000
0000
0100
0000
,
0010
0000
0100
0100
,
0100
0000
0000
1000
,
1000
0000
0000
0000
,
0000
0010
0010
0010
,
0010
0000
0000
0000
,
0000
0100
0100
0100
,
0100
0000
0000
0000
,
0000
0001
0001
0001
,
0001
0000
1000
1000
,
1000
0000
0010
0010
,
0010
0000
0100
0000
,
0010
0010
0010
0010
,
0010
0000
0000
0000
,
0001
0000
0000
0000
,
1000
0000
0000
0000
,
0100
0000
0000
0000
,
0010
0010
0010
0000
,
0001
0000
1000
0000
,
0000
0010
0010
0000
,
0001
0000
1000
0000
,
0000
0010
0010
0000
,
0001
0000
1000
0000
,
0010
0000
0001
0000
,
0100
0000
1000
0000
,
0010
0010
0010
0000
,
0010
0010
0010
0000
,
0010
0010
0010
0010
,
0010
0010
0000
0000
,
0110
0000
0000
0000
;

//---------------dance-double - ----------------
#NOTES:
     dance-double:
     :
     Easy:
     4:
     0.269335,0.338757,0.110903,0.020164,0.000000,187.000000,176.000000,11.000000,2.000000,0.000000,0.000000,0.269335,0.338757,0.110903,0.020164,0.000000,187.000000,176.000000,11.000000,2.000000,0.000000,0.000000:
00000000
00000000
00000000
00000000
,
00000000
00000000
00000000
00000000
,
00000000
00000000
00000000
00000000
,
00000110
00000000
00000000
00000000
,
00000000
00001000
00010000
00001000
,
00100000
00010000
01000000
00010000
,
00100000
01000000
10000000
01000000
,
00100000
00010000
01000000
00001000
,
00010000
00000100
00001000
00000010
,
00000100
00000001
00000010
00000100
,
00001000
00010000
00000000
00100000
,
00000000
01000000
10000000
01000000
,
00100000
00000000
00001000
00010000
,
00011000
00000000
00000000
00000000
,
00000100
00001000
00000100
00001100
,
00000000
00000010
00000001
00000010
,
00000001
00000000
00000100
00000010
,
00000100
00000010
00010000
00000010
,
00010000
00000000
00000100
00000000
,
00010000
00001000
00010000
00001000
,
00100000
00100000
00100000
00001000
,
00010000
00000010
00000000
00000100
,
00001000
00000010
00000010
00000100
,
00000001
00000010
00000100
00001000
,
00000010
00000010
00000010
00010000
,
00001000
00100000
00010000
01000000
,
00100000
00000000
10000000
00000000
,
01000000
10000000
10000000
01000000
,
00200000
00000000
00010000
00010000
,
00320000
00000000
00000000
00001000
,
00031000
00000000
00000000
00000000
,
00000000
00000100
00001000
00000100
,
00000010
00000001
00000100
00000010
,
00001000
00000100
00010000
00001000
,
01000000
00010000
00100000
00000000
,
00000000
01000000
10000000
01000000
,
00100000
00000000
00001000
00010000
,
00001000
00000100
00000010
00000001
,
00000010
00000000
00001100
00000000
,
00011000
00110000
01100000
10000000
,
01000000
00100000
00010000
00001000
,
00000000
00000100
00001000
00000010
,
00000100
00000000
00000001
00000010
,
00000100
00001000
00010000
01000000
,
00100000
00100000
00100000
10000000
,
01000000
00100000
00010000
00001000
,
00000100
00000010
00000010
00000001
,
00000100
00000010
00010000
00000010
,
00010000
00000010
00000010
00001000
,
00000100
00010000
00001000
00100000
,
00010000
00000000
01000000
00000000
,
00100000
00000000
10000000
01000000
,
00100000
00001000
00011000
00000000
,
00000100
00010000
00011000
00000000
,
00100000
00001000
00011000
00000000
,
00001000
00010000
00001000
00010000
,
00011000
00000000
00000000
00000000
;

//---------------dance-double - ----------------
#NOTES:
     dance-double:
     :
     Medium:
     5:
     0.347111,0.423447,0.131067,0.000000,0.000000,241.000000,228.000000,13.000000,0.000000,0.000000,0.000000,0.347111,0.423447,0.131067,0.000000,0.000000,241.000000,228.000000,13.000000,0.000000,0.000000,0.000000:
00000000
00000000
00000000
00000000
,
00000000
00000000
00000000
00000000
,
00000000
00000000
00000000
00000000
,
00011000
00000000
00000000
00000000
,
00000100
00001000
00000100
00000000
00010000
00001000
00010000
00000000
,
00100000
00100000
00001000
00010000
,
00000100
00000000
00001000
00000100
00001000
00000000
00010000
00001000
,
00010000
00100000
00100000
00010000
,
01000000
00100000
10000000
10000000
,
01000000
00000000
00100000
00001000
00100000
00000000
00001000
00010000
,
00001000
00010000
00000100
00010000
,
00000100
00001000
00001000
00000100
,
00000010
00000000
00000001
00000100
00000001
00000000
00001000
00000010
,
00001000
00000010
00000010
00010000
,
00010000
00000000
00001000
00010000
00001000
00000000
00100000
00010000
,
00100000
00001000
01000000
00100000
,
01100000
00010000
10000000
00010000
,
10010000
01000000
00001000
00010000
,
00000100
00000000
00011000
00000000
,
00010100
00000000
00001000
00000000
00000010
00000100
00000010
00000000
,
00000010
00000000
00000010
00000000
00000010
00000000
00000001
00001000
,
00000100
00000000
00010000
00000000
00001000
00000000
00100000
00010000
,
01000000
00000000
00100000
00000000
00100000
00000000
10000000
01000000
,
00000000
00100000
00000000
00010000
00000000
00100000
01000000
10000000
,
00100000
00000000
00100000
00000000
00100000
00000000
01000000
00001000
,
00000000
00001000
00010000
00001000
00000000
00010000
00000100
00010000
,
00000000
00000100
00000000
00001000
,
00000000
00000010
00000100
00000001
,
00001000
00000000
00000100
00000100
,
00010100
00000000
00100000
00100000
,
00101000
00000000
00000000
00000000
,
00010000
01000000
10000000
01000000
,
00010000
10000000
00100000
00010000
,
00100000
10000000
01000000
00100000
,
00010000
00001000
00000100
00000010
,
00000001
00000100
00001000
00000100
,
00000001
00000010
00001000
00000010
,
00000001
00000100
00000010
00001000
,
00000100
00010000
00001000
00100000
,
00110000
00101000
00110000
01010000
,
00100000
10000000
01000000
00100000
00010000
00000000
00000000
00000000
,
01000000
00001000
00010000
00000100
00001000
00000000
00000000
00000000
,
00000010
00000100
00000001
00001000
00000010
00000000
00000000
00000000
,
00001000
00000100
00010000
00001000
00100000
00000000
00000000
00000000
,
00100000
00000000
00100000
00000000
00100000
00000000
00001000
00010000
,
00000000
00000100
00001000
00000100
00000000
00000000
00000001
00000100
,
00000000
00000000
00000010
00000000
00000010
00000000
00001000
00000100
,
00000000
00010000
00000000
00001000
00000000
00100000
00010000
00100000
,
00000000
00000000
00100000
00000000
00100000
00000000
00010000
01000000
,
00000000
00100000
10000000
00100000
00000000
00000000
10000000
01000000
,
10000000
00000000
01100000
00000000
,
00100000
00010000
00000000
00001000
00010000
00000000
00000100
00001000
,
00000100
00000000
00001000
00000010
00000000
00000000
00000000
00000100
,
00000001
00000000
00000001
00000010
00000000
00000000
00000000
00000100
,
00001000
00000000
00001000
00000100
00000000
00010000
00000000
00001000
,
00000000
00100000
00010000
00000000
01000000
00100000
10000000
00000000
,
10010000
00000000
00000000
00000000
;

//---------------dance-double - ----------------
#NOTES:
     dance-double:
     :
     Hard:
     8:
     0.460895,0.479906,0.161313,0.000000,0.181477,320.000000,304.000000,16.000000,0.000000,0.000000,0.000000,0.460895,0.479906,0.161313,0.000000,0.181477,320.000000,304.000000,16.000000,0.000000,0.000000,0.000000:
00000000
00000000
00000000
00000000
,
00000000
00000000
00000000
00000000
,
00000000
00000000
00000000
00000000
,
00011000
00000000
00001000
00010000
00001000
00000000
00010000
00000100
,
00010000
00000000
00000000
00000000
00000100
00001000
00000000
00001000
00000000
00000000
00000000
00000000
00000010
00000100
00000000
00000100
,
00000000
00000000
00000000
00000000
00000001
00000010
00000000
00000010
00000000
00000000
00000000
00000000
00000100
00001000
00000000
00001000
,
00000000
00000000
00000000
00000000
00000100
00010000
00000000
00010000
00000000
00000000
00000000
00000000
00001000
00100000
00000000
00100000
,
00000000
00000000
00000000
00000000
00010000
00100000
00000000
01000000
00000000
00000000
00000000
00000000
10000000
01000000
00000000
00100000
,
00000000
00000000
00000000
00000000
00010000
00100000
00000000
00001000
00000000
00000000
00000000
00000000
00010000
00000100
00000000
00001000
,
00000000
00000000
00000000
00000000
00000010
00000100
00000000
00000001
00000000
00000000
00000000
00000000
00000010
00000100
00000000
00001000
,
00000000
00000000
00000000
00000000
00000100
00010000
00000000
00001000
00000000
00000000
00000000
00000000
00010000
00001000
00000000
00100000
,
00000000
00000000
00000000
00000000
00010000
00100000
01000000
10000000
,
00100000
00000000
00000000
00000000
00000000
00000000
01000000
00001000
00000000
01000000
00001000
00000000
00010000
00000000
00001000
00000000
,
00000000
00010000
00000000
00000010
00000000
00000100
00000000
00000001
,
00000000
00000000
00001000
00000000
00000000
00000000
00000100
00001000
00000000
00000100
00001000
00000000
00000010
00000000
00000100
00000000
,
00000000
00000010
00000000
00001000
00000000
00000100
00000000
00010000
,
00001000
00010000
00000000
00001000
00100000
00001000
00000000
00010000
,
00001000
00010000
00000000
00001000
01000000
00100000
10000000
01000000
,
00100000
00010000
01000000
00000000
00100000
10000000
01000000
00000000
,
00100000
00101000
00000100
00010100
,
00000010
00000000
00000010
00000000
00000010
00000000
00000100
00000001
,
00000000
00000001
00000010
00001000
00000000
00000000
00010000
00100000
,
00000000
00000000
00100000
00000000
00100000
00000000
10000000
01000000
,
00000000
00100000
00000000
00010000
00000000
00001000
00010000
00001000
,
00010000
00000000
00000010
00000000
00000010
00000000
00000100
00000001
,
00000000
00000010
00000100
00001000
00000000
00000000
00000100
00010000
,
00010100
00000000
00001000
00100000
00101000
00000000
00010000
01000000
,
00100000
10000000
00000000
01000000
00001000
00010000
00000100
00001000
,
00000010
00000100
00000010
00000100
00000010
00001000
00000010
00001000
,
00000100
00010000
00000100
00010000
00001000
00010000
00001000
00010000
,
00001000
01000000
00001000
01000000
00100000
01000000
00100000
01000000
,
00100000
10000000
01000000
00100000
00010000
00001000
00000100
00000010
,
00000001
00001000
00000100
00000000
00010000
00001000
00010000
00000000
,
00100000
00010000
01000000
00000000
00100000
10000000
01000000
00000000
,
00010000
01000000
10000000
00000000
00100000
01000000
00010000
00000000
,
00001000
00010000
00000010
00000000
00000100
00000010
00000100
00000000
,
00000001
00000100
00001000
00000000
00010000
01000000
10000000
01000000
,
00010000
00001000
00000100
00000001
00000100
00001000
00000010
00000100
,
00000001
00000000
00000010
00000100
00001000
00000000
00000100
00010000
,
00001000
00000000
00011000
00000000
00100000
00010000
01000000
00100000
,
10000000
00000000
00000000
00000000
00000000
00000000
01000000
00000000
00000000
00010000
00000000
00000000
00100000
00000000
00000000
00000000
,
00011000
00000000
00000000
00000000
00000000
00000000
00001000
00000000
00000000
00010000
00000000
00000000
00000100
00000000
00000000
00000000
,
00001100
00000000
00000000
00000000
00000000
00000000
00000100
00000000
00000000
00001000
00000000
00000000
00000010
00000000
00000000
00000000
,
00000101
00000000
00000000
00000010
00001000
00000100
00010000
00001000
,
00100000
00000000
00100000
00000000
00100000
00000000
00010000
01000000
,
00000000
00100000
10000000
01000000
00100000
00000000
00010000
01000000
,
00001000
00000000
00100000
00000000
00100000
00000000
00001000
00010000
,
00000000
00000100
00000000
00001000
00000000
00000010
00000100
00000001
,
00000010
00000000
00000010
00000000
00000010
00000000
00001000
00010000
,
00000000
00100000
10000000
00010000
00000000
00000000
00010000
01000000
,
00100000
10000000
01000000
00000000
00010000
00100000
00010000
00000000
,
00100000
00000000
00001000
00000000
00000000
00000000
00100000
00000000
00001000
00010000
00001000
00000000
00010000
00000000
00000010
00000000
,
00001100
00000000
00001100
00000010
00000000
00000000
00000000
00000010
,
00000101
00000000
00000101
00000010
00000000
00000000
00000000
00000010
,
00011000
00000000
00011000
00100000
00000000
01000000
00000000
10000000
,
00000000
00100000
01000000
00000000
00000000
00100000
00001000
00000000
,
00010100
00000000
00000000
00000000
;

//---------------dance-double - ----------------
#NOTES:
     dance-double:
     :
     Challenge:
     8:
     0.567476,0.564596,0.433529,0.000000,0.131067,394.000000,351.000000,43.000000,0.000000,0.000000,0.000000,0.567476,0.564596,0.433529,0.000000,0.131067,394.000000,351.000000,43.000000,0.000000,0.000000,0.000000:
00000000
00000000
00000000
00000000
,
00000000
00000000
00000000
00000000
,
00000000
00000000
00000000
00000000
,
00010100
00000000
00000100
00010000
00001000
00010000
00000010
00000100
,
00000001
00000000
00000000
00000000
00000010
00000100
00000000
00000100
00000000
00000000
00000000
00000000
00001000
00010000
00000000
00010000
,
00001000
00000000
00010000
00001000
00100000
00010000
01000000
00100000
,
10000000
00000000
01000000
00000000
00100000
00010000
00000000
00010000
00000000
00000000
00000000
00000000
00010000
00000100
00000000
00000100
,
00000000
00000000
00000100
00010000
00000010
00000100
00000001
00000010
,
00000011
00000000
00001100
00000000
00000100
00010000
00001000
00100000
,
00110000
00000000
00010000
01000000
10000000
01000000
00010000
00100000
,
00001000
00000000
00000000
00000000
00100000
00001000
00000000
00001000
00000000
00000000
00000000
00000000
00010000
00000100
00000000
00000100
,
00000000
00000000
00001000
00000010
00000100
00000001
00000010
00000100
,
00001000
00000000
00000000
00000000
00000000
00000000
00010000
00001000
00000000
00010000
00001000
00000000
00100000
00000000
00010000
00000000
,
00000000
01000000
00100000
10000000
01000000
00100000
00010000
00100000
,
00001000
00000000
00010000
00000000
00000100
00000000
00001000
00000010
00000000
00001000
00000010
00000000
00000100
00000000
00000001
00000000
,
00000000
00000010
00000100
00001000
00010000
00100000
01000000
10000000
,
10100000
00000000
01000000
00010000
00100000
00001000
00010000
00000100
,
00001100
00000000
00000010
00000100
00000001
00000010
00000100
00001000
,
00001100
00000000
00010000
00001000
00011000
00000000
00100000
00010000
,
00110000
00000000
01010000
00000000
00100000
00100000
10000000
10000000
,
10100000
00000000
00110000
00000000
10100000
00000000
01000000
00001000
,
00000000
00010000
00000100
00001000
00000000
00000000
00000010
00000100
,
00000010
00000000
00000011
00000000
00001010
00000000
00000100
00010000
,
00000000
00011000
00000000
00100000
00010000
01000000
00100000
10000000
,
01000000
00000000
00110000
00000000
00101000
00000000
00010000
00000100
,
00000000
00001000
00000010
00000100
00000010
00000000
00000100
00000001
,
00000010
00000000
00001000
00000100
00010000
00000000
00001000
00100000
,
00010000
01000000
00000000
00100000
10000000
01000000
00100000
00010000
,
00100000
00001000
00010000
00100000
00010000
00001000
00000100
00000001
,
00000010
00000100
00001000
00010000
00001000
00000100
00010000
00001000
,
00100000
00001000
00010000
00000100
00010000
00001000
01000000
00100000
,
10000000
01000000
00100000
00010000
00001000
00000100
00000010
00000001
,
00000100
00000010
00001000
00000100
00010100
00000000
00001000
00100000
,
00010000
01000000
00100000
10000000
01000000
00100000
00001000
00010000
,
00000100
00001000
00001100
00000000
00000010
00000100
00000110
00000000
,
00000001
00000100
00001000
00010000
01000000
10000000
00100000
01000000
,
01010000
00000000
10000000
00100000
00010000
00001000
00000010
00000001
,
00000100
00000010
00001000
00000100
00010100
00000000
00011000
00000000
,
00110000
00000000
00010000
01000000
10000000
00000000
01000000
00001000
,
00010000
00000000
00001000
00000000
00010000
00000010
00000100
00000001
,
00000010
00000000
00000100
00000000
00001000
00000000
00000100
00010000
00000000
00000100
00010000
00000000
00001000
00000000
00100000
00000000
,
00010000
00000000
01000000
00000000
00100000
00000000
10000000
01000000
00000000
10000000
01000000
00000000
00100000
00000000
00001000
00000000
,
00010000
00000000
00000100
00000000
00001000
00000000
00000010
00000100
00000000
00000010
00000100
00000000
00000001
00000000
00000010
00000000
,
00000100
00000000
00001000
00000000
00000100
00000000
00010000
00001000
00000000
00010000
00001000
00000000
00100000
00000000
00010000
00000000
,
00110000
00000000
10100000
00000000
00110000
00000000
00010000
01000000
,
00000000
00100000
10000000
01000000
00100000
00000000
00001000
00010000
,
00000000
00000000
00001010
00000000
00000011
00000000
00000001
00000100
,
00000000
00000010
00000000
00001100
00000000
00010000
00001000
01000000
,
00010000
00000000
00110000
00000000
10100000
00000000
00100000
01000000
,
00010000
00100000
00001000
00010000
00000010
00000000
00001000
00000010
,
00001010
00000000
00000100
00000001
00000101
00000000
00000010
00000100
,
00010000
00000000
00001000
00000000
00000000
00000000
00001000
00000000
00100000
00001000
00100000
00001000
00100000
00000000
00010000
00000000
,
00011000
00000000
00011000
00100000
00000000
00000000
00000000
00010000
,
11000000
00000000
11000000
00100000
00000000
00000000
00000000
00100000
,
00011000
00000000
00011000
00000010
00000000
00001100
00000000
00000110
,
00000000
00000010
00000001
00000000
00001000
00000100
00010000
00001000
,
00100000
00000000
00000000
00000000
;
