#TITLE:Une Mage Blanche;
#SUBTITLE:;
#ARTIST:Dormir;
#TITLETRANSLIT:;
#SUBTITLETRANSLIT:;
#ARTISTTRANSLIT:;
#GENRE:Pop;
#CREDIT:;
#BANNER:unemageblanche-bn.png;
#BACKGROUND:unemageblanche-bg.jpg;
#LYRICSPATH:;
#CDTITLE:;
#MUSIC:Une mage blanche.ogg;
#OFFSET:-0.020000;
#SAMPLESTART:65.120033;
#SAMPLELENGTH:12.000000;
#SELECTABLE:YES;
#BPMS:0.000000=193.000000
;
#STOPS:
;
#BGCHANGES:;
#KEYSOUNDS:;
#ATTACKS:;

//---------------dance-single - ----------------
#NOTES:
     dance-single:
     :
     Hard:
     7:
     0.466663,0.512174,0.375716,0.240041,0.000000,313.000000,277.000000,36.000000,23.000000,0.000000,0.000000,0.466663,0.512174,0.375716,0.240041,0.000000,313.000000,277.000000,36.000000,23.000000,0.000000,0.000000:
// measure 0
0000
0000
0000
0000
,  // measure 1
0000
0000
0000
0000
,  // measure 2
0000
0000
0000
0000
,  // measure 3
0000
0000
0000
0000
,  // measure 4
0010
0100
1001
0010
,  // measure 5
0001
0000
0100
0000
0000
0001
0000
0100
,  // measure 6
0000
0100
0000
0010
0000
0010
1000
0000
,  // measure 7
1000
0000
0100
0000
0000
1000
0000
0100
,  // measure 8
0000
0100
0000
0010
0000
0010
0001
0000
,  // measure 9
0001
0000
0010
0000
0000
0001
0000
0010
,  // measure 10
0000
0010
0000
1000
0000
1000
0010
0000
,  // measure 11
0001
0000
0100
0000
0000
0001
0000
0100
,  // measure 12
0000
0100
0000
1000
0000
1000
0100
0000
,  // measure 13
0001
0010
0001
0000
0000
0001
0010
0001
,  // measure 14
0000
1000
0000
2000
0000
0000
3100
0000
,  // measure 15
1000
0100
1000
0000
0000
1000
0100
1000
,  // measure 16
0000
0001
0000
0002
0000
0000
0013
0000
,  // measure 17
0100
1000
0100
0000
0000
0001
0010
0001
,  // measure 18
0000
0100
0000
0200
0000
0000
0310
0000
,  // measure 19
1000
0000
0001
0000
0000
1000
0001
0000
,  // measure 20
2002
0000
0000
3003
,  // measure 21
0002
0000
0000
0000
0013
0100
0000
1000
,  // measure 22
0000
1000
0000
1001
0000
0000
0000
0000
,  // measure 23
1000
0000
0001
0000
0000
0100
0000
0010
,  // measure 24
0000
1000
0000
0001
1000
0000
0000
0000
,  // measure 25
2000
0000
0000
0000
3100
0010
0000
0001
,  // measure 26
0000
0001
0000
1001
0000
0000
0000
0000
,  // measure 27
0001
0000
0100
0000
0000
0010
0100
0000
,  // measure 28
0010
0001
1001
1000
,  // measure 29
0010
0000
0100
0000
0110
0000
0000
1001
,  // measure 30
0000
1000
0001
1000
0000
0000
0000
0000
,  // measure 31
0001
0000
0100
0000
0101
0000
0000
1010
,  // measure 32
0000
0010
0100
0010
0000
0000
0000
0000
,  // measure 33
1000
0000
0100
0000
1100
0000
0000
0011
,  // measure 34
0000
0100
0010
0000
,  // measure 35
0100
0010
1000
0001
0100
0000
0000
0000
,  // measure 36
0220
0000
0000
0330
,  // measure 37
1001
0000
0000
0010
0100
0010
0000
0110
,  // measure 38
0000
0000
0000
1000
0001
1000
0000
0000
,  // measure 39
1010
0000
0000
0010
0100
0010
0000
0110
,  // measure 40
0000
0000
0000
0100
0001
0100
0001
0000
,  // measure 41
0011
0000
0000
0010
0100
0010
0000
0110
,  // measure 42
0000
0000
0000
0100
1000
0100
0000
0000
,  // measure 43
1001
0000
0000
1000
0100
1000
0000
0100
,  // measure 44
0000
0010
0000
0001
2000
0002
0000
3003
,  // measure 45
0101
0000
0000
0100
0010
0100
0000
0110
,  // measure 46
0000
0000
0000
0010
1000
0010
0000
0000
,  // measure 47
1100
0000
0000
0100
0010
0100
0000
0110
,  // measure 48
0000
0000
0000
0010
0001
0010
0001
0000
,  // measure 49
0011
0000
0000
0001
0100
0001
0000
0101
,  // measure 50
0000
0000
0000
1000
0100
1000
0000
0000
,  // measure 51
1010
0000
0000
0010
0100
0010
0000
0100
,  // measure 52
0000
0010
0000
1000
0000
0001
0000
0000
,  // measure 53
0200
0001
0001
0001
,  // measure 54
0301
0000
0000
0000
1001
0000
0001
1000
,  // measure 55
0200
1000
1000
1000
,  // measure 56
1300
0000
0000
0001
0010
0100
1000
0020
,  // measure 57
0000
0000
0000
1030
0000
0001
0000
1000
,  // measure 58
0000
0000
0000
0000
0110
0000
0010
0200
,  // measure 59
0000
0000
0000
0000
0000
0301
0000
1000
,  // measure 60
0000
0010
0000
0010
0000
0010
0000
0100
,  // measure 61
0020
1000
1000
1000
,  // measure 62
1030
0000
0000
0000
1001
0000
1000
0001
,  // measure 63
0020
0001
0001
0001
,  // measure 64
0031
0000
0000
0001
1000
0010
0100
0020
,  // measure 65
0000
0000
0000
1030
0000
0001
0000
1000
,  // measure 66
0000
0000
0000
0000
1001
0000
0001
2000
,  // measure 67
0000
0000
0000
0000
0000
3010
0000
0100
,  // measure 68
0000
0001
0000
1000
0000
0001
0000
1000
,  // measure 69
0010
0000
0000
0100
0010
1000
0000
0001
,  // measure 70
0000
0100
0000
0101
0000
0102
0000
0000
,  // measure 71
1003
0000
0000
0100
0010
0001
0000
1000
,  // measure 72
0000
0010
0000
1010
0000
2010
0000
0000
,  // measure 73
3001
0000
0000
0001
1000
0100
0000
0010
,  // measure 74
0000
0001
0000
0011
0000
0022
0000
0033
,  // measure 75
0001
1000
0010
1000
0001
0000
0000
0000
;

//---------------dance-single - ----------------
#NOTES:
     dance-single:
     :
     Beginner:
     2:
     0.172949,0.275786,0.166985,0.062619,0.000000,116.000000,100.000000,16.000000,6.000000,0.000000,0.000000,0.172949,0.275786,0.166985,0.062619,0.000000,116.000000,100.000000,16.000000,6.000000,0.000000,0.000000:
0000
0000
0000
0000
,
0000
0000
0000
0000
,
0000
0000
0000
0000
,
0000
0000
0000
0000
,
1000
1000
0000
0010
,
0010
0000
0000
0000
,
0100
0100
0000
0000
,
0010
0000
0000
0000
,
1001
0000
0000
0000
,
0100
0000
0000
0000
,
0001
0001
0000
0000
,
0100
0000
0000
0000
,
1001
0000
0000
0000
,
0001
0000
0000
0000
,
0100
0100
0000
0000
,
0001
0000
0000
0000
,
0110
0000
0000
0000
,
1000
0000
0000
0000
,
0010
0010
0000
0000
,
1000
0000
0000
0000
,
0220
0000
0000
0330
,
0110
0000
2000
0000
,
0000
3000
0000
0000
,
0110
0000
0000
0000
,
0000
0000
0000
0000
,
1001
0000
0020
0000
,
0000
0030
0000
0000
,
1001
0000
0100
0000
,
1000
1000
0000
0001
,
0001
0000
1001
0000
,
0000
0000
0000
0000
,
1000
0000
1001
0000
,
0000
0000
0000
0000
,
0010
0000
0110
0000
,
0000
0000
0000
0000
,
0100
0100
0100
0000
,
2002
0000
0000
3003
,
1001
0000
0000
0000
,
0010
0000
0010
0000
,
0100
0000
0000
0000
,
1000
0000
1000
0000
,
0001
0000
0000
0000
,
0100
0000
0100
0000
,
0001
0000
0000
0000
,
1000
0000
0010
0000
,
0100
0000
0000
0000
,
0010
0000
0010
0000
,
0100
0000
0000
0000
,
0100
0000
0100
0000
,
0001
0000
0000
0000
,
1000
0000
1000
0000
,
0010
0000
0000
0000
,
0010
0000
1000
1000
,
1000
0000
0000
0000
,
0000
0000
0001
0000
,
0100
0000
0000
0000
,
0000
0000
0010
0010
,
0010
0000
0000
0000
,
0000
0000
1000
0000
,
0100
0000
0000
0000
,
0010
0000
0001
0000
,
1000
0000
0000
0000
,
0000
0000
0010
0000
,
0100
0000
0000
0000
,
0000
0000
0001
0001
,
0001
0000
0000
0000
,
0000
0000
1000
0000
,
0001
0000
0000
0000
,
0100
0000
0010
0000
,
1000
0000
1001
0000
,
0010
0000
0000
0000
,
0001
0000
1001
0000
,
0100
0000
0000
0000
,
0100
0000
0110
0000
,
1000
0000
0000
0000
,
0010
0010
0010
0000
;

//---------------dance-single - ----------------
#NOTES:
     dance-single:
     :
     Medium:
     5:
     0.359316,0.472776,0.135675,0.438336,0.000000,241.000000,228.000000,13.000000,42.000000,0.000000,0.000000,0.359316,0.472776,0.135675,0.438336,0.000000,241.000000,228.000000,13.000000,42.000000,0.000000,0.000000:
0000
0000
0000
0000
,
0000
0000
0000
0000
,
0000
0000
0000
0000
,
0000
0000
0000
0000
,
0010
0010
0100
0010
,
2000
0000
3100
0000
0000
2000
0000
3100
,
0000
0010
0000
0001
0000
0010
0000
0000
,
0002
0000
0103
0000
0000
0002
0000
0103
,
0000
0010
0000
1000
0000
0010
0000
0000
,
2000
0000
3010
0000
0000
2000
0000
3010
,
0000
0001
0000
0010
0000
1000
0000
0000
,
0002
0000
0103
0000
0000
0002
0000
0103
,
0000
1000
0000
0100
0000
0001
0000
0000
,
0200
0000
0310
0000
0000
0200
0000
0310
,
0000
1000
0000
0010
0000
1000
0000
0000
,
0200
0000
0301
0000
0000
0200
0000
0301
,
0000
0100
0000
0001
0000
0000
0000
0000
,
0020
0000
0031
0000
0000
0020
0000
0031
,
0000
0100
0000
0010
0000
0001
0000
0000
,
0020
0000
1030
0000
0000
1000
0000
0002
,
2000
0000
0000
3003
,
1000
0000
0100
0000
1000
0100
0000
0100
,
0000
0010
0000
0010
0000
0000
0000
0000
,
0001
0000
0100
0000
0001
0100
0000
1000
,
0000
0100
0000
0001
0000
0000
0000
0000
,
0001
0000
0010
0000
0001
0010
0000
0010
,
0000
0100
0000
0100
0000
0000
0000
0000
,
1000
0010
1000
0001
,
0100
0010
0100
0000
0010
0100
0000
0000
,
0002
0000
0000
0000
0200
0000
0303
2002
,
0000
3003
0110
0110
,
2000
0000
0000
0000
0200
0000
3300
2002
,
0000
0000
0000
3003
0110
0000
0110
0000
,
0020
0000
0000
0000
2000
0000
3030
0220
,
0000
0330
1001
1001
,
0010
0100
0010
0100
0010
0000
0000
0000
,
2000
0000
0000
0000
,
3001
0000
0000
0100
0001
0100
0000
0010
,
0000
0100
0000
0010
0000
0100
0000
0000
,
0000
0000
0000
0001
0000
1000
0000
0100
,
0000
0010
0000
0001
0000
1000
0000
0000
,
0000
0000
0000
0001
1000
0001
0000
0100
,
0000
0010
0000
0100
0000
0010
0000
0000
,
0000
0000
0000
1000
0000
0001
0000
0010
,
0000
0010
0000
0100
1000
0100
0000
0000
,
0000
0000
0000
1000
0100
1000
0000
0001
,
0000
0010
0000
0001
0000
0010
0000
0000
,
0000
0000
0000
0001
0000
1000
0000
0010
,
0000
0100
0000
0001
0000
1000
0000
0000
,
0000
0000
0000
0100
0001
0100
0000
0010
,
0000
0100
0000
0010
0000
0100
0000
0000
,
0000
0000
0000
1000
0000
0001
0000
0010
,
0000
0010
0000
0100
0000
0100
0000
0000
,
2000
0000
3200
0000
,
0302
0000
0103
1000
,
1001
0000
0000
0000
,
0000
0000
0000
0000
0001
1000
0001
0000
,
0002
0000
0203
0000
,
2300
0000
3100
0001
,
1001
0000
0000
0000
0000
0010
0000
0100
,
0000
0001
0000
1000
0000
0010
0000
0000
,
2000
0000
3020
0000
,
0032
0000
0013
1000
,
1001
0000
0000
0000
,
0000
0000
0000
0000
0100
0010
0100
0000
,
0002
0000
0023
0000
,
2030
0000
3010
0001
,
1001
0000
0000
0000
0000
0001
0000
1000
,
0000
0010
0000
0100
0000
0001
0000
0000
,
0000
0000
0000
0010
0100
0010
0000
1000
,
0000
1000
0000
0001
0000
0001
0000
0000
,
0000
0000
0000
0100
0010
0100
0000
0001
,
0000
0001
0000
0010
0000
0010
0000
0000
,
0000
0000
0000
0010
0100
0010
0000
1000
,
0000
1000
0000
0001
0000
0001
0000
0000
,
0100
0010
0100
0010
0100
0000
0000
0000
;

//---------------dance-single - ----------------
#NOTES:
     dance-single:
     :
     Easy:
     4:
     0.281787,0.354582,0.083492,0.093929,0.000000,189.000000,181.000000,8.000000,9.000000,0.000000,0.000000,0.281787,0.354582,0.083492,0.093929,0.000000,189.000000,181.000000,8.000000,9.000000,0.000000,0.000000:
0000
0000
0000
0000
,
0000
0000
0000
0000
,
0000
0000
0000
0000
,
0000
0000
0000
0000
,
0001
0001
1000
1000
,
0010
0000
0100
0000
0000
0001
0000
0001
,
0000
1000
0000
1000
0000
0000
0000
0000
,
1000
0000
0100
0000
0000
0010
0000
0010
,
0000
0001
0000
0001
0000
0000
0000
0000
,
0001
0000
0100
0000
0000
0010
0000
0010
,
0000
1000
0000
1000
0000
0000
0000
0000
,
0010
0000
0100
0000
0000
0001
0000
0001
,
0000
1000
0000
1000
0000
0000
0000
0000
,
0010
0000
1000
0000
0000
0100
0000
0010
,
0000
0001
0000
0010
0000
0000
0000
0000
,
0100
0000
1000
0000
0000
0001
0000
0010
,
0000
0100
0000
0000
0000
0000
0000
0000
,
1000
0000
0001
0000
0000
0001
0000
0010
,
0000
0100
0000
1000
0000
0000
0000
0000
,
0001
1000
0000
0000
,
0200
0000
0000
0300
,
1000
0000
0000
0000
0020
0000
0000
0100
,
0000
0100
0000
0130
0000
0000
0000
0000
,
0001
0000
0100
0000
,
1000
0000
0100
0000
,
0001
0000
0000
0000
0200
0000
0000
0010
,
0000
0010
0000
0310
0000
0000
0000
0000
,
1000
0000
0010
0000
,
0001
0010
1000
0001
,
0100
0000
0000
0000
0001
0000
0000
1000
,
0000
0000
0000
0000
,
0010
0000
0000
0000
1000
0000
0000
0001
,
0000
0000
0000
0000
,
0001
0000
0000
0000
0100
0000
0000
1000
,
0000
0000
0000
0000
,
0001
1000
1001
0000
,
0220
0000
0000
0330
,
1001
0000
0000
0010
0000
0100
0000
0010
,
0000
0010
0000
1000
0000
1000
0000
0000
,
0000
0000
0000
0100
0000
0010
0000
0100
,
0000
0100
0000
0001
0000
0001
0000
0000
,
0000
0000
0000
1000
0000
0010
0000
1000
,
0000
1000
0000
0001
0000
0001
0000
0000
,
0000
0000
0000
0001
0000
0100
0000
0001
,
0000
1000
0000
0010
0000
0100
0000
0000
,
0000
0000
0000
1000
0000
0100
0000
0001
,
0000
0001
0000
0100
0000
0100
0000
0000
,
0000
0000
0000
1000
0000
0010
0000
0001
,
0000
0001
0000
0010
0000
0010
0000
0000
,
0000
0000
0000
1000
0000
0100
0000
1000
,
0000
0100
0000
0010
0000
0001
0000
0000
,
0000
0000
0000
0001
0000
0100
0000
0001
,
0000
0100
0000
0010
0000
1000
0000
0000
,
0020
0000
0000
0000
,
0030
0000
0100
0001
,
0101
0000
0000
0000
,
0000
0000
0010
0010
,
0020
0000
0000
0000
,
0030
0000
1000
0100
,
1100
0000
0000
0000
0000
0001
0000
1000
,
0000
1000
0000
0010
0000
0010
0000
0000
,
2000
0000
0000
0000
,
3000
0000
0010
1000
,
1010
0000
0000
0000
,
0000
0000
0001
0001
,
0002
0000
0000
0000
,
0003
0000
0010
0001
,
0011
0000
0000
0000
0000
0100
0000
1000
,
0000
1000
0000
0010
0000
0010
0000
0000
,
1000
0000
0000
0000
0100
0000
0000
0010
,
0000
0010
0000
0001
0000
0001
0000
0000
,
0001
0000
0000
0000
0100
0000
0000
0010
,
0000
0010
0000
1000
0000
1000
0000
0000
,
1000
0000
0000
0000
0001
0000
0000
0100
,
0000
0010
0000
1000
0000
0001
0000
0000
,
0100
0010
0110
0000
;

//---------------dance-double - ----------------
#NOTES:
     dance-double:
     :
     Easy:
     4:
     0.326515,0.315184,0.062619,0.386153,0.000000,219.000000,213.000000,6.000000,37.000000,0.000000,0.000000,0.326515,0.315184,0.062619,0.386153,0.000000,219.000000,213.000000,6.000000,37.000000,0.000000,0.000000:
00000000
00000000
00000000
00000000
,
00000000
00000000
00000000
00000000
,
00000000
00000000
00000000
00000000
,
00000000
00000000
00000000
00000000
,
00010000
00010000
00001000
00010000
,
00000200
00000000
00002300
00000000
00003000
00000200
00000000
00002300
,
00000000
00003010
00000000
00000100
00000000
00000010
00000000
00000000
,
00000200
00000000
00000302
00000000
00000003
00000200
00000000
00000302
,
00000000
00001003
00000000
00000010
00000000
00010000
00000000
00000000
,
00002000
00000000
00023000
00000000
00030000
00002000
00000000
00023000
,
00000000
00031000
00000000
00100000
00000000
00010000
00000000
00000000
,
02000000
00000000
03200000
00000000
00300000
02000000
00000000
03200000
,
00000000
10300000
00000000
01000000
00000000
00010000
00000000
00000000
,
00002000
00000000
00003200
00000000
00000300
00000002
00000000
00002003
,
00000000
00003010
00000000
00010000
00000000
00001000
00000000
00000000
,
02000000
00000000
03020000
00000000
00030000
20000000
00000000
30200000
,
00000000
00310000
00000000
00001000
00000000
00000010
00000000
00000000
,
00000002
00000000
00000203
00000000
00000300
00000020
00000000
00002030
,
00000000
00003100
00000000
00010000
00000000
00001000
00000000
00000000
,
00000200
00002300
00003000
00000000
,
00022000
00000000
00000000
00033000
,
00100000
00000000
00000000
00000000
00110000
00000000
00000000
00010000
,
00000000
10000000
00000000
00010000
00000000
00000000
00000000
00000000
,
01000000
00000000
00100000
00000000
,
00010000
00000000
00001000
00010000
,
00000010
00000000
00000000
00000000
00001010
00000000
00000000
00000001
,
00000000
00001000
00000000
00000001
00000000
00000000
00000000
00000000
,
00000100
00000000
00001000
00000000
,
00010000
01000000
10000000
00010000
,
00100000
00000000
00000000
00000000
01000000
00000000
00000000
01100000
,
00000000
00000000
00000000
00000000
,
00001000
00000000
00000000
00000000
00010000
00000000
00000000
00011000
,
00000000
00000000
00000000
00000000
,
00000010
00000000
00000000
00000000
00000100
00000000
00000000
00000110
,
00000000
00000000
00000000
00000000
,
00000001
00000100
00001000
00000000
,
00020000
00000000
00000000
00030000
,
00001000
00000000
00000000
00100000
00000000
00010000
00000000
01000000
,
00000000
10000000
00000000
01000000
00000000
00010000
00000000
00000000
,
00100000
00000000
00000000
00010000
00000000
00001000
00000000
00000100
,
00000000
00001000
00000000
00010000
00000000
00000010
00000000
00000000
,
00000100
00000000
00000000
00000001
00000000
00001000
00000000
00000010
,
00000000
00000001
00000000
00000010
00000000
00001000
00000000
00000000
,
00010000
00000000
00000000
00100000
00000000
01000000
00000000
10000000
,
00000000
00010000
00000000
00100000
00000000
00001000
00000000
00000000
,
00010000
00000000
00000000
00100000
00000000
00010000
00000000
00001000
,
00000000
00000010
00000000
00000100
00000000
00001000
00000000
00000000
,
00000001
00000000
00000000
00000010
00000000
00001000
00000000
00010000
,
00000000
00100000
00000000
10000000
00000000
00010000
00000000
00000000
,
01000000
00000000
00000000
00010000
00000000
00100000
00000000
00001000
,
00000000
00010000
00000000
00000010
00000000
00000100
00000000
00000000
,
00001000
00000000
00000000
00010000
00000000
00001000
00000000
00000100
,
00000000
00000001
00000000
00001000
00000000
00000010
00000000
00000000
,
00002000
00000100
00000100
00000100
,
00003100
00000000
00010000
00001000
,
00010000
00000000
00000000
00000000
,
00000000
00000000
00001000
00100000
,
00020000
01000000
01000000
01000000
,
01030000
00000000
00001000
00010000
,
00001000
00000000
00000000
00000000
00000000
00010000
00000000
00000010
,
00000000
00000100
00000000
00000010
00000000
00000100
00000000
00000000
,
00000020
00001000
00001000
00001000
,
00001030
00000000
00010000
00001000
,
00010000
00000000
00000000
00000000
,
00000000
00000000
01000000
00010000
,
00200000
00010000
00010000
00010000
,
00310000
00000000
00001000
00010000
,
00001000
00000000
00000000
00000000
00000000
00010000
00000000
00100000
,
00000000
01000000
00000000
00100000
00000000
01000000
00000000
00000000
,
00010000
00000000
00000000
00000000
00100000
00000000
00000000
00001000
,
00000000
00001000
00000000
00010000
00000000
00010000
00000000
00000000
,
00000010
00000000
00000000
00000000
00010000
00000000
00000000
00001000
,
00000000
00001000
00000000
00100000
00000000
00100000
00000000
00000000
,
00010000
00000000
00000000
00000000
01000000
00000000
00000000
00001000
,
00000000
00001000
00000000
00010000
00000000
00010000
00000000
00000000
,
00001000
00010000
00000010
00000000
;

//---------------dance-double - ----------------
#NOTES:
     dance-double:
     :
     Medium:
     6:
     0.423426,0.472776,0.271351,0.125239,0.000000,284.000000,258.000000,26.000000,12.000000,0.000000,0.000000,0.423426,0.472776,0.271351,0.125239,0.000000,284.000000,258.000000,26.000000,12.000000,0.000000,0.000000:
00000000
00000000
00000000
00000000
,
00000000
00000000
00000000
00000000
,
00000000
00000000
00000000
00000000
,
00000000
00000000
00000000
00000000
,
00010000
00010000
00001000
00001000
,
00010000
00000000
00000010
00000000
00000000
00000100
00000000
00000001
,
00000000
00000100
00000000
00001000
00000000
00001000
00010000
00000000
,
00100000
00000000
01000000
00000000
00000000
10000000
00000000
01000000
,
00000000
00010000
00000000
00100000
00000000
00100000
00001000
00000000
,
00010000
00000000
00000100
00000000
00000000
00001000
00000000
00010000
,
00000000
00001000
00000000
00000100
00000000
00000100
00000010
00000000
,
00000001
00000000
00001000
00000000
00000000
00000100
00000000
00010000
,
00000000
00001000
00000000
01000000
00000000
01000000
00010000
00000000
,
01000000
00000000
10000000
00000000
00000000
01000000
00000000
00010000
,
00000000
00100000
00000000
00010000
00000000
00010000
01000000
00000000
,
00001000
00000000
00010000
00000000
00000000
00001000
00000000
00000100
,
00000000
00000010
00000000
00001000
00000000
00001000
00000001
00000000
,
00000100
00000000
00001000
00000000
00000000
00010000
00000000
01000000
,
00000000
10000000
00000000
00100000
00000000
00100000
01000000
00000000
,
00001000
00000000
00010000
00000000
00000000
00001000
00000000
00020000
,
00002000
00000000
00000000
00033000
,
00020200
00000000
00030300
00000000
00000100
00001000
00000000
00001010
,
00000000
00000010
00000000
00000100
00000000
00000000
00000000
00000000
,
00000001
00000000
00000100
00000000
00001000
00000000
00000000
00010000
,
00000000
00100000
00000000
10000000
00000000
00000000
00100000
00000000
,
02200000
00000000
03300000
00000000
01000000
00010000
00000000
00110000
,
00000000
00100000
00001000
00000000
00010000
00000000
00010000
00001000
,
00010000
00001000
00000100
00001000
,
00010000
00100000
00010000
00001000
,
00011000
00000000
00001000
00000000
00101000
00000000
00100000
00010000
,
00000000
00010000
01000000
00010000
00000000
00000000
00000000
00000000
,
01010000
00000000
00010000
00000000
00110000
00000000
00100000
00001000
,
00000000
00010000
00001000
00010000
00000000
00000000
00000000
00000000
,
00001100
00000000
00000100
00000000
00000110
00000000
00000010
00000001
,
00000000
00000001
00000000
00001000
00000000
00000000
00000000
00000000
,
00000100
00010000
00000100
00010000
00000100
00000000
00000000
00000000
,
00022000
00000000
00000000
00033000
,
00110000
00000000
00000000
00100000
00000000
00010000
00000000
10000000
,
00000000
10000000
00000000
01000000
00000000
00010000
00000000
00000000
,
00011000
00000000
00000000
00001000
00000000
00000010
00000000
00000001
,
00000000
00000001
00000000
00001000
00000000
00000010
00000000
00000000
,
00010010
00000000
00000000
00010000
00000000
00001000
00000000
01000000
,
00000000
01000000
00000000
00010000
00000000
10000000
00000000
00000000
,
10100000
00000000
00000000
00100000
00000000
00010000
00000000
00001000
,
00000000
00001000
00000000
00010000
00000100
00010000
00000000
00000000
,
00000110
00000000
00000000
00000100
00000000
00000001
00000000
00000100
,
00000000
00000100
00000000
00001000
00000000
00010000
00000000
00000000
,
00011000
00000000
00000000
00010000
00000000
00100000
00000000
10000000
,
00000000
10000000
00000000
00010000
00000000
00100000
00000000
00000000
,
01100000
00000000
00000000
01000000
00000000
00100000
00000000
00001000
,
00000000
00001000
00000000
00010000
00000000
00000100
00000000
00000000
,
00010100
00000000
00000000
00001000
00000000
00000010
00000000
00000100
,
00000000
00000010
00000000
00010000
00001000
00000000
00010000
00000000
,
00010200
00010000
00010000
00010000
,
00010300
00000000
00000000
00000000
00001000
00000000
00100000
00010000
,
00000000
00000000
01000000
00000000
00000000
10000000
00000000
01000000
,
00000000
00010000
00000000
00000000
00100000
00000000
00001000
00000000
,
00201000
00001000
00001000
00001000
,
00301000
00000000
00000000
00000000
00010000
00000000
00000100
00001000
,
00000000
00000000
00000000
00000000
00000000
00000010
00000000
00000100
,
00000000
00000010
00000000
00010000
00000000
00001000
00000000
00000000
,
00021000
00001000
00001000
00001000
,
00031000
00000000
00000000
00000000
00001000
00000000
00010000
00000010
,
00000000
00000000
00000000
00000000
00000000
00000001
00000000
00000010
,
00000000
00001000
00000000
00000100
00000000
00010000
00000000
00000000
,
00010200
00010000
00010000
00010000
,
00010300
00000000
00000000
00000000
00001000
00000000
01000000
00100000
,
00000000
00000000
00000000
00000000
00000000
01000000
00000000
00010000
,
00000000
10000000
00000000
00100000
00000000
01000000
00000000
00000000
,
01010000
00000000
00000000
00000000
00010000
00000000
00000000
00100000
,
00000000
00001000
00000000
00100000
00000000
00001000
00000000
00000000
,
00011000
00000000
00000000
00000000
00010000
00000000
00000000
00000100
,
00000000
00001000
00000000
00000010
00000000
00000010
00000000
00000000
,
00000110
00000000
00000000
00000000
00000100
00000000
00000000
00000001
,
00000000
00001000
00000000
00000001
00000000
00001000
00000000
00000000
,
00000100
00010000
00000100
00010000
00000100
00000000
00000000
00000000
;

//---------------dance-double - ----------------
#NOTES:
     dance-double:
     :
     Hard:
     7:
     0.497973,0.551572,0.448772,0.166985,0.000000,334.000000,291.000000,43.000000,16.000000,0.000000,0.000000,0.497973,0.551572,0.448772,0.166985,0.000000,334.000000,291.000000,43.000000,16.000000,0.000000,0.000000:
00000000
00000000
00000000
00000000
,
00000000
00000000
00000000
00000000
,
00000000
00000000
00000000
00000000
,
00000000
00000000
00000000
00000000
,
00100000
00010000
00001000
00010000
,
00100000
00000000
11000000
00000000
00000000
10000000
00000000
01000000
,
00000000
00010000
00000000
00010000
00000000
00001000
00000010
00000000
,
00000001
00000000
00000110
00000000
00000000
00000100
00000000
00001000
,
00000000
00010000
00000000
00010000
00000000
01000000
10000000
00000000
,
00100000
00000000
01010000
00000000
00000000
00100000
00000000
00010000
,
00000000
00001000
00000000
00001000
00000000
00000010
00000001
00000000
,
00001100
00000000
00000000
00010000
00000000
00100000
00000000
10000000
,
00000000
10000000
00000000
00100000
00000000
01000000
00010000
00000000
,
00100000
00000000
00101000
00000000
00000000
00100000
00001000
00100000
,
00000000
00001000
00100000
00001000
00000000
00100000
00001000
00000000
,
00010000
00000000
00010100
00000000
00000000
00000100
00010000
00000100
,
00000000
00010000
00000100
00010000
00000000
00000100
00010000
00000000
,
00000010
00000000
00000110
00000000
00000000
00001000
00000100
00001000
,
00000000
00000001
00000100
00000001
00000000
00001000
00000100
00000000
,
00010000
00000000
00011000
00000000
00000000
00100000
00000000
00010000
,
02000000
00000000
00000000
03000000
,
00022000
00000000
00033000
00000000
00001000
00100000
00000000
00110000
,
00000000
10010000
00000000
22000000
00000000
33000000
00000000
00000000
,
10000000
00000000
10000000
01000000
00100000
00000000
00000000
00001000
,
00000000
00020000
00000000
00002000
00000000
00033000
00000000
00000000
,
00022000
00000000
00033000
00000000
00010000
00000100
00000000
00001100
,
00000000
00001001
00000000
00000022
00000000
00000033
00000000
00000000
,
00000010
00000000
00000010
00000100
00001000
00000000
00000100
00010000
,
00001000
00000000
00010000
00000000
00000000
00011000
00000000
00000000
,
00001000
00000000
00100000
00000000
00110000
00000000
00010000
01000000
,
00000000
10000000
01000000
00010000
00000000
00000000
00000000
00000000
,
00010000
00000000
00000100
00000000
00001100
00000000
00001000
00000010
,
00000000
00000001
00000010
00001000
00000000
00000000
00000000
00000000
,
00011000
00000000
00001000
00000000
00101000
00000000
00100000
00001000
,
00000000
00000000
00010000
00000100
00000000
00000000
00000000
00000000
,
00000100
00010000
00001000
00010000
00000100
00000000
00000000
00000000
,
00022000
00000000
00000000
00033000
,
00110000
00000000
00000000
01000000
10000000
00100000
00000000
01000000
,
00000000
00010000
00000000
00100000
00000000
00110000
00000000
00000000
,
01001000
00000000
00000000
00010000
00001000
00010000
00000000
00000100
,
00000000
00001000
00000000
00001010
00000000
00001010
00000000
00000000
,
00000101
00000000
00000000
00000001
00000010
00000001
00000000
00001000
,
00000000
00000100
00000000
00010000
00000000
00010100
00000000
00000000
,
00011000
00000000
00000000
00001000
00100000
00010000
00000000
01000000
,
00000000
10000000
00000000
10000000
01000000
00010000
00000000
00000000
,
00101000
00000000
00000000
00010000
00000010
00000100
00000000
00001000
,
00000000
00000100
00000000
00000001
00000000
00001001
00000000
00000000
,
00001100
00000000
00000000
00000100
00010000
00001000
00000000
00100000
,
00000000
00010000
00000000
01010000
00000000
10100000
00000000
00000000
,
11000000
00000000
00000000
01000000
00100000
00001000
00000000
00010000
,
00000000
00000100
00000000
00001000
00000000
00001010
00000000
00000000
,
00000101
00000000
00000000
00000001
00000010
00001000
00000000
00010000
,
00000000
00100000
00000000
10000000
00010000
00100000
00001000
00000000
,
00010000
00000100
00010000
00000100
00010000
00000100
00010000
00000100
,
00010000
00000000
00000000
00000000
00000100
00000000
00001000
00000010
,
00000100
00000000
00000000
00000000
00000001
00000000
00000000
00001000
,
00000000
00000010
00000000
00010000
00000000
00001000
00010000
00000000
,
00001000
00100000
00001000
00100000
00001000
00100000
00001000
00100000
,
00001000
00000000
00000000
00000000
01000000
00000000
00010000
10000000
,
00000000
00000000
00100000
00000000
00000000
01000000
00000000
00010000
,
00000000
00100000
00000000
00001000
00000000
00001000
00000000
00000000
,
01000000
00001000
01000000
00001000
01000000
00001000
01000000
00001000
,
01000000
00000000
00000000
00000000
00010000
00000000
00001000
00000100
,
00000000
00000000
00001000
00000000
00000000
00010000
00000000
00000010
,
00000000
00000100
00000000
00001000
00000000
00000100
00000001
00000000
,
00000100
00000010
00000100
00000010
00000100
00000010
00000100
00000010
,
00000100
00000000
00000000
00000000
00000010
00000000
00010000
00001000
,
00000000
00000000
00000000
00000000
00000000
00010000
00000000
00001000
,
00000000
01000000
00000000
00010000
00000000
10000000
00000000
00000000
,
20010000
00000000
00000000
00000000
30100000
00000000
00000000
01000000
,
00000000
00001000
00000000
00010000
00000000
00010000
00000000
00000000
,
00010200
00000000
00000000
00000000
00000310
00000000
00000000
00000001
,
00000000
00001000
00000000
00001100
00000000
00001100
00000000
00000000
,
00020100
00000000
00000000
00000000
00031000
00000000
00000000
00001000
,
00000000
00100000
00000000
00010000
00000000
00010000
00000000
00000000
,
01000000
00001000
00010000
00001000
01000000
00000000
00000000
00000000
;
