#VERSION:0.83;
#TITLE:Twilight;
#SUBTITLE:;
#ARTIST:Rookie.F;
#TITLETRANSLIT:;
#SUBTITLETRANSLIT:;
#ARTISTTRANSLIT:;
#GENRE:Rock;
#ORIGIN:;
#CREDIT:;
#BANNER:twilight-bn.png;
#BACKGROUND:twilight-bg.png;
#PREVIEWVID:;
#JACKET:;
#CDIMAGE:;
#DISCIMAGE:;
#LYRICSPATH:;
#CDTITLE:;
#MUSIC:Twilight.ogg;
#OFFSET:-1.272000;
#SAMPLESTART:65.145004;
#SAMPLELENGTH:12.000000;
#SELECTABLE:YES;
#BPMS:0.000=115.000,
28.000=230.000,
156.000=115.000,
188.000=230.000;
#STOPS:;
#DELAYS:;
#WARPS:;
#TIMESIGNATURES:0.000=4=4;
#TICKCOUNTS:0.000=4;
#COMBOS:0.000=1;
#SPEEDS:0.000=1.000=0.000=0;
#SCROLLS:0.000=1.000;
#FAKES:;
#LABELS:0.000=Song Start;
#BGCHANGES:;
#KEYSOUNDS:;
#ATTACKS:
;

//---------------dance-single - ----------------
#NOTEDATA:;
#CHARTNAME:;
#STEPSTYPE:dance-single;
#DESCRIPTION:;
#CHARTSTYLE:;
#DIFFICULTY:Hard;
#METER:8;
#RADARVALUES:0.436929,0.772172,0.251522,0.231400,0.140852,304.000000,279.000000,25.000000,23.000000,0.000000,0.000000,0.000000,0.000000,0.000000,0.436929,0.772172,0.251522,0.231400,0.140852,304.000000,279.000000,25.000000,23.000000,0.000000,0.000000,0.000000,0.000000,0.000000;
#CREDIT:;
#NOTES:
0000
0000
0000
0000
,
0000
0000
0000
0000
,
0100
0000
0000
0100
0000
0000
1000
0000
0000
0010
0000
0000
0001
0000
0000
0000
,
0010
0000
0000
0010
0000
0000
0001
0000
0000
0100
0000
0000
1000
0000
0000
0000
,
0202
0000
0000
0000
0000
0000
0000
0000
0303
0000
0001
0000
0000
1000
0000
0000
,
1100
0000
0000
0200
0000
0000
2000
0000
0000
0000
0000
0000
0300
0000
0000
0000
,
0002
0000
0000
3003
,
1000
0000
0000
1000
0000
0000
1000
0000
,
0000
1000
0000
0000
1001
0000
0000
0000
,
0010
0000
0000
0010
0000
0000
0010
0000
,
0000
0010
0000
0000
0110
0000
0000
0000
,
0001
0000
0000
0001
0000
0000
0001
0000
,
0000
0001
0000
0000
0101
0000
0000
0000
,
0100
0000
0000
0100
0000
0000
0100
0000
,
0000
0100
0000
0000
1100
0000
0000
0000
,
1000
0000
0010
0000
0010
0100
0000
0001
,
0000
0100
0010
0000
0010
0000
0000
0000
,
1000
0000
0001
0000
0001
0100
0000
1000
,
0000
0100
0001
0000
0001
0000
0000
0000
,
0100
0001
0010
0100
,
1000
0010
0100
0001
,
1000
0010
1000
0001
,
0010
0100
0000
0000
0010
0100
0000
0000
,
0010
0001
0100
0001
,
0010
0001
1000
1000
,
0010
1000
0100
1000
,
0010
1000
0001
0001
,
0100
1000
0100
1000
,
0100
0001
0100
0001
,
1000
0000
0000
0001
0000
0000
1001
0000
,
0000
0001
0000
0000
1001
0000
1001
0000
,
0100
1000
0010
1000
,
0100
1000
0001
0001
,
0100
0001
0010
0001
,
0100
0001
1000
1000
,
0010
0001
0010
0001
,
0010
1000
0010
1000
,
1010
0000
0000
0101
0000
0000
0011
0000
,
0000
1100
0000
0000
1000
0000
0001
0000
,
0100
0001
0000
0001
0100
0000
0001
0000
1001
0000
0000
0000
0010
0000
1000
0100
,
0000
0000
1000
0001
0000
0001
1000
0000
2002
0000
3003
0000
0220
0000
0330
0000
,
0010
0001
0000
0001
0010
0000
0001
0000
1001
0000
0000
0000
0100
0000
1000
0100
,
0000
0000
1000
0001
0000
0001
1000
0000
2002
0000
3003
0000
0022
0000
0033
0000
,
0100
0001
0000
0001
0100
0000
0001
0000
0110
0000
0000
0000
1000
0000
0001
0010
,
0000
0000
0100
1000
0000
1000
0100
0000
2002
0000
0000
0000
0000
0000
3003
0000
,
0010
1000
0000
1000
0010
0000
1000
0000
1001
0000
0000
0000
0100
0000
0001
0100
,
0001
0000
0000
1000
0000
0001
0000
0200
0000
0000
0010
0000
0000
0010
0000
0000
,
0310
0000
1000
0000
0010
1000
0010
0000
,
1000
0001
1001
0000
,
0100
0000
0001
0000
0100
0001
0100
0000
,
0001
0000
0100
0000
0000
0100
0000
0000
,
0100
0000
0001
0000
0100
0001
0100
0000
,
0010
1000
1001
0000
,
0100
1000
0100
1000
,
0001
0010
0001
0010
,
0001
0100
0001
1000
,
0001
0100
0001
1000
,
0100
0010
0100
1000
,
0100
0010
0100
1000
,
0001
0000
0000
1000
0000
0000
0001
0000
,
1000
0000
0000
0010
0000
0000
1000
0000
,
2020
0000
0000
3030
,
0001
1000
0010
0100
,
0002
0000
0000
0000
,
0000
0000
0000
0000
,
0103
0001
0001
0001
,
0100
0001
0001
0000
,
1000
0010
0010
0010
,
1000
0010
0010
0000
,
0010
0100
0100
0100
,
0010
0100
0100
0000
,
0001
1000
1000
1000
,
0001
1000
2000
0002
,
0000
0000
0000
0000
,
0000
0000
0000
0000
3003
0000
0020
0200
,
0000
0000
0000
0000
,
0000
0000
0000
0330
;

//---------------dance-single - ----------------
#NOTEDATA:;
#CHARTNAME:;
#STEPSTYPE:dance-single;
#DESCRIPTION:;
#CHARTSTYLE:;
#DIFFICULTY:Medium;
#METER:5;
#RADARVALUES:0.281704,0.501912,0.211278,0.171035,0.015091,196.000000,175.000000,21.000000,17.000000,0.000000,0.000000,0.000000,0.000000,0.000000,0.281704,0.501912,0.211278,0.171035,0.015091,196.000000,175.000000,21.000000,17.000000,0.000000,0.000000,0.000000,0.000000,0.000000;
#CREDIT:;
#NOTES:
0000
0000
0000
0000
,
0000
0000
0000
0000
,
0100
0000
0000
0100
0000
0000
0100
0000
0000
0000
0000
0000
0000
0000
0000
0000
,
0001
0000
0000
0001
0000
0000
0001
0000
0000
0000
0000
0000
0000
0000
0000
0000
,
2002
0000
0000
3003
,
0220
0000
0000
0330
,
2000
0000
0000
0000
,
3001
0000
0000
1000
0000
0000
0001
0000
,
0000
1000
0000
0000
0000
0000
0000
0000
,
1000
0000
0000
0100
0000
0000
1000
0000
,
0000
0100
0000
0000
0000
0000
0000
0000
,
0010
0000
0000
0001
0000
0000
0010
0000
,
0000
0001
0000
0000
0000
0000
0000
0000
,
0100
0000
0000
0010
0000
0000
0100
0000
,
0000
0010
0000
0000
0000
0000
0000
0000
,
1000
0100
1000
0000
,
0001
0100
0001
0000
,
0010
0001
0010
0000
,
0001
0100
0001
0000
,
1000
0000
1010
0000
,
0010
0000
0110
0000
,
0100
0001
0100
0001
,
0101
0000
1010
0000
,
0001
0010
0001
0010
,
0001
0000
1000
0000
,
0100
1000
0100
1000
,
0100
0000
0010
0000
,
0001
0000
1000
0000
,
1001
0000
0110
0000
,
2020
0000
0000
0000
,
3030
0000
0001
0001
,
0100
0010
0100
0010
,
0100
0000
0001
0000
,
1000
0010
1000
0010
,
1000
0000
0100
0000
,
0010
0000
0001
0000
,
0011
0000
1100
0000
,
0220
0000
0000
0000
,
0330
0000
1000
1000
,
0100
0000
0100
0000
1001
0000
0000
0010
,
0000
0010
0000
0000
1001
0000
0000
0000
,
0001
0000
0001
0000
0110
0000
0000
1000
,
0000
1000
0000
0000
0110
0000
0000
0000
,
0010
1000
0001
0000
1001
0000
0000
0100
,
0001
1000
0001
0000
0110
0000
0000
0000
,
1000
0100
0010
0000
1001
0000
0000
0002
,
2000
0000
0000
0000
0000
0000
0000
0000
3003
0000
0010
0000
0000
0010
0000
0000
,
0020
0000
0000
0031
,
0000
1000
0000
0001
,
0000
0100
0000
0010
,
0000
0000
1000
0000
0000
1000
0000
0000
,
2000
0000
0000
3200
,
0000
0000
0310
0000
,
0001
1000
0001
1000
,
0001
1000
0001
0000
,
0100
0001
0100
0000
,
0001
0000
1000
0000
,
0010
1000
0100
0000
,
0010
0000
0100
0000
,
1000
0000
0000
0001
0000
0000
0000
0000
,
0100
0000
0000
0010
0000
0000
0000
0000
,
0100
0000
1100
0000
,
0001
0000
1001
0000
,
0020
0000
0000
0000
,
0000
0000
0000
0000
,
0031
1000
1000
0000
,
0010
0000
0100
0000
,
1000
0100
0100
0000
,
0010
0000
0001
0000
,
0010
0100
0100
0000
,
1000
0000
0001
0000
,
0100
0001
0100
0000
,
0010
1000
0100
1000
,
0020
0000
0000
0000
,
0000
0000
0000
0000
0000
0000
0000
2000
,
0000
0000
0000
0000
,
0000
0000
0000
3030
;

//---------------dance-single - ----------------
#NOTEDATA:;
#CHARTNAME:;
#STEPSTYPE:dance-single;
#DESCRIPTION:;
#CHARTSTYLE:;
#DIFFICULTY:Easy;
#METER:3;
#RADARVALUES:0.201217,0.308869,0.100609,0.130791,0.000000,140.000000,130.000000,10.000000,13.000000,0.000000,0.000000,0.000000,0.000000,0.000000,0.201217,0.308869,0.100609,0.130791,0.000000,140.000000,130.000000,10.000000,13.000000,0.000000,0.000000,0.000000,0.000000,0.000000;
#CREDIT:;
#NOTES:
0000
0000
0000
0000
,
0000
0000
0000
0000
,
2000
0000
0000
3200
0000
0000
0320
0000
,
0000
0000
0000
0000
0000
0130
0000
0000
,
1000
0000
0000
0000
0000
0001
0000
0000
,
0100
0000
0000
0020
0000
0000
0000
0000
,
2000
0000
0000
3030
,
1000
0000
0000
1000
,
0000
0000
1000
0000
,
0100
0000
0000
0100
,
0000
0000
0100
0000
,
0010
0000
0000
0010
,
0000
0000
0010
0000
,
0001
0000
0000
0001
,
0000
0000
0001
0000
,
0100
0000
0100
0000
,
0100
0000
0000
0000
,
0010
0000
0010
0000
,
0010
0000
0000
0000
,
0001
0000
0001
0000
,
0001
0000
0000
0000
,
0100
0000
0100
0000
,
0110
0000
1001
0000
,
1000
0000
0100
0000
,
0010
0000
0100
0000
,
1000
0000
0010
0000
,
0100
0000
0010
0000
,
1000
0000
0100
0000
,
0010
0000
0100
0000
,
1000
0000
0000
1001
,
0000
0000
0000
0000
,
0001
0000
0100
0000
,
0010
0000
0100
0000
,
0001
0000
0010
0000
,
0100
0000
0010
0000
,
0001
0000
0100
0000
,
0010
0000
0100
0000
,
0001
0000
0000
1001
,
0000
0000
0010
0000
,
1000
1000
1100
0000
,
0000
0000
0002
0003
,
0100
0100
0101
0000
,
0000
0000
2000
3000
,
0010
0010
0110
0000
,
0000
0000
0200
0300
,
0010
0010
0011
0000
,
0002
0000
0000
0000
0000
2000
0000
3003
,
0010
0000
0100
0000
,
0010
0000
0100
0000
,
0001
0000
1000
0000
,
0010
0000
0000
0000
,
1000
0000
0100
0000
,
1000
0000
0100
0000
,
0010
0000
0001
0000
,
0100
0000
0000
0000
,
0010
0000
0100
0000
,
0010
0000
0100
0000
,
0001
0000
1000
0000
,
0010
0000
0000
0000
,
1000
0000
1000
0000
,
0001
0000
0001
0000
,
1000
0000
0001
0000
,
0100
0000
0010
0000
,
0200
0000
0000
0000
,
0000
0000
0000
0000
,
0301
1000
0001
0000
,
1000
0000
0000
0000
,
0010
1000
0010
0000
,
0100
0000
0000
0000
,
0001
0010
0001
0000
,
1000
0000
0000
0000
,
0100
0010
0100
0000
,
1000
0001
1000
0000
,
0110
0000
0000
0000
,
0000
0000
0000
2002
,
0000
0000
0000
0000
,
0000
0000
0000
3003
;

//---------------dance-single - ----------------
#NOTEDATA:;
#CHARTNAME:;
#STEPSTYPE:dance-single;
#DESCRIPTION:;
#CHARTSTYLE:;
#DIFFICULTY:Beginner;
#METER:2;
#RADARVALUES:0.125042,0.193043,0.060365,0.030183,0.000000,87.000000,81.000000,6.000000,3.000000,0.000000,0.000000,0.000000,0.000000,0.000000,0.125042,0.193043,0.060365,0.030183,0.000000,87.000000,81.000000,6.000000,3.000000,0.000000,0.000000,0.000000,0.000000,0.000000;
#CREDIT:;
#NOTES:
0000
0000
0000
0000
,
0000
0000
0000
0000
,
0010
0000
0000
1000
,
1000
0000
0000
0000
,
0110
0000
0000
0000
,
1001
0000
0000
0000
,
0020
0000
0030
0000
,
0010
0000
0000
0010
,
0000
0000
0000
0000
,
1000
0000
0000
1000
,
0000
0000
0000
0000
,
0100
0000
0000
0100
,
0000
0000
0000
0000
,
0001
0000
0000
0001
,
0000
0000
0000
0000
,
0010
0000
0000
0000
,
0010
0000
0000
0000
,
0100
0000
0000
0000
,
0100
0000
0000
0000
,
1000
0000
0000
0000
,
1000
0000
0000
0000
,
0001
0000
0000
0000
,
0001
0000
0001
0000
,
0100
0000
0000
0000
,
0000
0000
0000
0000
,
0010
0000
0000
0000
,
0000
0000
0000
0000
,
0001
0000
0000
0000
,
0000
0000
0000
0000
,
1000
0000
0000
0100
,
0000
0000
0100
0000
,
1000
0000
0000
0000
,
0000
0000
0000
0000
,
0010
0000
0000
0000
,
0000
0000
0000
0000
,
0100
0000
0000
0000
,
0000
0000
0000
0000
,
0001
0000
0000
0010
,
0000
0000
0100
0000
,
1000
1000
1000
0000
,
0000
0000
0001
0000
,
0010
0010
0010
0000
,
0000
0000
0100
0000
,
0100
0100
0100
0000
,
0000
0000
0001
0000
,
0010
0010
0010
0000
,
0000
0000
0000
0000
,
1000
0000
0000
1001
,
0000
0000
0000
0000
,
0000
0000
0000
0000
,
0000
0010
0000
0000
,
0100
0000
0000
0010
,
0000
0000
0110
0000
,
0000
0000
0000
0000
,
0001
0000
0001
0000
,
0001
0000
0000
0000
,
0000
0000
0000
0000
,
1000
0000
0000
0000
,
0000
0000
0000
0000
,
0010
0000
0010
0000
,
0010
0000
0010
0000
,
0010
0000
0000
0000
,
0001
0000
1000
0000
,
1001
0000
0000
0000
,
0000
0000
0000
0000
,
0100
0000
0100
0000
,
0100
0000
0000
0000
,
1000
0000
1000
0000
,
1000
0000
0000
0000
,
0001
0000
0001
0000
,
0001
0000
0000
0000
,
0100
0000
0100
0000
,
0100
0000
0000
0000
,
0000
0000
0000
0000
,
0000
0000
0000
0220
,
0000
0000
0000
0000
,
0000
0000
0000
0330
;

//---------------dance-double - ----------------
#NOTEDATA:;
#CHARTNAME:;
#STEPSTYPE:dance-double;
#DESCRIPTION:;
#CHARTSTYLE:;
#DIFFICULTY:Easy;
#METER:2;
#RADARVALUES:0.126479,0.231651,0.040243,0.140852,0.000000,88.000000,84.000000,4.000000,14.000000,0.000000,0.000000,0.000000,0.000000,0.000000,0.126479,0.231651,0.040243,0.140852,0.000000,88.000000,84.000000,4.000000,14.000000,0.000000,0.000000,0.000000,0.000000,0.000000;
#CREDIT:;
#NOTES:
00000000
00000000
00000000
00000000
,
00000000
00000000
00000000
00000000
,
01000000
00010000
00000000
00000000
,
00100000
00001000
00000000
00000000
,
00011000
00000000
00000000
00000000
,
00000110
00000000
00000000
00000000
,
00000002
00000000
00000000
00000000
,
00002003
00000000
00000000
00003100
,
00000000
00000000
00000000
00000000
,
00020000
00000000
00000000
00031000
,
00000000
00000000
00000000
00000000
,
02000000
00000000
00000000
03100000
,
00000000
00000000
00000000
00000000
,
20000000
00000000
00000000
30100000
,
00000000
00000000
00000000
00000000
,
01000000
00000000
00010000
00000000
,
00100000
00000000
00000000
00000000
,
00000000
00000000
00001000
00000000
,
00010000
00000000
00000000
00000000
,
00000010
00000000
00001000
00000000
,
00000100
00000000
00000000
00000000
,
00000000
00000000
00000010
00000000
,
00000001
00000000
00000001
00000000
,
00001000
00000000
00000000
00000000
,
00000000
00000000
00000100
00000000
,
00001000
00000000
00000000
00000000
,
00000000
00000000
00010000
00000000
,
00001000
00000000
00000000
00000000
,
00000000
00000000
01000000
00000000
,
00100000
00000000
00000000
00000000
,
00000000
00000000
00000000
00000000
,
10000000
00000000
01000000
00000000
,
10000000
00000000
00000000
00000000
,
00010000
00000000
00100000
00000000
,
00010000
00000000
00000000
00000000
,
00001000
00000000
00010000
00000000
,
00001000
00000000
00000000
00000000
,
00010000
00000000
00000000
00000000
,
00001000
00000000
00000000
00000000
,
00010000
00010000
00010000
00000000
,
00000000
00000000
00000100
00000000
,
00000010
00000010
00000010
00000000
,
00000000
00000000
00000001
00000000
,
00001000
00001000
00001000
00000000
,
00000000
00000000
00000100
00000000
,
00010000
00010000
00010000
00000000
,
00000000
00000000
00000000
00000000
,
00200000
00000000
00000000
01300000
,
00000000
00000000
00000000
00000000
,
00000000
00000000
00000000
00000000
,
00000000
00000000
10000000
00000000
,
20000000
00000000
00000000
30020000
,
00000000
00000000
02030000
00000000
,
00000000
03000000
00000000
00000000
,
00000000
00000000
00000000
00000000
,
00200000
00000000
00000000
00000000
,
00300000
00000000
00000000
00000000
,
00001000
00000000
00000000
00000000
,
00001000
00000000
00000000
00000000
,
00010000
00000000
00000000
00000000
,
00010000
00000000
00000000
00000000
,
00000000
00000000
00000000
00000000
,
00000110
00000000
00000000
00000000
,
00002002
00000000
00000000
00000000
,
00000000
00000000
00003003
00000000
,
00000010
00000000
00000010
00000000
,
00000000
00000000
00000000
00000000
,
00010000
00000000
00010000
00000000
,
00000000
00000000
00000000
00000000
,
00100000
00000000
00100000
00000000
,
00000000
00000000
00000000
00000000
,
01000000
00000000
01000000
00000000
,
10000000
00000000
00010000
00000000
,
00200000
00000000
00000000
00000000
,
00000000
00000000
00000000
00002000
,
00000000
00000000
00000000
00000000
,
00000000
00000000
00000000
00303000
;

//---------------dance-double - ----------------
#NOTEDATA:;
#CHARTNAME:;
#STEPSTYPE:dance-double;
#DESCRIPTION:;
#CHARTSTYLE:;
#DIFFICULTY:Medium;
#METER:5;
#RADARVALUES:0.260145,0.463303,0.191157,0.140852,0.025152,181.000000,162.000000,19.000000,14.000000,0.000000,0.000000,0.000000,0.000000,0.000000,0.260145,0.463303,0.191157,0.140852,0.025152,181.000000,162.000000,19.000000,14.000000,0.000000,0.000000,0.000000,0.000000,0.000000;
#CREDIT:;
#NOTES:
00000000
00000000
00000000
00000000
,
00000000
00000000
00000000
00000000
,
00000100
00000000
00000000
00000100
00000000
00000000
00000100
00000000
00000000
00000000
00000000
00000000
00000000
00000000
00000000
00000000
,
00010000
00000000
00000000
00010000
00000000
00000000
00010000
00000000
00000000
00000000
00000000
00000000
00000000
00000000
00000000
00000000
,
00011000
00000000
00000000
00000000
00000000
00000000
00000000
00000000
00000000
00000000
00100000
00000000
00000000
00100000
00000000
00000000
,
00010000
00000000
00000000
00010000
00000000
00000000
00020000
00000000
00000000
00000000
00000000
00000000
00000000
00000000
00000000
00000000
,
20000000
00000000
00000000
30030000
,
00100000
00000000
00000000
00100000
00000000
00000000
00100000
00000000
,
00000000
00100000
00000000
00000000
00000000
00000000
00000000
00000000
,
00001000
00000000
00000000
00001000
00000000
00000000
00001000
00000000
,
00000000
00001000
00000000
00000000
00000000
00000000
00000000
00000000
,
00010000
00000000
00000000
00010000
00000000
00000000
00010000
00000000
,
00000000
00010000
00000000
00000000
00000000
00000000
00000000
00000000
,
00000010
00000000
00000000
00000010
00000000
00000000
00000010
00000000
,
00000000
00000010
00000000
00000000
00000000
00000000
00000000
00000000
,
00000100
00000001
00000100
00000000
,
00001001
00000000
00000000
00000000
,
00001000
00010000
00001000
00000000
,
00110000
00000000
00000000
00000000
,
01000000
10000000
01000000
00000000
,
11000000
00000000
00000000
00000000
,
00100000
01000000
00100000
00000000
,
10010000
00000000
01100000
00000000
,
00010000
00000000
00001000
00000000
,
00010000
00000000
00000100
00000000
,
00001000
00000000
00000010
00000000
,
00000100
00000000
00000001
00000000
,
00001000
00000000
00000100
00000000
,
00010000
00000000
00001000
00000000
,
01000000
00000000
00000000
01000000
00000000
00000000
01000000
00000000
,
00000000
00000000
00000000
00000000
,
00100000
00000000
10000000
00000000
,
01000000
00000000
00010000
00000000
,
00001000
00000000
00000010
00000000
,
00000001
00000000
00001000
00000000
,
00000010
00000000
00010000
00000000
,
00001000
00000000
00100000
00000000
,
00010000
00000000
00000000
00010000
00000000
00000000
00010000
00000000
,
00000000
00000000
10000000
00000000
,
00100000
00000000
01000000
00000000
01010000
00000000
00000000
00101000
,
00000000
00101000
00000000
00000000
00002000
00000000
00023000
00000000
,
00030100
00000000
00001000
00000000
00001010
00000000
00000000
00000101
,
00000000
00000101
00000000
00000000
00000020
00000000
00000230
00000000
,
00000310
00000000
00001000
00000000
00001100
00000000
00000000
00011000
,
00000000
00011000
00000000
00000000
00200000
00000000
00320000
00000000
,
01030000
00000000
00100000
00000000
11000000
00000000
00000000
00100000
,
02000000
00000000
00000000
00000000
00000000
00000000
00000000
00000000
00000000
00000000
03010000
00000000
00000000
00010000
00000000
00000000
,
00010000
00000000
00000000
00001000
,
00000000
00000000
00000000
00000000
,
00010000
00000000
00001000
00000000
,
00010000
00000000
00000010
00000000
00000000
00000010
00000000
00000000
,
00000010
00000000
00000000
00001100
,
00000000
00000000
00001001
00000000
,
00000000
00000010
00000000
00000010
,
00000000
00000010
00000000
00000000
,
00001000
00000100
00010000
00001000
,
00100000
00000000
00010000
00000000
,
10000000
01000000
10000000
00010000
,
00100000
00000000
00001000
00000000
,
00010000
00000000
00000000
00001000
00000000
00000000
00010000
00000000
,
00001000
00000000
00000000
00010000
00000000
00000000
00001000
00000000
,
00010000
00000000
00000000
00000000
,
00000100
00000000
00000000
00000100
00000000
00000000
00000100
00000000
,
00002000
00000000
00000000
00000000
,
00000000
00000000
00000000
00000000
,
00003001
00000010
00000100
00000000
,
00001000
00000000
00000000
00000000
,
00010000
00100000
01000000
00000000
,
10000000
00000000
00000000
00000000
,
00100000
01000000
00001000
00000000
,
00010000
00000000
00000000
00000000
,
00000100
00001000
00000100
00001000
,
00000010
00000000
00000100
00000000
,
00002200
00000000
00000000
00000000
,
00000000
00000000
00003300
00000000
00000000
00000000
00020000
00200000
,
00000000
00000000
00000000
00000000
,
00000000
00000000
00000000
00330000
;

//---------------dance-double - ----------------
#NOTEDATA:;
#CHARTNAME:;
#STEPSTYPE:dance-double;
#DESCRIPTION:;
#CHARTSTYLE:;
#DIFFICULTY:Hard;
#METER:8;
#RADARVALUES:0.415370,0.656346,0.251522,0.140852,0.135822,289.000000,264.000000,25.000000,14.000000,0.000000,0.000000,0.000000,0.000000,0.000000,0.415370,0.656346,0.251522,0.140852,0.135822,289.000000,264.000000,25.000000,14.000000,0.000000,0.000000,0.000000,0.000000,0.000000;
#CREDIT:;
#NOTES:
00000000
00000000
00000000
00000000
,
00000000
00000000
00000000
00000000
,
00100000
00000000
00000000
00001000
00000000
00000000
00010000
00000000
00000000
00001000
00000000
00000000
00000000
00000000
00000000
00000000
,
00010000
00000000
00000000
00000100
00000000
00000000
00001000
00000000
00000000
00000100
00000000
00000000
00000000
00000000
00000000
00000000
,
00022000
00000000
00000000
00000000
00000000
00000000
00000000
00000000
00033000
00000000
00000010
00000000
00000000
00001000
00000000
00000000
,
00000100
00000000
00000000
00010000
00000000
00000000
00002000
00000000
00000000
00000000
00000000
00000000
00000000
00000000
00000000
00000000
,
00200000
00000000
00000000
00303000
,
00010000
00000000
00100000
00010000
00000000
00000000
10000000
00000000
,
00000000
00010000
00000000
00000000
00000000
00000000
00000000
00000000
,
10000000
00000000
01000000
00100000
00000000
00000000
01000000
00000000
,
00000000
10000000
00000000
00000000
00000000
00000000
00000000
00000000
,
00010000
00000000
00100000
00010000
00000000
00000000
01000000
00000000
,
00000000
00001000
00000000
00000000
00000000
00000000
00000000
00000000
,
00010000
00000000
00000100
00001000
00000000
00000000
00000010
00000000
,
00000000
00000100
00000000
00000000
00000001
00000000
00000010
00000000
,
00000001
00000011
00000011
00000100
,
00001100
00001100
00010000
00001000
,
00100000
00101000
00101000
00010000
,
01000000
01010000
01010000
00100000
,
10000000
10100000
10100000
01000000
,
00100000
01100000
01100000
00001000
,
00010000
00011000
00011000
00000100
,
00001000
00000001
00000000
00000000
00000100
00000010
00000000
00000000
,
00001000
00000100
00001000
00000010
,
00000100
00000000
00000001
00000000
,
00000010
00000100
00001000
00010000
,
00001000
00000000
00000100
00000000
,
00010000
00001000
00100000
00001000
,
00010000
00000000
00001000
00000000
,
01000000
00000000
00000000
01100000
00000000
00000000
00010000
00000000
,
00000000
10010000
00000000
00000000
10000000
00000000
10000000
00000000
,
00100000
01000000
00010000
00100000
,
00010000
00000000
01000000
00000000
,
00001000
00010000
00100000
00010000
,
00001000
00000000
00010000
00000000
,
00000010
00001000
00000100
00000010
,
00000001
00000000
00000100
00000000
,
00000010
00000000
00000000
00001010
00000000
00000000
00000100
00000000
,
00000000
00000101
00000000
00000000
00000010
00000000
00001000
00000000
,
00000100
00001000
00000000
00000100
00001000
00000000
00000100
00000000
00010000
00000000
00000000
00000000
00001000
00000000
00010000
00001000
,
00000000
00000000
00010000
00001000
00000000
00000000
00110000
00000000
02000000
00000000
00000000
00000000
13000000
00000000
00000000
00000000
,
00100000
10000000
00000000
00100000
10000000
00000000
01000000
10000000
01000000
00000000
00000000
00000000
00000000
00000000
00100000
00010000
,
00000000
00000000
00100000
00010000
00000000
00000000
00110000
00000000
00002000
00000000
00000000
00000000
00023000
00000000
00000000
00000000
,
00030010
00001000
00000000
00000010
00001000
00000000
00000010
00000100
00000010
00000000
00000000
00000000
00000000
00000000
00000100
00000001
,
00000000
00000000
00000100
00000001
00000000
00000000
00000110
00000000
00002000
00000000
00000000
00000000
00003020
00000000
00000000
00000000
,
00010030
00000100
00000000
00010000
00000100
00000000
00010000
00000100
00010000
00000000
00000000
00000000
00000000
00000000
00010000
00000000
,
00001000
00000000
00000000
00100000
00000000
01000000
00000000
20000000
00000000
00000000
30010000
00000000
00000000
00010000
00000000
00000000
,
00010000
00000000
00100000
00000000
00010000
00100000
00010000
00000000
,
01000000
00000000
00010000
00000000
01000000
00010000
01000000
00000000
,
00001000
00000000
00100000
00000000
00001000
00100000
00001000
00000000
,
00010000
00000000
00001000
00000000
00000000
00001000
00000000
00000000
,
00001000
00010000
00001000
00011000
,
00000000
00000100
00010100
00000000
,
00000010
00000100
00000010
00000100
,
00000001
00001000
00000001
00001000
,
00000010
00010000
00001000
00100000
,
00010000
10000000
01000000
00100000
,
00010000
00000010
00000100
00000010
,
00001000
00000100
00000010
00000001
,
00000100
00000000
00000000
00000010
00000000
00000000
00000100
00000000
,
00000010
00000000
00000000
00001000
00000000
00000000
00000100
00000000
,
00010000
00000000
00001000
00000000
,
00011000
00000000
00000000
00100000
00000000
00000000
01000000
00000000
,
20000000
00000000
00000000
00000000
,
00000000
00000000
00000000
00000000
,
30100000
00100000
00100000
01000000
,
00100000
01000000
00100000
00000000
00000000
00000000
00000000
00000000
,
10000000
00100000
00100000
00100000
,
10000000
00100000
10000000
00000000
00000000
00000000
00000000
00000000
,
01000000
00001000
00001000
00001000
,
01000000
00001000
01000000
00000000
00000000
00000000
00000000
00000000
,
00010000
00000010
00000010
00000010
,
00010000
00000100
00000100
00000200
,
00000000
00000000
00000000
00000000
,
00000000
00000000
00000000
00000000
00000300
00000000
00020000
00002000
,
00000000
00000000
00000000
00000000
,
00000000
00000000
00000000
00033000
;

//---------------dance-single - ----------------
#NOTEDATA:;
#CHARTNAME:;
#STEPSTYPE:dance-single;
#DESCRIPTION:;
#CHARTSTYLE:;
#DIFFICULTY:Challenge;
#METER:9;
#RADARVALUES:0.513104,0.810780,0.231400,0.402435,0.196187,357.000000,334.000000,23.000000,40.000000,0.000000,0.000000,0.000000,0.000000,0.000000,0.513104,0.810780,0.231400,0.402435,0.196187,357.000000,334.000000,23.000000,40.000000,0.000000,0.000000,0.000000,0.000000,0.000000;
#CREDIT:;
#NOTES:
0000
0000
0000
0000
,
0000
0000
0000
0000
,
0001
0000
0100
0010
0000
0100
0001
0000
0000
0100
0000
0000
0010
0000
1000
0000
,
0100
0000
0010
0100
0000
0010
0001
0000
0000
0000
1000
0000
0000
0010
0000
0000
,
0001
0000
0000
1000
0000
0000
0100
0000
0000
0000
0010
0000
0000
1000
0000
0000
,
0001
0000
0000
0100
0000
0000
2000
0000
0000
0000
0000
0000
0000
0000
0000
0000
,
0200
0000
0000
0000
0000
0000
0000
3300
,
0001
0000
0100
0001
0000
0100
0001
0000
,
0100
0010
0000
1000
0001
0100
0010
0000
,
1000
0000
0100
1000
0000
0100
1000
0000
,
0100
0010
0000
0100
1000
0001
0010
0000
,
0001
0000
1000
0010
0000
1000
0010
0000
,
0100
0001
0000
0010
0001
1000
0010
0000
,
0100
0000
0000
0011
0000
0000
1010
0000
,
0000
0110
0000
0000
0100
0001
1000
0000
,
0001
0000
0010
0000
1000
0000
0000
0001
,
0000
0100
1000
0000
,
1000
0000
0010
0000
0001
0000
0000
1000
,
0000
0100
0001
0000
,
0001
0000
0100
0000
1000
0000
0000
0001
,
0000
0010
1000
0000
,
0010
0100
0001
0000
,
0100
0010
0000
0000
0100
0010
0000
0000
,
1000
0000
0000
0100
0000
0000
1000
0000
,
0000
0010
0000
0000
1000
0100
0010
0000
,
0001
0000
0000
0010
0000
0000
0001
0000
,
0000
0100
0000
0000
0001
0010
0100
0000
,
1000
0000
0000
0010
0000
0000
0001
0000
,
0000
0010
0000
0000
1000
0100
0010
0000
,
0001
0000
0100
0010
0000
1000
0001
0000
,
0100
0010
0000
0000
1000
0001
0100
0000
,
0001
0000
0000
0010
0000
0000
0100
0000
,
0000
1000
0000
0000
0010
0000
0100
0000
,
0010
0000
0000
1000
0000
0000
0100
0000
,
0000
0010
0000
0000
0001
0000
1000
0000
,
0001
0000
0000
0010
0000
0000
1000
0000
,
0000
0010
0000
0000
0001
0000
1000
0000
,
0100
0000
0010
0100
0000
1000
0010
0000
,
0100
0001
0000
1000
0010
0100
0001
0010
,
0100
1000
0000
0100
0000
0010
0100
1000
0020
0000
0000
0000
0130
0000
0001
1000
,
0000
0000
0001
1000
0000
0100
0010
0000
0022
0000
0033
0000
2200
0000
3300
0000
,
0001
0100
0000
1000
0000
1000
0100
0001
2000
0000
0000
0000
3001
0000
0100
0010
,
0000
0000
0100
0010
0000
1000
0001
0000
0202
0000
0303
0000
2020
0000
3030
0000
,
0010
0100
0000
0001
0000
0100
0010
1000
0002
0000
0000
0000
0103
0000
0010
1000
,
0000
0000
0010
1000
0000
0001
0100
0000
0220
0000
0330
0000
2002
0000
3003
0000
,
1000
0100
0000
0001
0000
0001
0100
1000
0002
0000
0000
0000
1003
0000
0010
0100
,
0002
0000
0003
1100
0000
0101
0000
0020
0000
0000
2030
0000
0000
3002
0000
0000
,
0103
0000
0001
0000
1000
0010
1000
0000
,
0010
0000
0100
0001
0000
0001
0100
0000
,
0010
0000
1000
0000
0001
1000
0001
0000
,
1000
0000
0200
0000
0000
0320
0000
0000
,
0031
0000
0100
0000
0010
1000
0010
0000
,
1000
0000
0100
0010
0000
0010
0001
0000
,
1000
1100
0001
0101
,
1000
1100
0001
0101
,
0001
0000
1000
0100
0000
0010
0100
0000
,
1000
0010
0000
0001
0010
0000
1000
0000
,
0001
0000
0100
0010
0000
0100
0001
0000
,
0010
1000
0000
0010
0001
0000
0010
0000
,
2200
0000
3300
2020
0000
3030
0110
0000
,
0202
0000
0303
2002
0000
3003
0001
0000
,
1000
0000
0010
1000
0010
0000
0100
0001
,
2000
0000
0000
3020
0000
0000
0230
0000
,
0002
0000
0000
0000
,
0000
0000
0000
0303
,
0001
0000
0100
0000
1001
0000
1000
0010
,
0000
0001
0010
0000
1000
0000
0001
0000
,
1000
0000
0100
0000
1001
0000
0001
0010
,
0000
1000
0010
0000
0001
1000
0001
1000
,
0100
0000
0010
0000
0101
0000
0001
0100
,
0000
1000
0100
0000
0001
0000
1000
0010
,
0100
0001
0100
0010
1000
0100
1000
0001
,
0010
0100
1000
0010
0100
0001
0020
0200
,
0000
0000
0000
0000
,
0000
0000
0000
0000
0000
0330
2000
0002
,
0000
0000
0000
0000
,
0000
0000
0000
3003
;

//---------------dance-double - ----------------
#NOTEDATA:;
#CHARTNAME:;
#STEPSTYPE:dance-double;
#DESCRIPTION:;
#CHARTSTYLE:;
#DIFFICULTY:Challenge;
#METER:1;
#RADARVALUES:0.547599,0.810780,0.271643,0.412496,0.196187,381.000000,354.000000,27.000000,41.000000,0.000000,0.000000,0.000000,0.000000,0.000000,0.547599,0.810780,0.271643,0.412496,0.196187,381.000000,354.000000,27.000000,41.000000,0.000000,0.000000,0.000000,0.000000,0.000000;
#CREDIT:;
#NOTES:
// measure 0
00000000
00000000
00000000
00000000
,  // measure 1
00000000
00000000
00000000
00000000
,  // measure 2
00100000
00000000
10000000
00010000
00000000
01000000
00010000
00000000
00000000
10000000
00000000
00000000
00100000
00000000
00010000
00000000
,  // measure 3
00001000
00000000
00010000
00000100
00000000
00000010
00000100
00000000
00001000
00000000
00000001
00000000
00000000
00000010
00000000
00000000
,  // measure 4
00002000
00000000
00000000
00013000
00000000
00000000
00100000
00000000
00000000
00000000
10000000
00000000
00000000
00010000
00000000
00000000
,  // measure 5
10000000
00000000
00000000
01000000
00000000
00000000
00020000
00000000
00000000
00000000
00000000
00000000
00000000
00000000
00000000
00000000
,  // measure 6
00002000
00000000
00000000
00000000
00000000
00000000
00000000
00033000
,  // measure 7
00011000
00000000
00010000
00000100
00000000
00001000
00000100
00000000
,  // measure 8
00010000
00001000
00000000
00000000
00100000
01000000
10000000
00000000
,  // measure 9
10100000
00000000
10000000
00100000
00000000
01000000
00010000
00000000
,  // measure 10
10000000
00100000
00000000
00000000
01000000
00001000
00010000
00000000
,  // measure 11
00011000
00000000
00010000
00000010
00000000
00001000
00000010
00000000
,  // measure 12
00010000
00001000
00000000
00000000
00000100
00000010
00000001
00000000
,  // measure 13
00000101
00000000
00000010
00001000
00000000
00000001
00000100
00000000
,  // measure 14
00000010
00001000
00000000
00000000
00000001
00001000
00000100
00000000
,  // measure 15
00000010
00000000
00000001
00000000
00001000
00000000
00000000
00000100
,  // measure 16
00000000
00000000
00010000
00000000
00001000
00000000
00100000
01000000
,  // measure 17
10000000
00000000
00100000
00000000
01000000
00000000
00000000
00010000
,  // measure 18
00000000
00000000
00100000
00000000
01000000
00000000
10000000
00100000
,  // measure 19
01000000
00000000
00100000
00000000
00010000
00000000
00000000
00001000
,  // measure 20
00000000
00000000
00000010
00000000
00000001
00000000
00001000
00000010
,  // measure 21
00000100
00000001
00001000
00000010
,  // measure 22
00000200
00000002
00000000
00000303
00002000
00000020
00000000
00003030
,  // measure 23
00000001
00000000
00000100
00000010
00000000
00000100
00000001
00000000
,  // measure 24
00000100
00000010
00000000
00000100
00001000
00000000
00010000
00000000
,  // measure 25
01000000
00000000
10000000
00100000
00000000
10000000
01000000
00000000
,  // measure 26
10000000
00100000
00000000
10000000
01000000
00000000
00010000
00000000
,  // measure 27
00001000
00000000
00000100
00000001
00000000
00000100
00000010
00000000
,  // measure 28
00000100
00000001
00000000
00000100
00000010
00000000
00000100
00000000
,  // measure 29
00001000
00000000
00010000
00001000
00000000
00100000
00001000
00000000
,  // measure 30
00010000
00001000
00000000
00010000
00000100
00000010
00000001
00000000
,  // measure 31
00001000
00000000
00000010
00001000
00000000
00000010
00000100
00000000
,  // measure 32
00000010
00001000
00000000
00000010
00000100
00000000
00001000
00000000
,  // measure 33
00010000
00000000
01000000
10000000
00000000
01000000
00100000
00000000
,  // measure 34
01000000
10000000
00000000
01000000
00100000
00000000
00010000
00000000
,  // measure 35
10000000
00000000
00010000
00100000
00000000
00010000
01000000
00000000
,  // measure 36
00010000
00100000
00000000
00010000
01000000
00000000
00100000
00010000
,  // measure 37
00001000
00000000
00000000
00000010
00000000
00000000
00000001
00000000
,  // measure 38
00000000
00000100
00000000
00000000
00001000
00010000
00100000
00000000
,  // measure 39
10000000
01000000
00000000
00100000
00000000
00010000
00100000
01000000
20000000
00000000
00000000
00000000
32000000
00000000
03010000
00001000
,  // measure 40
00000000
00000000
00001000
00000100
00000000
00000100
00000001
00000000
00000202
00000000
00000303
00000000
00002020
00000000
00003030
00000000
,  // measure 41
00000001
00000010
00000000
00000100
00000000
00001000
00000100
00000010
00000002
00000000
00000000
00000000
00000203
00000000
00001300
00010000
,  // measure 42
00000000
00000000
00010000
01000000
00000000
01000000
10000000
00000000
22000000
00000000
33000000
00000000
00220000
00000000
00330000
00000000
,  // measure 43
10000000
00010000
00000000
01000000
00000000
00100000
01000000
00010000
20000000
00000000
00000000
00000000
30200000
00000000
00310000
00001000
,  // measure 44
00000000
00000000
00001000
00000010
00000000
00000010
00000001
00000000
00002002
00000000
00003003
00000000
00000220
00000000
00000330
00000000
,  // measure 45
00000001
00000100
00000000
00001000
00000000
00000100
00001000
00010000
02000000
00000000
00000000
00000000
23000000
00000000
30010000
10000000
,  // measure 46
00010000
00000000
00000000
11000000
00000000
01100000
00000000
00110000
00000000
00000000
20000000
00000000
00000000
32000000
00000000
00000000
,  // measure 47
03010000
00000000
00001000
00000000
00000100
00000001
00000100
00000000
,  // measure 48
00000001
00000000
00001000
00000010
00000000
00000100
00000001
00000000
,  // measure 49
00000010
00000000
00001000
00000000
00010000
00100000
00010000
00000000
,  // measure 50
10000000
00000000
02000000
00000000
00000000
03200000
00000000
00000000
,  // measure 51
00301000
00000000
00010000
00000000
00000100
00000010
00000100
00000000
,  // measure 52
00000001
00000000
00001000
00000010
00000000
00000100
00000001
00000000
,  // measure 53
00000010
00000000
00001000
00000010
00000100
00000000
00000001
00001000
,  // measure 54
00000100
00000000
00010000
00001000
00100000
00000000
01000000
10000000
,  // measure 55
00010000
00000000
00000000
01010000
00000000
00000000
10000000
00000000
,  // measure 56
00000000
10100000
00000000
00000000
00010000
00001000
00000010
00000000
,  // measure 57
00000001
00000000
00000000
00000101
00000000
00000000
00001000
00000000
,  // measure 58
00000000
00001010
00000000
00000000
00000100
00001000
00010000
00000000
,  // measure 59
00200000
00000000
00300000
00200000
00000000
00300000
10000000
00000000
,  // measure 60
02000000
00000000
03000000
02000000
00000000
03000000
00010000
00000000
,  // measure 61
00001000
00000000
00000100
00000001
00000100
00000000
00000001
00000010
,  // measure 62
00000001
00000100
00000010
00001000
00000000
00000100
00010000
00000000
,  // measure 63
00022000
00000000
00000000
00000000
,  // measure 64
00000000
00000000
00000000
00000000
00000000
00000000
00000000
00033000
,  // measure 65
00100000
01000000
10000000
00000000
10000000
00000000
00000000
11000000
,  // measure 66
00000000
01100000
00110000
00000000
,  // measure 67
01000000
00001000
00010000
00000000
00010000
00000000
00000000
00010100
,  // measure 68
00000000
00000110
00000011
00000000
,  // measure 69
00000001
00001000
00000100
00000000
00000100
00000000
00000000
00010100
,  // measure 70
00000000
00000000
00011000
00000000
00101000
00000000
00100000
01000000
,  // measure 71
10000000
00100000
01000000
00010000
00100000
01000000
10000000
00100000
,  // measure 72
01000000
00001000
00010000
00000100
00000010
00000001
00000200
00000020
,  // measure 73
00000000
00000000
00000000
00000000
,  // measure 74
00000000
00000000
00000000
00000000
00000330
00000000
00020000
00002000
,  // measure 75
00000000
00000000
00000000
00000000
,  // measure 76
00000000
00000000
00000000
00033000
;
