#VERSION:0.83;
#TITLE:Transport;
#SUBTITLE:;
#ARTIST:Sota Fujimori;
#TITLETRANSLIT:;
#SUBTITLETRANSLIT:;
#ARTISTTRANSLIT:;
#GENRE:Techno;
#ORIGIN:;
#CREDIT:;
#BANNER:transport-bn.png;
#BACKGROUND:transport-bg.png;
#PREVIEWVID:;
#JACKET:;
#CDIMAGE:;
#DISCIMAGE:;
#LYRICSPATH:;
#CDTITLE:;
#MUSIC:Transport.ogg;
#OFFSET:0.035000;
#SAMPLESTART:69.044998;
#SAMPLELENGTH:12.000000;
#SELECTABLE:YES;
#BPMS:0.000=145.930;
#STOPS:;
#DELAYS:;
#WARPS:;
#TIMESIGNATURES:0.000=4=4;
#TICKCOUNTS:0.000=4;
#COMBOS:0.000=1;
#SPEEDS:0.000=1.000=0.000=0;
#SCROLLS:0.000=1.000;
#FAKES:;
#LABELS:0.000=Song Start;
#BGCHANGES:;
#KEYSOUNDS:;
#ATTACKS:
;

//---------------dance-single - ----------------
#NOTEDATA:;
#CHARTNAME:;
#STEPSTYPE:dance-single;
#DESCRIPTION:;
#CHARTSTYLE:;
#DIFFICULTY:Hard;
#METER:8;
#RADARVALUES:0.547449,0.530172,0.180101,0.210118,0.195109,383.000000,365.000000,18.000000,21.000000,0.000000,0.000000,0.000000,0.000000,0.000000,0.547449,0.530172,0.180101,0.210118,0.195109,383.000000,365.000000,18.000000,21.000000,0.000000,0.000000,0.000000,0.000000,0.000000;
#CREDIT:;
#NOTES:
0000
0000
0000
0000
,
0000
0000
0000
0000
,
0000
0000
0000
0000
,
0000
0000
0000
0000
,
0100
1000
0010
1000
0100
0001
0100
0000
,
1000
0010
1000
0010
0100
1000
0100
0000
,
0001
0010
0100
0010
0001
0100
1000
0000
,
0101
1100
0101
1001
,
0010
0100
0001
0100
0010
0001
0010
0000
,
1000
0100
1000
0100
0001
0100
1000
0000
,
0010
0100
1000
0000
1000
0100
0001
1000
,
0002
0000
0000
0013
,
0001
0000
0100
0000
0001
0000
0000
0010
0100
0000
0010
0000
0001
0000
0000
0000
,
1000
0000
0100
0000
1000
0000
0000
0010
0100
0000
0010
0000
1000
0000
0001
0000
,
0100
0001
1000
0001
,
0011
1010
0011
1001
,
0010
0000
0100
0000
0010
0000
0000
1000
0010
0000
1000
0000
0001
0000
1000
0000
,
0010
0100
0010
1000
0010
0001
0010
0100
,
0010
0000
2000
0000
0000
0000
3100
0000
0010
0000
0000
0010
0000
0000
0001
0000
,
0100
0000
0002
0000
0000
0000
0013
0000
0100
0000
0000
0100
0000
0000
1000
0000
,
0010
0200
0000
0301
0010
0100
0110
0000
,
1000
0100
1000
0100
0001
0100
1000
0100
,
1000
0010
1001
0000
0001
0010
1001
0000
,
0001
0100
0001
0100
1000
0100
0001
0100
,
0001
0010
0100
1000
0100
0010
0001
0000
,
1000
0000
0000
0100
0010
0000
0000
0000
0001
0000
0000
0010
0100
0000
0000
0000
,
1000
0000
0100
0000
0010
0000
0001
0000
0010
0000
0100
0000
1000
0000
0000
0010
,
0100
0010
0010
0000
1000
0100
0001
0000
,
1000
0100
0010
0100
0001
0100
1000
0100
,
1000
0000
0000
1000
0010
0000
0000
0010
0100
0000
0000
0100
0001
0000
0000
0001
,
1000
0010
0100
0001
1000
0010
0100
0001
,
0010
0000
0000
0010
0100
0000
0000
0100
1000
0000
0000
1000
0001
0000
0000
0001
,
0010
0100
1000
0001
0010
0100
1000
0001
,
0200
0000
0310
1000
0000
0200
0000
2300
,
0000
3010
1000
2000
0000
3002
0000
0103
,
0010
0010
1000
0001
0100
0100
0001
1000
,
1001
1001
0000
0100
0010
0100
0020
0000
,
1030
0100
0100
0000
0001
0100
0100
0000
,
1000
0100
0100
0100
0001
0100
0100
0100
,
2000
0000
0000
0000
3020
0000
0000
0000
0230
0000
0000
0302
0000
0000
2003
0000
,
3002
0000
0000
0000
0013
0100
0010
0001
,
1000
1000
1000
1000
0001
1000
0010
0000
,
0001
0000
0000
0001
0100
0000
0000
0100
0010
0000
0000
0010
1000
0000
0000
1000
,
0001
0100
0010
1000
0001
0100
0010
1000
,
0010
0000
0000
0010
0100
0000
0000
0100
0001
0000
0000
0001
1000
0000
0000
1000
,
0010
0100
0001
1000
0010
0100
0001
1000
,
2000
0000
0000
0000
3010
0000
0000
0100
1000
0000
0000
0000
0010
0000
0000
0100
,
0001
0100
0010
1000
0100
0010
0100
1000
,
0002
0000
0000
1003
0000
0000
2000
0000
0000
3001
0000
0000
0002
0000
0000
0000
,
0103
0001
0100
0001
0100
0000
0100
0000
,
0010
0000
0000
0010
1000
0000
0000
1000
0001
0000
0000
0001
0100
0000
0000
0100
,
0010
1000
0001
0100
0010
1000
0001
0100
,
0002
0013
0100
1001
,
1000
0010
0100
0010
0001
0010
0100
0010
,
1000
0000
0000
1100
0000
0000
0001
0000
0000
0101
0000
0000
1000
0000
0000
0000
,
0100
0010
1000
0001
1000
0010
0100
0000
,
0001
0000
0000
0011
0000
0000
1000
0000
0000
1010
0000
0000
0001
0000
0000
0000
,
0100
1000
0100
1000
0100
0001
0100
0001
,
0010
0000
0000
0100
0000
0000
0010
0000
0001
0000
0000
1000
0000
0000
0010
0000
;

//---------------dance-single - ----------------
#NOTEDATA:;
#CHARTNAME:;
#STEPSTYPE:dance-single;
#DESCRIPTION:;
#CHARTSTYLE:;
#DIFFICULTY:Medium;
#METER:5;
#RADARVALUES:0.357343,0.412356,0.260146,0.460258,0.000000,250.000000,224.000000,26.000000,46.000000,0.000000,0.000000,0.000000,0.000000,0.000000,0.357343,0.412356,0.260146,0.460258,0.000000,250.000000,224.000000,26.000000,46.000000,0.000000,0.000000,0.000000,0.000000,0.000000;
#CREDIT:;
#NOTES:
0000
0000
0000
0000
,
0000
0000
0000
0000
,
0000
0000
0000
0000
,
0000
0000
0000
0000
,
0010
0000
1000
0000
0100
0100
0100
0000
,
0010
0000
0100
0000
1000
1000
1000
0000
,
0001
1000
0110
1001
,
0002
1003
2000
3001
,
0100
0000
0001
0000
0010
0010
0010
0000
,
0001
0000
0100
0000
0001
0001
0001
0000
,
1000
0000
0100
0000
0010
0001
0010
0001
,
0020
0000
0000
0031
,
0100
1000
0100
1000
,
0100
0000
0001
0000
0010
0100
1000
0000
,
0010
0100
0101
1001
,
2000
3001
0002
1003
,
0010
0000
0100
0000
0001
1000
0000
0000
,
0001
0010
0100
1000
0000
0000
0010
0000
,
2000
0200
0000
3300
1001
0000
0000
0000
,
0002
0020
0000
0033
1001
0000
0000
0000
,
2000
0000
0000
3010
,
0100
0100
0100
0100
,
1010
0101
1010
0101
,
0001
0001
0001
0001
,
0011
1100
0011
1100
,
0010
1000
0001
0100
,
0101
0110
1010
1001
,
0002
0020
0000
0033
0100
0000
1000
0000
,
2200
0000
0000
3300
,
0010
1000
0001
0000
0100
0000
0100
0000
,
0002
0000
0023
0000
,
0130
0010
0001
0000
1000
0000
1000
0000
,
0020
1000
2030
0010
,
3001
0000
0000
0200
0000
0320
0000
2030
,
0000
3002
0000
1003
0001
0000
1000
0000
,
0010
0010
0010
0000
0100
0100
0100
0000
,
2002
0000
3003
0010
,
0001
0001
0001
0101
,
0001
0001
0001
0011
,
1000
0001
0100
0000
,
0020
0200
0000
0330
1000
0001
0100
0000
,
0001
0001
0002
0000
0013
0100
1000
0000
,
0002
0023
0230
2300
,
3001
0010
0100
1000
0001
0010
0100
0000
,
2000
3200
0320
0032
,
1003
0100
0010
0001
1000
0100
0010
0000
,
0002
2003
3020
0230
,
0301
1000
0010
0100
0001
1000
0010
0000
,
0200
0000
0000
0300
,
0002
0000
0000
0013
,
0100
1000
0100
1100
,
1000
0001
1000
1001
,
0002
0013
0100
0010
,
0001
0010
0100
0000
1000
0000
1000
0000
,
0220
0000
0000
0330
,
1000
0000
1000
0000
1000
0001
1000
0000
,
0220
0000
0000
0330
,
0001
0000
0001
0000
0001
1000
0001
0000
,
1000
0100
0001
0000
0010
0000
1000
0001
;

//---------------dance-single - ----------------
#NOTEDATA:;
#CHARTNAME:;
#STEPSTYPE:dance-single;
#DESCRIPTION:;
#CHARTSTYLE:;
#DIFFICULTY:Easy;
#METER:3;
#RADARVALUES:0.255858,0.293915,0.060034,0.210118,0.000000,179.000000,173.000000,6.000000,21.000000,0.000000,0.000000,0.000000,0.000000,0.000000,0.255858,0.293915,0.060034,0.210118,0.000000,179.000000,173.000000,6.000000,21.000000,0.000000,0.000000,0.000000,0.000000,0.000000;
#CREDIT:;
#NOTES:
0000
0000
0000
0000
,
0000
0000
0000
0000
,
0000
0000
0000
0000
,
0000
0000
0000
0000
,
1000
0100
0001
0010
,
1000
0100
0001
0010
,
1000
1000
0001
0001
,
0100
0100
0100
0000
,
0010
1000
0001
0100
,
0001
0010
0100
1000
,
0100
0010
0100
0010
,
0200
0000
0000
0300
,
0001
0010
1000
0100
,
0001
0010
1000
0100
,
0001
0001
1000
1000
,
0010
0010
0010
0000
,
0100
0001
1000
0010
,
1000
0100
0010
0001
,
2000
0000
3001
0000
,
0002
0000
1003
0000
,
0000
0000
0000
0010
,
0100
1000
1000
0100
,
1000
0010
0100
0001
,
0010
0100
0100
0010
,
0001
0100
0010
1000
,
0001
0100
0100
0001
,
0100
0010
1000
0001
,
0020
0000
0000
0030
,
0200
0000
0000
0300
,
1000
1000
1000
1000
,
0010
0100
0010
0100
,
0001
0001
0001
0001
,
2002
3003
0220
0330
,
0000
0100
0000
0001
,
0000
0010
0000
0000
,
0100
1000
0010
0100
,
0002
0000
0000
1003
,
0001
0001
0010
0001
,
0100
0100
0010
0100
,
0020
0000
0000
0030
,
2000
0000
3001
0000
,
2020
0000
0000
3030
,
1000
0100
0010
0001
,
1000
1000
1000
1000
,
0001
0010
0100
1000
,
0001
0001
0001
0001
,
0200
0310
1000
0001
,
0100
0100
0100
0100
,
0220
0000
0000
0330
,
2000
0000
0000
3000
,
0001
1000
0001
1000
,
0010
1000
0010
1000
,
0020
1030
0001
0100
,
0001
0001
0001
1000
,
0020
0000
0030
0110
,
1000
1000
1000
0000
,
0200
0000
0300
0110
,
0001
0001
0001
0000
,
1000
0100
0001
0100
;

//---------------dance-single - ----------------
#NOTEDATA:;
#CHARTNAME:;
#STEPSTYPE:dance-single;
#DESCRIPTION:;
#CHARTSTYLE:;
#DIFFICULTY:Beginner;
#METER:1;
#RADARVALUES:0.095768,0.235132,0.090050,0.070039,0.000000,67.000000,58.000000,9.000000,7.000000,0.000000,0.000000,0.000000,0.000000,0.000000,0.095768,0.235132,0.090050,0.070039,0.000000,67.000000,58.000000,9.000000,7.000000,0.000000,0.000000,0.000000,0.000000,0.000000;
#CREDIT:;
#NOTES:
0000
0000
0000
0000
,
0000
0000
0000
0000
,
0000
0000
0000
0000
,
0000
0000
0000
0000
,
0010
0000
0000
0000
,
0000
0000
0000
0000
,
1000
0000
0000
0000
,
1001
1001
1001
0000
,
0100
0000
0000
0000
,
0000
0000
0000
0000
,
0001
0000
0000
0000
,
0020
0000
0030
0000
,
0001
0000
0000
0000
,
0000
0000
0000
0000
,
1000
0000
0000
0000
,
1001
1001
1001
0000
,
0010
0000
0000
0000
,
0000
0000
0000
0000
,
0100
0000
1000
0000
,
1000
0000
0010
0000
,
0000
0000
0000
0100
,
0100
0000
0000
0000
,
0001
0000
0000
0000
,
0100
0000
0000
0000
,
0001
0000
0000
0000
,
0010
0000
0000
0000
,
1000
0000
0000
0000
,
0020
0000
0030
0000
,
2000
0000
3000
0000
,
0001
0000
0000
0000
,
0100
0000
0000
0000
,
1000
0000
0000
0000
,
0010
0000
0100
0000
,
0000
0010
0000
0000
,
0000
0000
0000
0000
,
1000
0000
0000
0000
,
0110
0000
0000
0000
,
0010
0000
0000
0000
,
0010
0000
0000
0000
,
0200
0000
0300
0000
,
0002
0000
0003
0000
,
0000
0000
0000
1000
,
1000
0000
0000
0000
,
1000
0000
0100
0000
,
0010
0000
0000
0000
,
0001
0000
0010
0000
,
0100
0000
0000
0000
,
1000
0000
0010
0000
,
0100
0000
0000
0000
,
0000
0000
0000
0000
,
0001
0000
0000
0000
,
0010
0000
0000
0000
,
2000
3000
0000
0000
,
0000
0000
0000
0000
,
1001
0000
0000
0000
,
0010
0000
0000
0000
,
0110
0000
0000
0000
,
1000
0000
0000
0000
,
0002
0000
0000
0003
;

//---------------dance-double - ----------------
#NOTEDATA:;
#CHARTNAME:;
#STEPSTYPE:dance-double;
#DESCRIPTION:;
#CHARTSTYLE:;
#DIFFICULTY:Hard;
#METER:8;
#RADARVALUES:0.540303,0.530172,0.260146,0.250140,0.145081,378.000000,352.000000,26.000000,25.000000,0.000000,0.000000,0.000000,0.000000,0.000000,0.540303,0.530172,0.260146,0.250140,0.145081,378.000000,352.000000,26.000000,25.000000,0.000000,0.000000,0.000000,0.000000,0.000000;
#CREDIT:;
#NOTES:
// measure 0
00000000
00000000
00000000
00000000
,  // measure 1
00000000
00000000
00000000
00000000
,  // measure 2
00000000
00000000
00000000
00000000
,  // measure 3
00000000
00000000
00000000
00000000
,  // measure 4
00000000
00000000
00000000
00000000
,  // measure 5
10000000
01000000
00010000
00000000
00001000
00000100
00000010
00001000
,  // measure 6
00000001
00000100
00000001
00000000
00001000
00000001
00000012
00000000
,  // measure 7
00000203
00002300
00003200
00000301
,  // measure 8
00001000
00000010
00000100
00000000
00001000
00010000
01000000
10000000
,  // measure 9
00010000
00100000
00010000
00000000
10000000
00010000
01010000
00000000
,  // measure 10
00010000
00100000
01000000
10000000
01000000
00010000
00001000
00000010
,  // measure 11
00000002
00000000
00000000
00000003
00001000
00000010
00000101
00000000
,  // measure 12
00000001
00000010
00000001
00000100
00000001
00000010
00000001
00000100
,  // measure 13
00000010
00001000
00000010
00000100
00000010
00001000
00000010
00000100
,  // measure 14
00001000
00010000
02000000
00000000
13000000
00100000
01000000
00020000
,  // measure 15
00200000
00030000
20300000
00000000
30200000
00000000
00310000
00000000
,  // measure 16
10000000
01000000
10000000
00100000
10000000
01000000
10000000
00100000
,  // measure 17
01000000
00010000
00100000
01000000
10000000
00100000
01000000
00010000
,  // measure 18
20000000
00000000
00200000
00000000
30000000
00000000
01300000
00000000
00010000
00000000
00000000
00010000
00000000
00000000
00010000
00000000
,  // measure 19
00200000
00000000
00002000
00000000
00300000
00000000
00013000
00000000
00000010
00000000
00000000
00000010
00000000
00000000
00000010
00000000
,  // measure 20
00000100
00000200
00000000
00000000
00000000
00000000
00000310
00000000
,  // measure 21
00001010
00000000
00000101
00000000
00001000
00000010
00000101
00000000
,  // measure 22
00000001
00000010
00000100
00001000
00000100
00000010
00000001
00000000
,  // measure 23
00000011
00000000
00001100
00000000
00000001
00000010
00001100
00000000
,  // measure 24
00000010
00000100
00001000
00010000
01000000
10000000
00100000
00000000
,  // measure 25
10100000
00000000
01010000
00000000
10000000
00100000
01010000
00000000
,  // measure 26
00010000
00000000
00100000
00000000
01000000
00000000
10000000
00000000
01000000
00000000
00100000
00000000
00010000
00000000
00000000
01000000
,  // measure 27
00100000
10000000
00010000
00000000
01000000
00100000
00010000
00000000
,  // measure 28
00001000
00000100
00001000
00000100
00000001
00000100
00000001
00000000
,  // measure 29
00001000
00000000
00000000
00001000
00000010
00000000
00000000
00000010
00000100
00000000
00000000
00000100
00000001
00000000
00000000
00000001
,  // measure 30
00001000
00000010
00000100
00000001
00001000
00000010
00000100
00000001
,  // measure 31
00000010
00000000
00000000
00000010
00001000
00000000
00000000
00001000
00010000
00000000
00000000
00010000
00100000
00000000
00000000
00100000
,  // measure 32
10000000
00010000
10000000
00010000
01000000
00100000
01000000
00200000
,  // measure 33
00000000
00300000
10000000
02000000
00000000
03020000
00000000
00032000
,  // measure 34
00000000
00003200
00000000
00000301
00001000
00000001
00000000
00000100
,  // measure 35
00000010
00000100
00001000
00010000
01000000
10000000
01000000
00000000
,  // measure 36
10000000
10000000
00100000
00010000
00100000
10000000
10010000
00000000
,  // measure 37
10000000
01000000
00010000
00000000
00010000
01000000
10000000
00000000
,  // measure 38
10000000
01000000
00010000
00001000
00000100
00000001
00000101
00000000
,  // measure 39
00002000
00000000
00000000
00000000
00023000
00000000
00000000
00000000
01030000
00000000
00000000
10000000
00000000
00000000
01000000
00000000
,  // measure 40
00010000
00001000
00000100
00000001
00001000
00001000
00001000
00000000
,  // measure 41
00000010
00000100
00000010
00001000
00000100
00000010
00000100
00000000
,  // measure 42
00001000
00000000
00000000
00000010
00000000
00000100
00000000
00000000
00000001
00000000
00001000
00000000
00000001
00000000
00000000
00000000
,  // measure 43
00000001
00000010
00000001
00000010
00000100
00001000
00001001
00000000
,  // measure 44
00000001
00000000
00000000
00000100
00000000
00001000
00000000
00000000
00010000
00000000
01000000
00000000
10000000
00000000
00000000
00000000
,  // measure 45
00010000
10000000
00010000
00010000
10000000
00010000
01100000
00000000
,  // measure 46
20000000
00000000
30100000
01000000
00010000
01000000
00010000
00000000
,  // measure 47
00010000
00100000
00010000
00100000
01000000
10000000
10010000
00000000
,  // measure 48
10100000
00000000
00000000
10000000
00000000
00000000
01010000
00000000
00000000
00010000
00000000
00000000
10010000
00000000
00000000
00000000
,  // measure 49
10000000
01000000
10000000
01000000
00010000
00001000
00000100
00000000
,  // measure 50
00000001
00000000
00000000
00000010
00000001
00000000
00000000
00000100
00000001
00000000
00000000
00001000
00000001
00000000
00000000
00000000
,  // measure 51
00000100
00001000
00000100
00000001
00000100
00001000
00010000
01000000
,  // measure 52
20000000
00000000
30100000
01000000
00010000
01000000
00200000
00000000
,  // measure 53
10300000
00100000
00010000
00001000
00000010
00000100
00001000
00000001
,  // measure 54
00000101
00000000
00000000
00001000
00000000
00000000
00001100
00000000
00000000
00000001
00000000
00000000
00000101
00000000
00000000
00000000
,  // measure 55
00000001
00000010
00001000
00010000
00100000
01000000
00010000
10000000
,  // measure 56
10100000
00000000
00000000
00010000
00000000
00000000
00110000
00000000
00000000
10000000
00000000
00000000
10100000
00000000
00000000
00000000
,  // measure 57
10000000
01000000
00010000
00001000
00000010
00000100
00001000
00000001
,  // measure 58
00001000
00000000
00000010
00001000
00000000
00000001
00000000
00000000
00000001
00000000
00000010
00000100
00000000
00000010
00000001
00000000
;
