#VERSION:0.83;
#TITLE:Traffic;
#SUBTITLE:;
#ARTIST:Tiesto;
#TITLETRANSLIT:;
#SUBTITLETRANSLIT:;
#ARTISTTRANSLIT:;
#GENRE:Techno;
#ORIGIN:;
#CREDIT:;
#BANNER:traffic-bn.png;
#BACKGROUND:traffic-bg.png;
#PREVIEWVID:;
#JACKET:;
#CDIMAGE:;
#DISCIMAGE:;
#LYRICSPATH:;
#CDTITLE:;
#MUSIC:Traffic.ogg;
#OFFSET:-0.020000;
#SAMPLESTART:70.560005;
#SAMPLELENGTH:12.000000;
#SELECTABLE:YES;
#BPMS:0.000=136.000;
#STOPS:;
#DELAYS:;
#WARPS:;
#TIMESIGNATURES:0.000=4=4;
#TICKCOUNTS:0.000=4;
#COMBOS:0.000=1;
#SPEEDS:0.000=1.000=0.000=0;
#SCROLLS:0.000=1.000;
#FAKES:;
#LABELS:0.000=Song Start;
#BGCHANGES:;
#KEYSOUNDS:;
#ATTACKS:
;

//---------------dance-single - ----------------
#NOTEDATA:;
#CHARTNAME:;
#STEPSTYPE:dance-single;
#DESCRIPTION:;
#CHARTSTYLE:;
#DIFFICULTY:Challenge;
#METER:9;
#RADARVALUES:0.565051,0.612186,0.168947,0.079505,0.402492,398.000000,381.000000,17.000000,8.000000,0.000000,0.000000,0.000000,0.000000,0.000000,0.565051,0.612186,0.168947,0.079505,0.402492,398.000000,381.000000,17.000000,8.000000,0.000000,0.000000,0.000000,0.000000,0.000000;
#CREDIT:;
#NOTES:
0000
0000
0000
0000
,
0000
0000
0000
0000
,
0100
0000
0000
1000
0001
0000
0001
0000
0001
0000
0000
0000
0100
0000
0000
0000
,
0010
0000
0000
0001
1000
0000
1000
0000
1000
0000
0010
0000
0000
0000
1000
0000
,
0001
0100
0001
0100
0001
0100
0001
0100
,
0010
0100
0010
0100
0010
0100
0010
0100
,
0010
1000
0010
1000
0010
1000
0010
1000
,
0001
1000
0001
1000
0001
1000
1001
0000
,
1000
0000
0000
0010
0001
0000
0001
0000
0001
0000
0000
0000
1010
0000
1000
0000
,
1000
0000
0000
0010
0100
0000
0100
0000
0100
0000
0000
0000
1010
0000
0010
0000
,
0010
0000
0000
1000
0001
0000
0001
0000
0001
0000
0000
0000
1100
0000
0100
0000
,
0100
0000
0000
1000
0001
0000
0001
0000
0001
0000
0100
0010
0000
0100
0010
0000
,
1000
0000
0000
0001
0100
0000
0010
0000
0100
0000
0000
0010
1000
0000
1000
0000
,
0100
0000
0000
0010
0001
0000
0100
0000
0010
0000
0000
0010
0100
0000
0001
1000
,
0001
0000
0000
1000
0001
0000
0100
0000
0010
0000
0000
0100
0010
0000
1000
0000
,
0010
0000
0000
1100
0000
0000
0010
0000
0000
0101
0000
0000
1001
0000
0000
0000
,
0100
0001
0100
0000
0010
0000
1000
0000
0000
0000
0010
0000
0000
0000
0100
0000
,
0000
0001
0000
0010
0000
0100
0001
0000
,
0100
1000
0100
0000
1000
0000
0010
0000
0000
0000
0100
0000
0000
0000
0001
0000
,
0000
1000
0000
0010
0000
0100
0010
0000
,
0010
1000
0010
0000
1000
0000
0100
0000
0000
0000
1000
0000
0000
0000
0001
0000
,
0000
0100
0000
0010
0000
0001
0010
0000
,
0100
0001
0100
0000
0001
0000
0100
0000
0000
0000
0010
0000
0000
0000
1000
0000
,
0000
0100
0000
1000
0000
0001
0010
0000
,
0001
0100
0001
0100
0001
0000
1000
0000
0100
0000
1000
0000
0010
0000
0100
0000
,
0000
0110
0000
0100
0001
1000
0001
0000
,
1000
0010
1000
0010
1000
0000
0001
0000
0100
0000
0001
0000
0010
0000
0001
0000
,
0000
1100
0000
0100
0010
0001
1000
0000
,
0010
0100
0010
0100
0010
0000
1000
0000
0100
0000
1000
0000
0010
0000
0100
0000
,
0000
0011
0000
0010
0100
1000
0001
0000
,
0100
0001
0100
0001
0100
0000
0010
0000
1000
0000
0001
0000
0100
0000
0010
0000
,
0100
0001
0010
0002
0200
0000
0000
0303
,
1000
0100
1000
0100
1000
0000
0100
0010
0000
0000
0010
0001
0000
0000
0001
1000
,
0000
0000
1000
0001
0000
0000
0001
0100
0000
0000
0100
0000
0001
0000
0000
0000
,
0001
0100
0001
0100
0001
0000
1000
0010
0000
0000
0010
0100
0000
0000
0100
0010
,
0000
0000
0010
1000
0000
0000
1000
0001
0000
0000
0001
0000
1000
0000
0000
0000
,
0001
1000
0001
1000
0001
0000
1000
0010
0000
0000
0010
0100
0000
0000
0100
0001
,
0000
0000
0001
1000
0000
0000
1000
0001
0000
0000
0001
0000
1000
0000
0000
0000
,
1000
0001
1000
0001
1000
0000
0001
0010
0000
0000
0010
0100
0000
0000
0100
1000
,
0000
0000
1000
0100
0000
0000
0100
0010
0000
0000
0010
0000
0001
0000
0000
0000
,
0100
0001
0100
0000
0010
0000
1000
0000
0010
0000
0100
0000
0010
0000
0001
0000
,
0010
0100
0010
1000
0010
0100
0010
0000
,
0010
1000
0010
0000
0100
0000
1000
0000
0100
0000
0010
0000
0100
0000
0001
0000
,
0100
0010
0100
1000
0100
0010
0100
0000
,
1000
0001
1000
0000
0001
0000
0100
0001
0000
0000
0100
0001
0000
0000
0100
1000
,
0000
0000
0100
1000
0000
0000
0100
0000
0001
0000
0100
0000
1000
0000
0001
0000
,
1000
0001
1000
0001
1000
0000
0010
1000
0000
0000
0010
0000
1001
0000
1001
0000
,
0000
0000
0010
0001
0000
0000
0010
0001
0000
0000
1001
0000
1001
0000
0000
0010
,
0100
0000
0001
1000
0001
0000
0000
0000
1000
0000
0000
0000
0110
0000
0000
0100
,
0010
0000
1000
0001
1000
0000
0000
0000
0010
0000
0000
0000
1001
0000
0000
0001
,
0100
0000
0010
1000
0010
0000
0000
0000
0100
0000
0000
0000
0101
0000
0000
0000
,
0020
0000
0000
2030
0000
0000
3002
0000
0000
0203
0000
0000
0302
0000
0000
0000
,
0013
0000
0000
0100
1000
0000
0000
0000
0010
0000
0000
0100
0001
0000
0000
0000
,
0001
0000
0000
1000
0100
0000
0010
0000
0001
0000
0000
0100
0010
0000
2000
0000
,
0000
0000
0000
0000
,
0000
0000
0000
0000
,
3000
0000
0000
0000
;

//---------------dance-single - ----------------
#NOTEDATA:;
#CHARTNAME:;
#STEPSTYPE:dance-single;
#DESCRIPTION:;
#CHARTSTYLE:;
#DIFFICULTY:Medium;
#METER:6;
#RADARVALUES:0.394684,0.444232,0.308081,0.039752,0.000000,278.000000,247.000000,31.000000,4.000000,0.000000,0.000000,0.000000,0.000000,0.000000,0.394684,0.444232,0.308081,0.039752,0.000000,278.000000,247.000000,31.000000,4.000000,0.000000,0.000000,0.000000,0.000000,0.000000;
#CREDIT:;
#NOTES:
0000
0000
0000
0000
,
0000
0000
0000
0000
,
0001
0001
0001
0001
,
0001
0000
0001
0000
0001
0100
0000
0100
,
0010
1000
0010
1000
0010
1000
0010
0000
,
1000
0100
0000
0010
0000
1001
0000
0010
,
0001
0100
0000
0010
0000
1001
0000
1000
,
0010
0100
0000
0011
0000
0100
0000
0010
,
1000
0010
0010
1010
,
0010
0100
0100
0101
,
0100
0001
0001
0011
,
0001
0000
1000
0000
1000
0020
0000
0030
,
1001
0000
1000
0010
1000
0000
0010
0100
,
0001
0000
0001
0100
0001
0000
0100
0010
,
1000
0000
0001
1000
0010
0000
0010
1000
,
0020
0000
0000
0000
,
1030
0000
0000
0100
0000
0001
0000
1010
,
0000
0010
0000
0100
0000
0001
0010
0000
,
0001
0000
0000
0100
0000
1000
0000
0011
,
0000
0100
0000
0010
0000
1000
0100
0000
,
1000
0001
0000
0100
0000
0010
0000
1100
,
0000
1001
0000
0101
0000
0001
0100
0000
,
0001
1000
0000
0010
0000
0100
0000
0110
,
0000
1010
0000
1001
0000
1000
0001
0000
,
0000
1000
0100
0000
0000
0100
0010
0000
,
0000
0010
0001
0000
0000
0001
1000
0000
,
0000
0001
0100
0000
0000
0100
0010
0000
,
0000
0010
1000
0000
0000
1000
0001
0000
,
0010
0010
0100
0010
0000
1001
0000
0010
,
0000
1001
0000
0010
0000
0100
0010
0000
,
1000
0100
0010
0001
1000
0100
0010
0001
,
0000
1000
0000
0001
0000
1000
0001
0000
,
1000
0100
1000
0100
0000
1100
0000
1000
,
0000
0100
0000
1000
0000
0100
1000
0000
,
0100
0010
0100
0010
0000
0100
0000
0110
,
0000
0010
0000
0100
0000
0010
0100
0000
,
0010
0001
0010
0001
0000
0010
0000
0011
,
0000
0001
0000
0010
0000
0001
0010
0000
,
0001
1000
0001
1000
0000
0001
0000
1001
,
0000
1000
0000
0001
0000
0100
0010
0100
,
0010
1000
0010
1000
0000
1010
0000
1010
,
0000
1000
0000
0010
0000
1000
0010
0000
,
0100
0001
1000
0001
0000
0101
0000
0101
,
0000
0001
0000
1000
0000
0010
0100
0000
,
0010
1000
0010
0100
0000
0110
0000
0110
,
0000
0100
0000
0001
0000
1000
0010
0000
,
1000
0010
1000
0001
0000
1001
1000
1000
,
0000
1010
0000
0101
0000
1001
0001
0000
,
0100
0000
0001
0000
1000
1000
0001
0000
,
0010
0000
1000
0000
0001
0001
1000
0000
,
0010
0000
1000
0000
0100
0100
0001
0000
,
2000
0000
0000
0000
,
3001
0000
0100
0000
1000
0100
0001
0000
,
1000
0000
0100
0000
0001
0100
1000
0200
,
0000
0000
0000
0000
,
0000
0000
0000
0000
0000
0000
0000
0300
;

//---------------dance-single - ----------------
#NOTEDATA:;
#CHARTNAME:;
#STEPSTYPE:dance-single;
#DESCRIPTION:;
#CHARTSTYLE:;
#DIFFICULTY:Easy;
#METER:3;
#RADARVALUES:0.248452,0.306093,0.049690,0.258390,0.000000,175.000000,170.000000,5.000000,26.000000,0.000000,0.000000,0.000000,0.000000,0.000000,0.248452,0.306093,0.049690,0.258390,0.000000,175.000000,170.000000,5.000000,26.000000,0.000000,0.000000,0.000000,0.000000,0.000000;
#CREDIT:;
#NOTES:
0000
0000
0000
0000
,
0000
0000
0000
0000
,
0010
1000
0001
0100
,
0001
0000
1000
0000
0000
0200
0000
0000
,
0300
0010
0000
1000
0000
0010
0000
0000
,
0000
0100
0000
0001
0000
0010
0000
0000
,
0000
0100
0000
1000
0000
0010
0000
0000
,
0000
0100
0000
0010
0000
1000
0000
0000
,
0002
0100
0000
1003
,
0020
0001
0000
1030
,
0200
0010
0000
0301
,
2000
0010
0100
3100
,
0001
1001
0001
1000
,
0001
1001
1000
0001
,
0200
0320
2030
3002
,
1003
0000
0000
0101
,
0002
0000
0000
0010
0000
0010
0000
0013
,
0000
0000
0000
0100
0000
0000
0000
0000
,
2000
0000
0000
0010
0000
0010
0000
3010
,
0000
0000
0000
0100
0000
0000
0000
0000
,
0020
0000
0000
1000
0000
0001
0000
1030
,
0000
0000
0000
0001
0000
0000
0000
0000
,
0200
0000
0000
0001
0000
1000
0000
0301
,
0000
0000
0000
1000
0000
0000
0000
0000
,
0010
0000
0000
1000
0000
0100
0000
0010
,
0000
0001
0000
1000
0000
0001
0000
0000
,
0100
0000
0000
0001
0000
0010
0000
0100
,
0000
1000
0000
0001
0000
1000
0000
0000
,
0001
0000
0000
1000
0000
0100
0000
0010
,
0000
0001
0000
1000
0000
0001
0000
0000
,
1000
0000
0000
0001
0000
0010
0000
0100
,
0000
1000
0000
0001
0000
1000
0001
0000
,
0200
0000
0000
0010
0000
1000
0000
0310
,
0000
0100
0000
0010
0000
1000
0000
0000
,
0002
0000
0000
1000
0000
0100
0000
1003
,
0000
0010
0000
1000
0000
0001
0000
0000
,
2000
0000
0000
0001
0000
0010
0000
3001
,
0000
0100
0000
0001
0000
1000
0000
0000
,
0020
0000
0000
0100
0000
0001
0000
0130
,
0000
0010
0000
0100
0000
0001
1000
0000
,
0200
0000
0000
1000
0000
1000
0000
1300
,
0000
0001
0000
0100
0000
0010
0000
0000
,
0200
0000
0000
0001
0000
0001
0000
0301
,
0000
1000
0000
0010
0000
0100
0000
0000
,
0002
0000
0000
0100
0000
0100
0000
0103
,
0000
0010
0000
1000
0000
0001
0000
0000
,
1001
0000
0000
0010
0000
0100
0000
0100
,
0000
0001
0000
1000
0000
0010
0000
0000
,
0020
1000
1000
0130
,
0200
0001
0001
0310
,
0002
0100
0100
1003
,
2002
0000
0000
3003
,
0100
0010
0000
1000
,
0000
0000
0001
0000
0000
0000
0000
0002
,
0000
0000
0000
0000
,
0000
0000
0000
0000
,
0003
0000
0000
0000
;

//---------------dance-single - ----------------
#NOTEDATA:;
#CHARTNAME:;
#STEPSTYPE:dance-single;
#DESCRIPTION:;
#CHARTSTYLE:;
#DIFFICULTY:Beginner;
#METER:1;
#RADARVALUES:0.070986,0.111307,0.039752,0.009938,0.000000,50.000000,46.000000,4.000000,1.000000,0.000000,0.000000,0.000000,0.000000,0.000000,0.070986,0.111307,0.039752,0.009938,0.000000,50.000000,46.000000,4.000000,1.000000,0.000000,0.000000,0.000000,0.000000,0.000000;
#CREDIT:;
#NOTES:
0000
0000
0000
0000
,
0000
0000
0000
0000
,
1000
0000
0000
0000
,
0000
0000
0000
0000
,
0001
0000
0000
0000
,
0100
0000
0000
0000
,
0010
0000
0000
0000
,
1000
0000
0000
0000
,
0000
0001
0000
0001
,
0000
0001
0000
0000
,
0000
0100
0000
0100
,
0000
0100
0000
0000
,
0001
0000
0100
0000
,
0001
0000
0000
0000
,
1000
0000
0000
0010
,
0000
0000
0000
0100
,
0000
0000
0000
0000
,
0000
0000
0000
0001
,
0000
0000
0000
0000
,
0000
0000
0000
1000
,
0000
0000
0000
0000
,
0000
0000
0000
0010
,
0000
0000
0000
0000
,
0000
0000
0000
0100
,
0000
0000
0000
0000
,
0000
0000
0000
0001
,
0000
0000
0000
0000
,
0000
0000
0000
1000
,
0000
0000
0000
0000
,
0000
0000
0000
0001
,
0000
0000
0000
0000
,
0000
0000
0000
0110
,
0000
0000
0000
0000
,
0000
0000
0000
1001
,
0000
0000
0000
0000
,
0000
0000
0000
0110
,
0000
0000
0000
0000
,
0000
0000
0000
1001
,
0000
0000
0000
0000
,
0000
0000
0000
0001
,
0000
0000
0000
0001
,
0000
0000
0000
0100
,
0000
0000
0000
0100
,
0000
0000
0000
0010
,
0000
0000
0000
0010
,
0000
0000
0000
1000
,
0000
0000
1000
0000
,
0000
0000
0001
0000
,
0100
0000
0100
0000
,
0100
0000
0000
0000
,
0010
0000
1000
0000
,
0000
0000
0000
0000
,
0000
0010
0000
0100
,
0000
0010
0000
0200
,
0000
0000
0000
0000
,
0000
0000
0000
0000
,
0300
0000
0000
0000
;

//---------------dance-single - ----------------
#NOTEDATA:;
#CHARTNAME:;
#STEPSTYPE:dance-single;
#DESCRIPTION:;
#CHARTSTYLE:;
#DIFFICULTY:Hard;
#METER:7;
#RADARVALUES:0.471349,0.500880,0.337895,0.258390,0.089443,332.000000,298.000000,34.000000,26.000000,0.000000,0.000000,0.000000,0.000000,0.000000,0.471349,0.500880,0.337895,0.258390,0.089443,332.000000,298.000000,34.000000,26.000000,0.000000,0.000000,0.000000,0.000000,0.000000;
#CREDIT:;
#NOTES:
0000
0000
0000
0000
,
0000
0000
0000
0000
,
0010
0000
1000
0100
1000
0000
1000
0000
,
0001
0000
0001
0010
0002
2000
0000
3003
,
0010
0001
0000
1000
0100
0010
0000
0001
,
0100
0010
0000
1000
0001
1000
0000
0010
,
1000
0100
0000
0010
0001
1000
0000
0100
,
1000
0100
0000
1000
0010
0200
0002
0303
,
2001
0000
0010
3010
0100
0000
0010
0001
,
0021
0000
0100
0130
0010
0000
0001
1000
,
1002
0000
0100
0103
0010
0000
1000
0100
,
2100
0000
0010
3010
0100
0001
0000
1000
,
0010
0000
1000
1000
1010
0000
1000
1000
,
1100
0000
0001
0001
0101
0000
0001
0001
,
0011
0000
1000
1000
1100
0000
1000
1000
,
2020
0000
0000
3030
,
0010
1000
0010
0000
0000
0000
0100
0000
0000
0000
0010
0000
0000
0000
0100
0000
,
0000
0001
0000
0100
0000
0010
0100
0000
,
0001
0010
0001
0000
0000
0000
1000
0000
0000
0000
0001
0000
0000
0000
0100
0000
,
0000
0001
0000
1000
0000
0001
0010
0000
,
0100
1000
0100
0000
0000
0000
0010
0000
0000
0000
0100
0000
0000
0000
0001
0000
,
0000
0100
0000
1000
0000
0100
0010
0000
,
1000
0100
1000
0000
0000
0000
0010
0000
0000
0000
1000
0000
0000
0000
0100
0000
,
0000
1000
0000
0001
0000
1000
0010
0000
,
0100
0010
1000
0100
0000
0010
0000
0101
,
0000
1001
0000
0010
0000
1000
0100
0000
,
0010
0001
1000
0010
0000
0100
0000
1010
,
0000
1100
0000
0010
0000
0001
0100
0000
,
0010
0100
0001
1000
0000
0100
0000
1100
,
0000
0011
0000
0100
0000
0010
1000
0000
,
0100
1000
0001
0200
0000
0320
0000
2030
,
0000
3002
0000
0013
0100
1000
0001
0010
,
0001
0100
0001
0000
0010
0000
0001
0000
0000
0000
1001
0000
0000
0000
0101
0000
,
0000
1001
0000
0101
0000
0001
1000
0000
,
1000
0010
1000
0000
0100
0000
1000
0000
0000
0000
1100
0000
0000
0000
1001
0000
,
0000
1100
0000
1001
0000
1000
0010
0000
,
0100
0010
0100
0000
0001
0000
0100
0000
0000
0000
0110
0000
0000
0000
1010
0000
,
0000
0110
0000
1010
0000
0010
0100
0000
,
0010
1000
0010
0000
0100
0000
0010
0000
0000
0000
0101
0000
0000
0000
0110
0000
,
0000
0101
0000
0110
0000
0001
1000
0010
,
0100
0010
0100
0000
0000
0000
0001
0000
1000
0000
0010
0000
0000
0000
0001
0000
,
1000
0010
0000
0001
1000
0100
0010
0000
,
0100
1000
0100
0000
0000
0000
1000
0000
0010
0000
0100
0000
0000
0000
1000
0000
,
0010
0100
0000
1000
0100
0010
0001
0000
,
0010
0100
0010
0000
0100
0000
0010
0000
0001
0000
0010
0000
0100
0000
0010
0000
,
0001
0010
0100
0010
0001
1000
0010
0000
,
1000
0010
1000
0000
0100
0000
1000
0000
0001
0000
0100
0000
0010
0000
0010
0000
,
0000
1001
0000
0110
0000
0001
0001
0000
,
2000
0000
3010
1000
0200
0000
0310
0001
,
0200
0000
1300
0100
0002
0000
0013
0100
,
2000
0000
3001
0010
0002
0000
0103
0010
,
2000
0000
0000
3200
0000
0000
0302
0000
0003
0200
0000
0000
2300
0000
0000
0000
,
3010
0000
0000
0100
0001
0000
0100
0000
0010
0000
0000
0100
1000
0000
0100
0000
,
0010
0000
0000
0001
1000
0000
0001
0000
0100
0000
0000
0010
1000
0000
0020
0000
,
0000
0000
0000
0000
,
0000
0000
0000
0000
,
0030
0000
0000
0000
;

//---------------dance-double - ----------------
#NOTEDATA:;
#CHARTNAME:;
#STEPSTYPE:dance-double;
#DESCRIPTION:;
#CHARTSTYLE:;
#DIFFICULTY:Challenge;
#METER:9;
#RADARVALUES:0.562212,0.695666,0.119257,0.188824,0.417400,396.000000,384.000000,12.000000,19.000000,0.000000,0.000000,0.000000,0.000000,0.000000,0.562212,0.695666,0.119257,0.188824,0.417400,396.000000,384.000000,12.000000,19.000000,0.000000,0.000000,0.000000,0.000000,0.000000;
#CREDIT:;
#NOTES:
// measure 0
00000000
00000000
00000000
00000000
,  // measure 1
00000000
00000000
00000000
00000000
,  // measure 2
00000000
00000000
00000000
00000000
,  // measure 3
00000000
00000000
00000000
00000000
00000000
00000000
00000000
00000000
00000000
00000000
01000000
00100000
00000000
00100000
01000000
10000000
,  // measure 4
00010000
01000000
00100000
10000000
01000000
00010000
00001000
00000100
,  // measure 5
00000001
00000010
00000100
00001000
00000001
00000010
00001000
00010000
,  // measure 6
00100000
10000000
01000000
00100000
00010000
01000000
00100000
10000000
,  // measure 7
01000000
00000000
00010000
00000000
00001000
00000000
00000100
00000000
00000001
00000000
00000000
00000001
00001000
00000000
00000010
00000000
,  // measure 8
00000100
00000000
00000000
00000001
00000010
00000000
00000001
00000000
00001000
00000000
00000000
00000001
00000010
00000000
00000001
00000000
,  // measure 9
00000100
00000000
00000000
00001000
00010000
00000000
01000000
00000000
10000000
00000000
00000000
10000000
00100000
00000000
01000000
00000000
,  // measure 10
00010000
00000000
00000000
00010000
00100000
00000000
00010000
00000000
10000000
00000000
00000000
00010000
01000000
00000000
00010000
00000000
,  // measure 11
10000000
00000000
00000000
01000000
00010000
00000000
00001000
00000000
00000100
00000000
00000001
00001000
00000000
00000010
00000100
00000000
,  // measure 12
00000001
00000000
00000000
00001000
00000010
00000000
00001000
00000000
00000001
00000000
00000000
00001000
00000100
00000000
00001000
00000000
,  // measure 13
00000001
00000000
00000000
00000100
00001000
00000000
00010000
00000000
01000000
00000000
00000000
10000000
00100000
00000000
01000000
00000000
,  // measure 14
00010000
00000000
00000000
00010000
00100000
00000000
01000000
00000000
10000000
00000000
00000000
00100000
00010000
00000000
00001000
00000000
,  // measure 15
00000010
00000000
00000000
00000010
00000000
00000000
00000001
00000000
00000000
00000001
00000000
00000000
00001000
00000000
00000000
00000000
,  // measure 16
00000001
00001000
00000001
00000000
00000100
00000000
00002000
00000000
00000000
00000000
00023000
00000000
00000000
00000000
02030000
00000000
,  // measure 17
00000000
13000000
00000000
10010000
00000000
00100000
01000000
00000000
,  // measure 18
01000000
00100000
01000000
00000000
00100000
00000000
00020000
00000000
00000000
00000000
00032000
00000000
00000000
00000000
00003200
00000000
,  // measure 19
00000000
00000301
00000000
00001001
00000000
00000010
00000100
00000000
,  // measure 20
00000100
00000001
00000100
00000000
00000010
00000000
00002000
00000000
00000000
00000000
00003020
00000000
00000000
00000000
00000230
00000000
,  // measure 21
00000000
00001300
00000000
00011000
00000000
00010000
01000000
00000000
,  // measure 22
10000000
00100000
10000000
00000000
00010000
00000000
02000000
00000000
00000000
00000000
03200000
00000000
00000000
00000000
00320000
00000000
,  // measure 23
00000000
00031000
00000000
00001100
00000000
00000100
00000001
00000000
,  // measure 24
00001000
00000010
00001000
00000000
00000001
00000000
00001000
00000000
00000000
00000001
00000100
00000000
00000000
00000010
00001000
00000000
,  // measure 25
00000000
00000010
00000100
00000000
00000000
00000000
00001100
00000000
00000000
00000000
00001000
00000000
00010000
00000000
00000000
00000000
,  // measure 26
01000000
10000000
01000000
00000000
10000000
00000000
00010000
00000000
00000000
01000000
00010000
00000000
00000000
10000000
00100000
00000000
,  // measure 27
00000000
01000000
00100000
00000000
00000000
00000000
01100000
00000000
00000000
00000000
00100000
00000000
00010000
00000000
00000000
00000000
,  // measure 28
00001000
00000010
00001000
00000000
00000010
00000000
00000001
00000000
00000000
00001000
00000010
00000000
00000000
00000100
00000001
00000000
,  // measure 29
00000000
00000001
00001000
00000000
00000000
00000000
00001001
00000000
00000000
00000000
00000010
00000000
00000100
00000000
00000000
00000000
,  // measure 30
00000001
00001000
00000001
00001000
00000001
00000000
00000100
00000000
00000000
00000000
00010010
00000000
00000000
00000000
00011000
00000000
,  // measure 31
00000000
01001000
00000000
01000000
00100000
10000000
00010000
01000000
,  // measure 32
00100000
10000000
00100000
00000000
01000000
00000000
00010000
00000000
00000000
00010000
10000000
00000000
00000000
10000000
00010000
00000000
,  // measure 33
00000000
00010000
10000000
00000000
01000000
00000000
00010000
00000000
00001000
00000000
00000100
00000000
00000001
00000000
00000000
00000000
,  // measure 34
00001000
00000010
00001000
00000000
00000001
00000000
00001000
00000000
00000000
00001000
00000001
00000000
00000000
00000001
00001000
00000000
,  // measure 35
00000000
00001000
00000001
00000000
00000100
00000000
00001000
00000000
00010000
00000000
01000000
00000000
10000000
00000000
00000000
00000000
,  // measure 36
00010000
00100000
00010000
00000000
10000000
00000000
00010000
00000000
00000000
00010000
10000000
00000000
00000000
10000000
00010000
00000000
,  // measure 37
00000000
00010000
10000000
00000000
01000000
00000000
00010000
00000000
00001000
00000000
00000100
00000000
00000001
00000000
00000000
00000000
,  // measure 38
00001000
00000010
00000100
00000000
00000001
00000000
00000010
00000000
00000000
00000010
00000100
00000000
00000000
00000100
00001000
00000000
,  // measure 39
00000000
00001000
00000010
00000000
00000100
00000000
00001000
00000000
00010000
00000000
01000000
10000000
00000000
01000000
10000000
00000000
,  // measure 40
00100000
01000000
00010000
00000000
10000000
00000000
00100000
00000000
01000000
00000000
00010000
00000000
00100000
00000000
01000000
00000000
,  // measure 41
10000000
00100000
01000000
00010000
10000000
00100000
01000000
00000000
,  // measure 42
00100000
00010000
00001000
00000000
00000010
00000000
00000001
00000000
00001000
00000000
00000010
00000000
00000100
00000000
00000001
00000000
,  // measure 43
00000010
00000100
00001000
00000010
00000100
00000001
00001000
00000000
,  // measure 44
00000001
00001000
00000010
00000000
00000100
00000000
00000001
00000000
00001000
00000000
00000010
00001000
00000010
00000000
00000100
00000001
,  // measure 45
00000100
00000000
00000010
00001000
00000010
00000000
00000100
00000001
00000100
00000000
00000010
00000100
00000000
00001000
00010000
00000000
,  // measure 46
01000000
10000000
01000000
00000000
10000000
00000000
00100000
01000000
00100000
00000000
10000000
00010000
10000000
00010000
10000000
00000000
,  // measure 47
00000000
00000000
00010000
10000000
00010000
10000000
00010000
00000000
00000000
00000000
01100000
00000000
01100000
00000000
00000000
00000000
,  // measure 48
00100000
00000000
00000000
10000000
00010000
00000000
10000000
00000000
00100000
00000000
00000000
01000000
00010000
00000000
01000000
00000000
,  // measure 49
00100000
00000000
00000000
00010000
00001000
00000000
00000010
00000000
00000001
00000000
00000000
00001000
00000010
00000000
00001000
00000000
,  // measure 50
00000001
00000000
00000000
00000001
00000100
00000000
00000001
00000000
00001000
00000000
00000000
00000010
00000100
00000000
00001000
00000000
,  // measure 51
00020000
00000000
00000000
02030000
00000000
00000000
23000000
00000000
00000000
30200000
00000000
00000000
00320000
00000000
00000000
00000000
,  // measure 52
00031000
00000000
00000000
00000010
00000001
00000000
00000010
00000000
00000001
00000000
00000000
00000001
00001000
00000000
00000001
00000000
,  // measure 53
00001000
00000000
00000000
00001000
00000010
00000000
00001000
00000000
00000010
00000000
00000000
00000010
00000100
00000000
00002000
00000000
,  // measure 54
00020000
00000000
00000000
00000000
,  // measure 55
00000000
00000000
00000000
00000000
,  // measure 56
00033000
00000000
00000000
00000000
;
