#TITLE:Traces;
#SUBTITLE:;
#ARTIST:TaQ;
#TITLETRANSLIT:;
#SUBTITLETRANSLIT:;
#ARTISTTRANSLIT:;
#GENRE:Techno;
#CREDIT:;
#BANNER:traces-bn.png;
#BACKGROUND:traces-bg.png;
#LYRICSPATH:;
#CDTITLE:;
#MUSIC:traces.ogg;
#OFFSET:-0.020000;
#SAMPLESTART:56.799999;
#SAMPLELENGTH:12.000000;
#SELECTABLE:YES;
#BPMS:0.000000=152.009995
;
#STOPS:
;
#BGCHANGES:;
#KEYSOUNDS:;
#ATTACKS:;

//---------------dance-single - ----------------
#NOTES:
     dance-single:
     :
     Hard:
     8:
     0.509176,0.547781,0.107122,0.360318,0.000000,366.000000,355.000000,11.000000,37.000000,0.000000,0.000000,0.509176,0.547781,0.107122,0.360318,0.000000,366.000000,355.000000,11.000000,37.000000,0.000000,0.000000:
// measure 0
0000
0000
0000
0000
,  // measure 1
0000
0000
0000
0000
,  // measure 2
0000
0000
0000
0000
,  // measure 3
0000
0000
0000
0000
,  // measure 4
1000
0100
0010
0000
0001
0000
1001
0000
,  // measure 5
0001
0010
0100
0000
1000
0000
1001
0000
,  // measure 6
0100
1000
0100
0000
0010
0000
0011
0000
,  // measure 7
0010
0001
0010
0000
0100
0000
1100
0000
,  // measure 8
0001
0010
0100
0010
0001
0000
0110
0000
,  // measure 9
1000
0100
0010
0100
1000
0000
0110
0000
,  // measure 10
0001
0100
1000
0100
0001
0000
1001
0000
,  // measure 11
1000
0010
0001
0010
1000
0000
1000
0001
,  // measure 12
0200
0010
0310
1000
0002
0100
0103
0000
,  // measure 13
0020
1000
1000
0100
1000
0000
1030
0000
,  // measure 14
2000
0100
3100
0010
0002
0100
0103
0000
,  // measure 15
0020
0100
0100
0001
0100
0000
0130
0000
,  // measure 16
0200
0001
0301
1000
0020
0100
0130
0000
,  // measure 17
0002
1000
1000
0010
1000
0000
1003
0000
,  // measure 18
0020
1000
1030
0100
2000
0001
3001
1000
,  // measure 19
2002
0000
0000
3003
,  // measure 20
0100
0010
0001
1000
0000
0000
0000
0000
,  // measure 21
0100
1000
0001
0100
0000
0000
0000
0000
,  // measure 22
0001
1000
0010
0001
0000
0000
0000
0000
,  // measure 23
0010
1000
0100
0001
0000
0000
0000
0000
,  // measure 24
0100
1000
0100
0001
0000
0000
0000
0000
,  // measure 25
0010
1000
0010
0001
0000
0000
0000
0000
,  // measure 26
0100
0010
1000
0001
0000
0000
0000
0000
,  // measure 27
0010
0100
1000
0001
0000
0000
0002
0000
,  // measure 28
1003
0100
0001
0000
0100
0000
2000
0000
,  // measure 29
3001
0010
1000
0020
0000
0000
0032
0000
,  // measure 30
1003
0010
0100
0000
1000
0000
0100
0000
,  // measure 31
0001
0010
0100
0000
0001
0000
0200
0000
,  // measure 32
1300
0100
0010
0000
0001
0000
0200
0000
,  // measure 33
1300
0100
0001
0020
0000
0000
0230
0000
,  // measure 34
1300
0001
0010
0000
0100
0000
0010
0000
,  // measure 35
0001
1000
0100
1000
0010
0100
0001
0010
,  // measure 36
0100
1000
0100
0010
0100
1000
0001
0010
,  // measure 37
0100
0010
0100
0001
0100
0010
0001
1000
,  // measure 38
0010
0100
0010
0001
0010
0100
0001
1000
,  // measure 39
0010
0100
0010
0001
0010
1000
0001
1000
,  // measure 40
0100
0010
0100
0001
0100
1000
0001
1000
,  // measure 41
0100
0010
0100
0001
0100
0010
1000
0001
,  // measure 42
0010
0100
0010
1000
0010
0001
0100
0010
,  // measure 43
1000
0100
0010
0001
0010
0000
1000
0100
,  // measure 44
2000
0010
3010
0000
0200
1000
1000
0301
,  // measure 45
2000
0001
0001
3100
0000
0001
1000
0000
,  // measure 46
0002
0010
0013
0000
0200
0001
0001
1300
,  // measure 47
0002
1000
1003
0010
0000
0100
0010
0000
,  // measure 48
0200
0001
0301
0000
0200
1000
1300
0000
,  // measure 49
0100
0001
0100
1000
0100
0001
0100
0000
,  // measure 50
2000
0100
3010
0000
0002
0010
0103
0000
,  // measure 51
0100
0010
0001
1000
0010
0100
0010
1000
,  // measure 52
0001
0100
0010
0001
0010
1000
0100
0010
,  // measure 53
1000
0010
0001
0100
0010
1000
0010
0100
,  // measure 54
0010
1000
0001
1000
0010
0001
0010
1000
,  // measure 55
0001
0010
0001
1000
0100
0001
0100
1000
,  // measure 56
0001
0100
0010
0001
0010
1000
0010
0100
,  // measure 57
1000
0100
0001
1000
0010
0100
0001
1000
,  // measure 58
0010
1000
0001
1000
0010
0001
0010
1000
,  // measure 59
0001
0100
0001
1000
0100
0001
0100
1000
,  // measure 60
1020
0030
0000
0201
,  // measure 61
2300
0000
0000
3200
0000
0000
0301
0000
,  // measure 62
2002
0000
3003
0000
;

//---------------dance-single - ----------------
#NOTES:
     dance-single:
     :
     Medium:
     5:
     0.338059,0.395620,0.116860,0.564823,0.000000,243.000000,231.000000,12.000000,58.000000,0.000000,0.000000,0.338059,0.395620,0.116860,0.564823,0.000000,243.000000,231.000000,12.000000,58.000000,0.000000,0.000000:
0000
0000
0000
0000
,
0000
0000
0000
0000
,
0000
0000
0000
0000
,
0000
0000
0000
0000
,
2000
0100
0001
0100
,
0010
0100
0001
3100
,
0002
0100
1000
0100
,
0010
0100
1000
0103
,
0002
0000
1003
0000
0010
1000
0001
0000
,
2000
0000
3001
0000
0010
1000
0001
0000
,
0200
0000
0310
0000
0100
0001
1000
0000
,
0020
0000
0000
0000
0000
0000
0130
0100
,
0001
0010
0002
0000
0010
0000
0103
0000
,
1000
0100
2000
0000
0010
0000
3100
0000
,
0001
1000
0002
0000
2003
0000
3002
0000
,
0103
0010
0200
0000
0320
0000
0230
0000
,
0301
0010
0200
0000
1000
0000
0310
0000
,
1000
0100
0020
0000
0001
0000
1030
0000
,
0001
0100
0002
0000
0203
0000
0302
0000
,
2000
0000
0000
3003
,
0010
1000
0001
0000
,
0100
0001
0010
0000
,
0100
1000
0100
0000
,
0100
0001
0100
0000
,
2000
0010
3001
0000
,
0002
0100
1003
0000
,
0010
1000
0010
0000
,
0010
0001
0010
0001
,
0202
0000
0303
1000
,
2200
0000
3000
0020
0300
0000
0031
0000
,
2002
0000
0000
3003
,
0000
0000
0000
0010
,
0220
0000
0330
1000
,
2020
0000
3000
0200
0030
0000
0301
0000
,
2002
0000
0000
0003
,
0010
0010
0010
3010
,
1000
0100
0020
0000
0001
0000
0031
0000
,
1000
0010
0200
0000
0001
0000
0301
0000
,
0001
0010
0200
0000
1000
0000
1300
0000
,
0001
0100
0020
0000
1000
0000
1030
0000
,
1000
0001
0200
0000
0001
0000
1300
0000
,
0001
1000
0200
0000
1000
0000
0301
0000
,
1000
0001
0020
0000
0001
0000
1030
0000
,
0001
1000
0020
0000
1000
0000
0031
0000
,
1000
0100
1000
0100
1000
0000
0010
0000
,
0100
0001
0100
0001
0100
0000
0001
0000
,
0010
0100
0010
0100
0010
0000
0100
0000
,
1000
0001
1000
0001
1000
0000
0010
0000
,
0100
0001
0100
0000
0010
0100
0010
0000
,
1000
0100
1000
0000
0010
1000
0010
0000
,
2000
0100
0010
3001
,
1001
0000
0110
0000
,
0102
1000
1000
0013
,
2010
0001
0001
3100
,
1020
0100
0100
1030
,
0201
0010
0010
0301
,
1000
0100
1000
0000
0001
0100
0001
0000
,
1000
0010
1000
0000
0001
0010
0001
0000
,
2000
0000
3020
0000
,
0230
0000
0000
0000
,
0302
0003
0000
0200
,
2300
0000
3000
0200
0000
0000
0302
0000
,
2000
0000
3003
0000
;

//---------------dance-single - ----------------
#NOTES:
     dance-single:
     :
     Easy:
     3:
     0.253197,0.273891,0.068168,0.409010,0.000000,182.000000,175.000000,7.000000,42.000000,0.000000,0.000000,0.253197,0.273891,0.068168,0.409010,0.000000,182.000000,175.000000,7.000000,42.000000,0.000000,0.000000:
0000
0000
0000
0000
,
0000
0000
0000
0000
,
0000
0000
0000
0000
,
0000
0000
0000
0000
,
2000
0100
0000
3100
,
0002
0100
0000
0103
,
2000
0100
0000
3100
,
0002
0100
0000
0103
,
0010
0010
1000
0000
,
0001
0001
0100
0000
,
0100
0100
0001
0000
,
1000
1000
0010
0000
,
1000
0200
0010
0310
,
0001
0020
0100
0130
,
1000
0002
0100
0103
,
0001
2000
0010
3010
,
0100
0010
0001
0010
,
0001
0100
0010
0100
,
0001
1000
0100
1000
,
0010
0100
0001
0100
,
0002
0000
0000
0003
,
0020
0000
0000
0030
,
2000
0000
0000
3000
,
0020
0000
0000
0030
,
0200
0000
0000
0300
,
2000
0000
0000
3000
,
0002
0000
0000
0003
,
0200
0000
0000
0310
,
0110
0000
0000
1000
,
1001
0000
0000
0100
0000
0000
0010
0000
,
0110
0000
0000
0000
,
0000
0000
0000
0001
,
1001
0000
0000
0100
,
0110
0000
0000
1000
0000
0000
0001
0000
,
1001
0000
0000
0000
,
0020
0000
0000
0000
,
0031
2000
0010
3010
,
1000
0002
0010
0013
,
0001
0020
0100
0130
,
1000
0200
0010
0310
,
0001
0100
1000
0100
,
0001
0010
1000
0010
,
0001
0100
0010
1000
,
1000
0010
0100
0001
,
1000
0200
0001
0301
,
0001
0200
1000
1300
,
1000
0020
0001
0031
,
0001
0020
1000
1030
,
0001
0010
0100
0010
,
0001
0100
0010
0100
,
0010
1000
0100
1000
,
0020
0100
0100
0130
,
0002
1000
1003
0100
,
2000
0001
3001
0100
,
0002
0000
0023
0000
,
0230
1000
1300
0010
,
0200
0001
0301
0010
,
0200
1000
1300
0010
,
0200
0001
0301
0000
,
2002
0000
0000
3003
,
2000
3000
0000
0020
,
0230
0000
0300
0002
0000
0003
0020
0000
,
0230
0000
0300
0000
;

//---------------dance-single - ----------------
#NOTES:
     dance-single:
     :
     Beginner:
     1:
     0.108513,0.150944,0.000000,0.097383,0.000000,78.000000,78.000000,0.000000,10.000000,0.000000,0.000000,0.108513,0.150944,0.000000,0.097383,0.000000,78.000000,78.000000,0.000000,10.000000,0.000000,0.000000:
0000
0000
0000
0000
,
0000
0000
0000
0000
,
0000
0000
0000
0000
,
0000
0000
0000
0000
,
0000
0001
0000
0001
,
0000
0001
0000
0001
,
0000
1000
0000
1000
,
0000
1000
0000
1000
,
0000
0010
0000
0010
,
0000
0010
0000
0010
,
0000
0100
0000
0100
,
0000
0000
0000
0000
,
0002
0000
0003
0000
,
2000
0000
3000
0000
,
0020
0000
0030
0000
,
0200
0000
0300
0000
,
0020
0000
0030
0000
,
2000
0000
3000
0000
,
0002
0000
0003
0000
,
0200
0000
0300
0000
,
0100
0000
0000
0000
,
0001
0000
0000
0000
,
0010
0000
0000
0000
,
0100
0000
0000
0000
,
0001
0000
0000
0000
,
0100
0000
0000
0000
,
1000
0000
0000
0000
,
0010
0000
0000
0100
,
0100
0000
0000
0001
,
0001
0000
0000
1000
,
1000
0000
0000
0000
,
0000
0000
0000
0010
,
0010
0000
0000
1000
,
1000
0000
0000
0001
,
0001
0000
0000
0000
,
0000
0000
0000
0000
,
0100
0000
0000
0000
,
0001
0000
0000
0000
,
0010
0000
0000
0000
,
0100
0000
0000
0000
,
0001
0000
0000
0000
,
0100
0000
0000
0000
,
1000
0000
0000
0000
,
0020
0000
0030
0000
,
0100
0000
0000
0000
,
0010
0000
0000
0000
,
1000
0000
0000
0000
,
0010
0000
0000
0000
,
0001
0000
0000
0000
,
1000
0000
0000
0000
,
0010
0000
0000
0000
,
0100
0000
0000
0000
,
0010
0010
0000
0000
,
1000
1000
0000
0000
,
0100
0100
0000
0000
,
0010
0010
0000
0000
,
0001
0001
0000
0000
,
0100
0100
0000
0000
,
0010
0010
0000
0000
,
2000
0000
3000
0000
,
0001
0000
0000
0100
,
0100
0000
0000
0010
,
0010
0000
0000
0000
;

//---------------dance-double - ----------------
#NOTES:
     dance-double:
     :
     Easy:
     3:
     0.233720,0.304323,0.019477,0.340842,0.000000,168.000000,166.000000,2.000000,35.000000,0.000000,0.000000,0.233720,0.304323,0.019477,0.340842,0.000000,168.000000,166.000000,2.000000,35.000000,0.000000,0.000000:
00000000
00000000
00000000
00000000
,
00000000
00000000
00000000
00000000
,
00000000
00000000
00000000
00000000
,
00000000
00000000
00000000
00000000
,
00002000
00010000
00000000
00010000
,
00000000
00010000
00000000
00013000
,
00020000
00001000
00000000
00001000
,
00000000
00001000
00000000
00031000
,
00100000
00010000
01000000
00000000
,
00100000
10000000
00010000
00000000
,
00100000
00001000
00010000
00000000
,
00000100
00000100
00001000
00001000
,
00000001
00000010
00000100
00000000
,
00000010
00000100
00010000
00000000
,
00001000
01000000
00100000
00000000
,
10000000
10000000
01000000
01000000
,
00100000
00010000
00001000
00000000
,
00000100
00000010
00000001
00000000
,
00000100
00000010
00001000
00000000
,
00000100
00000100
00010000
00010000
,
00002000
00000000
00203000
00000000
,
00320000
00000000
02030000
00000000
,
03200000
00000000
00320000
00000000
,
00032000
00000000
00003200
00000000
,
00000302
00000000
00002003
00000000
,
00003020
00000000
00020030
00000000
,
00032000
00000000
02003000
00000000
,
03200000
00000000
00000000
10300000
,
00010000
00000000
00000000
00010000
,
00001000
00000000
00000000
00001000
,
00000001
00000000
00000000
00000000
,
00000000
00000000
00000000
00000001
,
00001000
00000000
00000000
00001000
,
00010000
00000000
00000000
00010000
,
10000000
00000000
00000000
00000000
,
02200000
00000000
03300000
00000000
,
01000000
00001000
00010000
00000000
,
00001000
00010000
00000100
00000000
,
00000010
00000100
00000001
00000000
,
00000100
00000010
00010000
00000000
,
00001000
00010000
00100000
00000000
,
10000000
00010000
01000000
00000000
,
00001000
00010000
00000010
00000000
,
00000200
00000000
00000320
00000000
,
00002030
00000100
00003010
00000010
,
00000002
00001000
00000100
00000103
,
00000020
00010000
00001000
00001030
,
00020000
00000100
00001000
00031000
,
00002000
00100000
01000000
01003000
,
00020000
10000000
01000000
01030000
,
20000000
00010000
00100000
30100000
,
02200000
00000000
03300000
00000000
,
00001000
00010000
00001000
00010000
,
00000100
00001000
00000100
00001000
,
00000010
00000100
00000001
00001000
,
00000100
00010000
00001000
01000000
,
00100000
01000000
00100000
01000000
,
00010000
10000000
00010000
10000000
,
00010000
00100000
00001000
00010000
,
00000100
00001000
00000010
00000100
,
00000002
00000000
00000000
00002003
,
00003200
00000000
00000000
00020300
,
00032000
00000000
00003000
00000000
;

//---------------dance-double - ----------------
#NOTES:
     dance-double:
     :
     Medium:
     5:
     0.333886,0.426052,0.058430,0.613515,0.000000,240.000000,234.000000,6.000000,63.000000,0.000000,0.000000,0.333886,0.426052,0.058430,0.613515,0.000000,240.000000,234.000000,6.000000,63.000000,0.000000,0.000000:
00000000
00000000
00000000
00000000
,
00000000
00000000
00000000
00000000
,
00000000
00000000
00000000
00000000
,
00000000
00000000
00000000
00000000
,
00000002
00001000
00000100
00001000
,
00000000
00001000
00000100
00001003
,
00000200
00010000
00001000
00010000
,
00000000
00010000
00001000
00010300
,
00001000
00000000
00100000
00000000
00010000
10000000
00010000
00000000
,
10000000
00000000
01000000
00000000
00100000
00001000
00100000
00000000
,
00010000
00000000
00001000
00000000
00000100
00000010
00000100
00000000
,
00000001
00001000
00002002
00003000
,
00000203
00000000
00000320
00000000
00010000
00010000
00010030
00000000
,
00002000
00000000
02003000
00000000
00100000
00100000
03100000
00000000
,
00200000
00000000
20300000
00000000
00010000
00010000
30010000
00000000
,
00200000
00000000
00302000
00000000
00100000
00100000
00103000
00000000
,
00002000
00000000
00023000
00000000
00000010
00000010
00030010
00000000
,
00000200
00000000
00000302
00000000
00001000
00001000
00001003
00000000
,
00000200
00000000
00002300
00000000
00000010
00000010
00003010
00000000
,
00020200
00000000
00000000
00030300
,
00001000
00100000
00010000
01000000
00000000
00000000
00000000
00000000
,
10000000
00100000
01000000
00010000
00000000
00000000
00000000
00000000
,
00000100
00001000
00000010
00000100
00000000
00000000
00000000
00000000
,
00000001
00000010
00000100
00001000
00000000
00000000
00000000
00000000
,
00010000
00001000
01000000
00100000
00000000
00000000
00000000
00000000
,
00100000
10000000
00010000
01000000
00000000
00000000
00000000
00000000
,
00001000
00010000
00000010
00000100
00000000
00000000
00000000
00000000
,
00000100
00000001
00001000
00000010
00000000
00000000
00000200
00000000
,
00000320
00000030
00000000
00020000
,
00032000
00000000
00003000
00100000
00000000
00000000
00020000
00000000
,
20030000
30000000
00000000
00000000
,
00000000
00000000
00000000
00020000
,
00230000
00300000
00000000
00020000
,
00030200
00000000
00000300
00002000
00000000
00003000
00000020
00000000
,
00000230
00000300
00000000
00000000
,
00002002
00000000
00000000
00003003
,
00000010
00010000
00000010
00010000
00000010
00000000
00001000
00000000
,
00000100
00001000
00000100
00001000
00000100
00000000
00010000
00000000
,
00001000
00100000
00001000
00100000
00001000
00000000
00100000
00000000
,
00010000
01000000
00010000
01000000
00010000
00000000
10000000
00000000
,
01000000
00100000
01000000
00100000
01000000
00000000
00001000
00000000
,
00010000
00001000
00010000
00001000
00010000
00000000
00000010
00000000
,
00000100
00000001
00000100
00000001
00000100
00000000
00000010
00000000
,
00002000
00000000
00003020
00000000
,
00010030
00001000
00020000
00000000
00000100
00000000
00030100
00000000
,
00001000
00000010
00002000
00000000
00000100
00000000
00003100
00000000
,
00001000
00010000
00002000
00000000
00100000
00000000
00103000
00000000
,
00010000
10000000
00020000
00000000
10000000
00000000
10030000
00000000
,
01000000
00100000
00010000
00000000
00001000
00010000
00001000
00000000
,
00000100
00000010
00000001
00000000
00001000
00000100
00001000
00000000
,
00010000
00001000
01000000
00000000
00010000
10000000
00010000
00000000
,
20020000
00000000
00000000
30030000
,
00200000
00302000
01000000
00013000
,
00020000
00030020
00001000
00000031
,
00000200
00000320
00010000
00001030
,
00020000
00032000
01000000
00103000
,
02000000
03200000
10000000
00310000
,
20000000
32000000
00100000
03001000
,
00020000
00030200
00001000
00000310
,
00000110
00000000
00010100
00000000
,
00002000
00003000
00000000
00200000
,
00302000
00000000
00003000
00020000
00000000
00030000
00000020
00000000
,
00002030
00000000
00003000
00000000
;

//---------------dance-double - ----------------
#NOTES:
     dance-double:
     :
     Hard:
     8:
     0.445181,0.517349,0.185028,0.594038,0.053561,320.000000,301.000000,19.000000,61.000000,0.000000,0.000000,0.445181,0.517349,0.185028,0.594038,0.053561,320.000000,301.000000,19.000000,61.000000,0.000000,0.000000:
00000000
00000000
00000000
00000000
,
00000000
00000000
00000000
00000000
,
00000000
00000000
00000000
00000000
,
00000000
00000000
00000000
00000000
,
20000000
01000000
30010000
01010000
,
00020000
00001000
00030100
00010100
,
00002000
00000100
00003001
00000101
,
00000002
00000100
00001003
00001100
,
00010000
00000100
00001000
00000100
00010000
00000000
00011000
00000000
,
00100000
00010000
01000000
00010000
00100000
00000000
11000000
00000000
,
01000000
00001000
00010000
00001000
01000000
00000000
00101000
00000000
,
00020000
00000000
00000000
00000000
00000000
00000000
00000000
00000000
00030000
00000000
00000000
00000010
00001000
00000000
00000010
00000000
,
00000100
00000001
00001000
00000100
00020000
00001000
00031000
00000000
,
00100000
00010000
01000000
00100000
20000000
01000000
31000000
00000000
,
01000000
10000000
00010000
00100000
00002000
00010000
00013000
00000000
,
00010000
00000010
00000100
00000001
00000020
00000100
00000130
00000000
,
00000010
00000001
00000100
00001000
00020000
00100000
00130000
00000000
,
10000000
00100000
00010000
00001000
00000200
00000001
00000301
00000000
,
00000100
00000010
00001000
00000100
00020000
00000100
00030100
00000000
,
00022000
00000000
00000000
00033000
,
00100000
00010000
00100000
00000000
00000000
00000000
00000000
00000000
00000000
00000000
00000000
00000000
00000000
00000000
00000000
00000000
,
01000000
10000000
01000000
00000000
00000000
00000000
00000000
00000000
00000000
00000000
00000000
00000000
00000000
00000000
00000000
00000000
,
00001000
00010000
00001000
00000000
00000000
00000000
00000000
00000000
00000000
00000000
00000000
00000000
00000000
00000000
00000000
00000000
,
00000001
00000010
00000001
00000000
00000000
00000000
00000000
00000000
00000000
00000000
00000000
00000000
00000000
00000000
00000000
00000000
,
00000100
00000010
00000100
00000010
00000100
00000000
00000000
00000000
00000000
00000000
00000000
00000000
00000000
00000000
00000000
00000000
,
00010000
00001000
00010000
00001000
00010000
00000000
00000000
00000000
00000000
00000000
00000000
00000000
00000000
00000000
00000000
00000000
,
01000000
00100000
01000000
00100000
01000000
00000000
00000000
00000000
00000000
00000000
00000000
00000000
00000000
00000000
00000000
00000000
,
00022000
00000000
00003000
00032000
,
00003200
00000300
00000000
00002000
,
00023000
00000000
00030000
02000000
00000000
03000000
00020000
00000000
,
00032000
00003000
00000000
00000000
,
00000000
00000000
00000000
00020000
,
00230000
00300000
00000000
00020000
,
00032000
00000000
00003000
00000020
00000000
00000030
00002000
00000000
,
00023000
00030000
00000000
00000000
,
00022000
00000000
00000000
00033000
,
10000000
01000000
00010000
01000000
10000000
00000000
10010000
00000000
,
00010000
00100000
00001000
00100000
00010000
00000000
00101000
00000000
,
00000100
00001000
00010000
00001000
00000100
00000000
00001100
00000000
,
00000010
00000001
00001000
00000001
00000010
00000000
00001001
00000000
,
00000010
00001000
00010000
00001000
00000010
00000000
00010010
00000000
,
00001000
01000000
00010000
01000000
00001000
00000000
01001000
00000000
,
00100000
10000000
00010000
10000000
00100000
00000000
10010000
00000000
,
01000000
00010000
00001000
00010000
01000000
00000000
01001000
00000000
,
00010000
00001000
00010000
00000010
00000200
00000001
00000301
00000010
,
00000100
00010000
00001000
00010000
00002000
00100000
00103000
00010000
,
01000000
00100000
10000000
00010000
00200000
01000000
01300000
00100000
,
00001000
00010000
00000100
00001000
00020000
00001000
00031000
00000100
,
00000020
00000001
00000031
00000100
00000020
00001000
00001030
00000000
,
00000200
00010000
00010300
00001000
00200000
00010000
00310000
00000000
,
02000000
00010000
03010000
10000000
00200000
10000000
10300000
00000000
,
00010000
00100000
00010000
00100000
00010000
00100000
00110000
00000000
,
00002000
00010000
00010000
00100000
00010000
00010000
00013000
00000000
,
00020000
00000100
00000100
00001000
00000100
00000100
00030100
00000000
,
00000020
00000100
00000100
00000001
00000100
00000100
00000130
00000000
,
00002000
00010000
00010000
00100000
00010000
00010000
00013000
00000000
,
02000000
00010000
03020000
00100000
02030000
10000000
13000000
00000000
,
20000000
00100000
30200000
01000000
00302000
00010000
00013000
00000000
,
00020000
00000010
00030020
00001000
00000230
00000010
00000310
00000000
,
00000001
00001000
00000100
00010000
00001000
00010000
00000100
00000000
,
00020000
00030000
00000000
00002000
,
00003200
00000000
00000300
00002000
00000000
00003000
00020000
00000000
,
00230000
00000000
00300000
00000000
;
