#TITLE:Tom Ford;
#SUBTITLE:;
#ARTIST:Jay-Z;
#TITLETRANSLIT:;
#SUBTITLETRANSLIT:;
#ARTISTTRANSLIT:;
#GENRE:;
#CREDIT:;
#BANNER:tomford-bn.png;
#BACKGROUND:tomford-bg.png;
#LYRICSPATH:;
#CDTITLE:;
#MUSIC:Tom Ford.ogg;
#OFFSET:-0.010000;
#SAMPLESTART:19.460001;
#SAMPLELENGTH:12.000000;
#SELECTABLE:YES;
#BPMS:0.000000=145.000000
,176.000000=73.000000
,182.000000=145.000000
;
#STOPS:182.000000=0.835000
;
#BGCHANGES:;
#KEYSOUNDS:;
#ATTACKS:;

//---------------dance-single - ----------------
#NOTES:
     dance-single:
     :
     Hard:
     8:
     0.489476,0.636726,0.425695,0.062297,0.290719,330.000000,289.000000,41.000000,6.000000,0.000000,0.000000,0.489476,0.636726,0.425695,0.062297,0.290719,330.000000,289.000000,41.000000,6.000000,0.000000,0.000000:
// measure 0
0000
0000
0000
0000
,  // measure 1
0000
0000
0000
0000
,  // measure 2
0000
0000
0000
0000
,  // measure 3
0000
0000
0000
0000
,  // measure 4
1000
0100
0001
0100
1000
0000
1001
0000
,  // measure 5
0001
0100
0000
1000
0100
0000
0011
0000
,  // measure 6
0001
0100
1000
0100
0001
0000
1001
0000
,  // measure 7
1000
0100
0000
0001
0100
0000
1010
0000
,  // measure 8
1000
0100
0010
1000
0010
0000
1001
0000
,  // measure 9
0001
0100
0000
0010
0001
0000
1010
0000
,  // measure 10
0001
0010
0100
0001
0100
0000
1001
0000
,  // measure 11
1000
0010
0000
0100
1000
0000
0100
0001
,  // measure 12
0001
1000
0000
0000
0000
0000
0000
0000
0000
0000
0000
0000
0000
0000
0000
0100
0010
0000
0000
0000
0000
0000
0010
0000
0000
0000
0000
0000
0010
0000
0000
0000
,  // measure 13
1001
0000
0000
0000
0000
0000
0000
0000
0000
0000
0000
0000
0000
0000
0000
0010
0100
0000
0000
0000
0000
0000
0100
0000
0000
0000
0000
0000
0100
0000
0000
0000
,  // measure 14
1001
0000
0000
0000
0000
0000
0000
0000
0000
0000
0000
0000
0000
0000
0000
1000
0100
0000
0000
0000
0000
0000
0100
0000
0000
0000
0000
0000
0100
0000
0000
0000
,  // measure 15
0010
0000
0000
0000
0000
0000
0000
0001
1000
0000
0000
0000
0000
0000
0000
0001
0100
0000
0000
0000
0000
0000
0000
0001
1000
0000
0000
0000
0000
0000
0000
0000
,  // measure 16
0100
0000
0000
0000
0000
0000
0000
0000
0000
0000
0000
0000
0000
0000
0000
1000
0001
0000
0000
0000
0000
0000
0001
0000
0000
0000
0000
0000
0001
0000
0000
0000
,  // measure 17
0110
0000
0000
0000
0000
0000
0000
0000
0000
0000
0000
0000
0000
0000
0000
0001
1000
0000
0000
0000
0000
0000
1000
0000
0000
0000
0000
0000
1000
0000
0000
0000
,  // measure 18
0110
0000
0000
0000
0000
0000
0000
0000
0000
0000
0000
0000
0000
0000
0000
0001
0010
0000
0000
0000
0000
0000
0010
0000
0000
0000
0000
0000
0010
0000
0000
0000
,  // measure 19
0100
0000
0000
0000
0000
0000
0000
1000
0001
0000
0000
0000
0000
0000
0000
1000
0010
0000
0000
0000
0000
0000
0000
1000
0001
0000
0000
0000
0000
0000
0000
0000
,  // measure 20
0001
0000
0000
0100
0000
0000
0001
0000
0010
0000
0000
0100
0000
0000
0000
0000
,  // measure 21
1000
0000
0000
0100
0000
0000
1000
0000
0010
0000
0000
0100
0000
0000
0100
0000
,  // measure 22
0010
0000
0000
1000
0000
0000
0001
0000
1000
0000
0000
0010
0000
0000
0010
0000
,  // measure 23
0100
0000
0000
0001
0000
0000
1000
0000
0001
0000
0000
0100
0000
0000
0100
0000
,  // measure 24
0001
0000
0000
0100
0000
0000
1000
0000
0100
0000
0001
1000
0000
0000
0000
0000
,  // measure 25
1000
0000
0000
0100
0000
0000
0001
0000
0100
0000
1000
0001
0000
0000
0100
0000
,  // measure 26
0010
0000
0000
1000
0000
0000
0010
0000
0001
0000
0000
0010
0000
0000
0000
0000
,  // measure 27
0100
0000
0000
0001
0000
0000
0100
0000
1000
0000
0000
0100
0000
0000
0000
0000
,  // measure 28
1001
0000
0000
0000
0000
0000
0000
0000
0000
0000
0000
0000
0000
0000
0000
0001
0100
0000
0000
0000
0000
0000
0100
0000
0000
0000
0000
0000
0100
0000
0000
0000
,  // measure 29
0101
0000
0000
0000
0000
0000
0000
0000
0000
0000
0000
0000
0000
0000
0000
1000
0100
0000
0000
0000
0000
0000
0100
0000
0000
0000
0000
0000
0100
0000
0000
0000
,  // measure 30
1100
0000
0000
0000
0000
0000
0000
0000
0000
0000
0000
0000
0000
0000
0000
0001
0100
0000
0000
0000
0000
0000
0100
0000
0000
0000
0000
0000
0100
0000
0000
0000
,  // measure 31
0001
0000
0000
0000
0000
0000
0000
1000
0010
0000
0000
0000
0000
0000
0000
1000
0001
0000
0000
0000
0000
0000
0000
1000
0010
0000
0000
0000
0000
0000
0000
0000
,  // measure 32
0010
0000
0000
0000
0000
0000
0000
0000
0000
0000
0000
0000
0000
0000
0000
1000
0010
0000
0000
0000
0000
0000
0010
0000
0000
0000
0000
0000
0010
0000
0000
0000
,  // measure 33
1010
0000
0000
0000
0000
0000
0000
0000
0000
0000
0000
0000
0000
0000
0000
0001
0010
0000
0000
0000
0000
0000
0010
0000
0000
0000
0000
0000
0010
0000
0000
0000
,  // measure 34
0011
0000
0000
0000
0000
0000
0000
0000
0000
0000
0000
0000
0000
0000
0000
1000
0010
0000
0000
0000
0000
0000
0010
0000
0000
0000
0000
0000
0010
0000
0000
0000
,  // measure 35
1000
0000
0000
0000
0000
0000
0000
0001
0100
0000
0000
0000
0000
0000
0000
0001
1000
0000
0000
0000
0000
0000
0000
0001
0100
0000
0000
0000
0000
0000
0000
0000
,  // measure 36
1000
0010
0001
0010
1000
0000
1001
0000
,  // measure 37
1000
0010
0000
0001
0010
0000
1100
0000
,  // measure 38
0001
0010
1000
0010
0001
0000
1001
0000
,  // measure 39
0001
0010
0000
1000
0010
0000
0101
0000
,  // measure 40
0100
0010
0001
0010
1000
0000
1001
0000
,  // measure 41
0100
0010
0000
0100
1000
0000
1100
0000
,  // measure 42
0010
0100
1000
0100
0001
0000
1001
0000
,  // measure 43
0010
0100
0000
0010
0100
0000
0000
0000
,  // measure 44
0002
0000
0000
0000
2000
0000
0000
0000
3003
0000
0000
0000
0110
0000
0000
0000
1001
0000
0000
0000
0000
0000
0000
0000
0010
1000
0010
1000
0010
0000
0000
0000
,  // measure 45
0020
0200
0330
1001
0220
0330
1001
0001
,  // measure 46
0010
0000
1001
1000
0010
0000
1001
0001
,  // measure 47
0100
0000
1001
1000
0100
0000
0101
0000
,  // measure 48
1010
0000
0001
0100
0010
0000
0010
1000
,  // measure 49
0100
0000
0100
1000
0010
0000
1001
0000
,  // measure 50
0110
0110
1001
1100
,  // measure 51
0011
0000
0011
0000
1100
0000
0010
1000
,  // measure 52
0001
0000
0100
0001
0010
0001
0100
0010
,  // measure 53
1000
0010
0100
0001
0010
0001
0100
0000
,  // measure 54
0000
0000
0001
0100
,  // measure 55
1000
1000
0100
0001
;

//---------------dance-single - ----------------
#NOTES:
     dance-single:
     :
     Medium:
     5:
     0.391580,0.492016,0.467227,0.093445,0.000000,264.000000,219.000000,45.000000,9.000000,0.000000,0.000000,0.391580,0.492016,0.467227,0.093445,0.000000,264.000000,219.000000,45.000000,9.000000,0.000000,0.000000:
0000
0000
0000
0000
,
0000
0000
0000
0000
,
0000
0000
0000
0000
,
0000
0000
0000
0000
,
1000
0000
1000
0000
1000
0000
1000
0100
,
0001
0001
0101
1100
,
0001
0000
0001
0000
0001
0000
0001
0010
,
1000
1000
1010
0011
,
1000
0000
0100
0000
0001
0000
0100
1000
,
0001
0100
1100
0101
,
0001
0000
0010
0000
1000
0000
0010
0001
,
1000
0000
0010
0000
0001
0000
0010
1000
,
0020
0000
0030
0000
0000
0000
0100
0001
,
0200
0300
0000
1001
,
0110
0000
0100
1000
0100
0000
0010
0001
,
0020
0030
0000
0011
,
2200
3300
0000
1100
,
0022
0000
0033
0000
0000
0000
0001
1000
,
0001
0000
0100
0010
0100
0010
0100
0000
,
2002
0000
0000
3003
,
1000
1000
0110
0101
,
0001
0001
0110
1100
,
1000
0001
1000
0001
,
0100
0010
0100
0000
0010
1000
0010
0000
,
0100
0100
0011
0110
,
0010
0010
1100
0110
,
0001
0010
0100
1000
,
1010
0101
0001
1000
,
1001
0000
0000
0000
0010
0000
0100
0001
,
0100
0000
0001
1000
0001
1000
0001
0000
,
0000
0000
0100
0010
0100
0000
0010
1000
,
0010
0000
1000
0001
1000
0001
1000
0000
,
0001
0001
0001
0101
,
1000
1000
1000
1100
,
0001
0101
1000
1100
,
0001
0011
1000
1010
,
0000
0000
0000
0000
0001
0100
0001
0000
,
0001
0100
0001
0000
0101
0000
1001
0000
,
0000
0000
1000
0100
1000
0000
1000
0000
,
1000
0100
1000
0000
1100
0000
1001
0000
,
0000
0000
0000
0000
0001
0010
0001
0000
,
0001
0000
0001
0010
0001
0000
0011
0000
,
0001
1000
0000
0010
0100
0000
0001
0000
,
1000
0100
0000
0010
0001
0000
0000
0000
,
1000
0001
0000
0100
0110
0000
0100
0100
,
0001
1000
0000
0100
0110
0000
0010
0001
,
0010
0000
0010
0001
0010
0000
0100
1000
,
0100
0000
0100
1000
0100
0000
1000
0000
,
0001
0001
1000
0010
,
0100
0100
0010
1100
,
1100
0011
0011
0101
,
0101
1010
1010
0001
,
1000
1000
0001
0100
,
0010
0010
0100
0000
,
0000
0000
0001
0100
,
1000
1000
0100
0001
;

//---------------dance-single - ----------------
#NOTES:
     dance-single:
     :
     Easy:
     4:
     0.305551,0.463073,0.207656,0.051914,0.000000,206.000000,186.000000,20.000000,5.000000,0.000000,0.000000,0.305551,0.463073,0.207656,0.051914,0.000000,206.000000,186.000000,20.000000,5.000000,0.000000,0.000000:
0000
0000
0000
0000
,
0000
0000
0000
0000
,
0000
0000
0000
0000
,
0000
0000
0000
0000
,
0010
0010
1000
0001
,
0010
0010
0001
1000
,
0010
0010
1000
0001
,
0010
0010
0001
1000
,
0100
0100
0100
0001
,
0100
0100
1000
0010
,
0100
0100
0100
1000
,
0100
0100
0001
1000
,
0020
0030
0000
0001
,
0200
0000
0300
0010
,
0010
1000
1001
0001
,
1001
0000
0000
0100
,
2000
3000
0000
0010
,
0002
0000
0003
1000
,
0010
0100
0110
0010
,
0110
0000
0000
0000
,
1000
1000
0100
0001
,
1000
1000
0010
0001
,
1000
0001
1000
0001
,
0100
0001
0100
0001
,
0001
0001
0100
1000
,
0001
0001
0010
1000
,
0010
0001
0010
0001
,
1000
0100
1000
0100
,
1001
0000
0010
0001
,
0010
1000
0010
0001
,
1001
0000
0100
1000
,
0100
0001
0100
1000
,
1001
0001
1001
1000
,
0110
0010
0110
0100
,
0001
0011
0010
0011
,
0100
1100
0100
1100
,
0000
0000
0010
0100
,
0001
0001
0100
0010
,
0000
1000
0010
0100
,
0100
0010
1000
0001
,
0000
0000
0100
0010
,
1000
1000
0010
0100
,
0000
0000
0001
1000
,
0010
0000
0100
0100
,
0100
0001
1000
0010
0110
0000
0200
0000
,
0301
0010
0100
1000
1001
0000
1001
0000
,
0010
1001
0010
1001
,
0100
1001
0100
1000
,
1000
0010
0010
0100
,
0001
0100
0001
1000
,
1000
0001
0001
0100
,
0100
0010
0010
0100
,
0001
1000
0010
1000
,
0001
1000
0001
0000
,
0000
0000
0001
0100
,
1000
1000
0100
0001
;

//---------------dance-single - ----------------
#NOTES:
     dance-single:
     :
     Beginner:
     1:
     0.121627,0.173653,0.031148,0.000000,0.000000,82.000000,79.000000,3.000000,0.000000,0.000000,0.000000,0.121627,0.173653,0.031148,0.000000,0.000000,82.000000,79.000000,3.000000,0.000000,0.000000,0.000000:
0000
0000
0000
0000
,
0000
0000
0000
0000
,
0000
0000
0000
0000
,
0000
0000
0000
0000
,
1000
0000
1000
0000
,
1000
0000
0001
0001
,
0001
0000
0001
0000
,
0001
0000
1000
1000
,
1000
0000
1000
0000
,
1000
0000
0001
0001
,
0001
0000
0001
0000
,
0001
0000
0000
0010
,
0010
0000
0000
0100
,
0100
0000
0000
0000
,
1000
0000
0000
0000
,
0001
0000
0000
1000
,
1000
0000
0000
0001
,
0001
0000
0000
0000
,
0100
0000
0000
0000
,
0010
0000
0000
0000
,
1000
0000
0000
0000
,
0001
0000
0000
0000
,
1000
0000
0000
0000
,
1001
0000
0000
0000
,
0010
0000
0000
0000
,
0100
0000
0000
0000
,
0010
0000
0000
0000
,
0110
0000
0000
0000
,
0000
0000
1000
1000
,
1000
0000
0000
0000
,
0000
0000
0001
0001
,
0001
0000
0000
0000
,
0100
0000
0000
0000
,
0010
0000
0000
0000
,
0100
0000
0000
0000
,
0010
0000
0010
0000
,
0010
0000
0001
0000
,
0001
0000
0001
0000
,
0000
0000
1000
0000
,
1000
0000
1000
0000
,
0000
0000
0010
0000
,
0010
0000
0010
0000
,
0000
0000
0000
0000
,
0000
0000
0100
0100
,
0100
0000
0000
1001
,
0000
0000
0000
0010
,
0010
0000
0000
0100
,
0100
0000
0000
1000
,
0000
0000
0000
0001
,
0000
0000
0000
1000
,
1000
0000
0000
0001
,
0001
0000
0000
0100
,
0000
0000
0000
0010
,
0000
0000
0000
0000
,
0000
0000
1000
0000
,
0001
0000
1000
1000
;

//---------------dance-double - ----------------
#NOTES:
     dance-double:
     :
     Easy:
     4:
     0.315934,0.463073,0.249188,0.083063,0.000000,213.000000,189.000000,24.000000,8.000000,0.000000,0.000000,0.315934,0.463073,0.249188,0.083063,0.000000,213.000000,189.000000,24.000000,8.000000,0.000000,0.000000:
00000000
00000000
00000000
00000000
,
00000000
00000000
00000000
00000000
,
00000000
00000000
00000000
00000000
,
00000000
00000000
00000000
00000000
,
10000000
01000000
00100000
00010000
,
00100000
00001000
00011000
00011000
,
00001000
00000100
00000010
00000001
,
00001000
00000100
00011000
00011000
,
00010000
00100000
01000000
10000000
,
00010000
00100000
00011000
00011000
,
00001000
00000010
00000100
00000001
,
00001000
00000010
00010000
00001000
,
00200000
00300000
00000000
00010000
,
00000200
00000300
00000000
00010000
,
00001000
01000000
01000000
00010000
,
00200000
00000000
00300000
00001000
,
02000000
03000000
00000000
00010000
,
00000020
00000000
00000030
00000001
,
00000100
00001000
00010000
00100000
,
20000000
00000000
30020000
00000000
,
01030000
00001000
00010000
00011000
,
00010000
00000100
00001000
00001100
,
00000010
00000010
00000001
00000001
,
00001000
00000100
00010000
00011000
,
00100000
00010000
01100000
10010000
,
00100000
00010000
00110000
00011000
,
00001000
00010000
00000010
00010000
,
00000100
00001000
00000010
00000100
,
00001001
00000000
00000010
00000010
,
00001000
00010000
00100000
00100000
,
10010000
01000000
01000000
01000000
,
00010000
00001000
00000100
00000100
,
00001001
00000100
00000010
00001000
,
00010000
01000000
00100000
10000000
,
01000000
00010000
00001000
00000010
,
00000001
00000100
00001000
00000100
,
00000000
00000000
00000010
00000010
,
00010000
00001000
00011000
00011000
,
00000000
01000000
01000000
00001000
,
00010000
00001000
00011000
00011000
,
00000000
00000000
00000001
00001000
,
00000100
00010000
00011000
00011000
,
00000000
00000000
00100000
00000000
,
00001000
00010000
00011000
00011000
,
00010000
00001000
00000100
00001000
00020000
00000000
00031000
00010000
,
00001000
00010000
00100000
00010000
00001000
00000000
01000000
00000000
,
00100000
01000000
00100000
00001000
,
01000000
00001000
01000000
00001000
,
00001000
00010000
00010000
00000010
,
00000100
00000010
00000100
00000001
,
00000001
00001000
00001000
00000010
,
00000010
00000100
00000100
00000010
,
00010000
00001000
01000000
00010000
,
00100000
00001000
00010000
00000000
,
00000000
00000000
10000000
01000000
,
00010000
00001000
00000010
00000001
;

//---------------dance-double - ----------------
#NOTES:
     dance-double:
     :
     Medium:
     5:
     0.358949,0.434131,0.218039,0.010383,0.000000,242.000000,221.000000,21.000000,1.000000,0.000000,0.000000,0.358949,0.434131,0.218039,0.010383,0.000000,242.000000,221.000000,21.000000,1.000000,0.000000,0.000000:
00000000
00000000
00000000
00000000
,
00000000
00000000
00000000
00000000
,
00000000
00000000
00000000
00000000
,
00000000
00000000
00000000
00000000
,
10000000
01000000
00010000
00000000
00001000
00000000
00000100
00000000
,
00000001
00000010
00001000
00000000
00010000
00000000
00100000
00000000
,
10000000
00100000
00010000
00000000
00001000
00000000
00000100
00000000
,
00000001
00000100
00001000
00000000
00010000
00000000
00100000
00000000
,
10000000
00010000
00100000
00000000
00001000
00000000
00011000
00000000
,
00010000
00000100
00001000
00000000
00000010
00000000
00000100
00000000
,
00000001
00001000
00000010
00000000
00010000
00000000
00011000
00000000
,
00100000
00010000
01000000
00000000
00100000
00000000
10000000
00010000
,
00100000
00000000
00000000
00000000
00000000
00000000
00001000
00010000
,
00000100
00000000
00000000
00001000
,
00001100
00000000
00000010
00000000
00000011
00000000
00001000
00000100
,
00001000
00000000
00000000
00100000
,
00110000
00000000
00000000
10000000
,
11000000
00000000
00000000
00000000
00000000
00000000
00100000
01000000
,
00010000
00000000
00100000
00000000
00001000
00000000
00010000
00000010
,
00000100
00000000
00000000
00000000
,
00000001
00000001
00001000
00001100
,
00010000
00010000
00001000
00101000
,
00010000
00000000
01000000
00000000
00100000
10000000
00100000
00000000
,
01000000
00000000
00001000
00000000
00010000
00001000
00010000
00000000
,
00000100
00010000
00010100
00010100
,
00001000
00100000
00101000
00101000
,
00010000
00000000
01000000
00000000
10000000
01000000
00010000
00000000
,
00001000
00000000
00000100
00000000
00000001
00000100
00001000
00000000
,
00011000
00000000
00000000
00000000
00000100
00000000
00001000
00000100
,
00001000
00000001
00001000
00000100
,
00000000
00000000
00010000
00001000
00010000
00000000
00001000
00100000
,
00001000
00100000
00010000
01000000
,
00100000
01000000
00100000
01000000
,
00001000
00010000
00001000
00010000
,
00000010
00000100
00000010
00000100
,
00010000
00001000
00010000
00000000
00001000
00010000
00001000
00000000
,
00011000
00000000
00000000
00000000
00100000
00010000
00100000
00000000
,
00010000
01000000
00010000
00000000
10000000
00000000
10000000
00000000
,
00010000
00000000
00100000
00001000
00100000
00000000
00001000
00010000
,
00001000
00010000
00000100
00000100
,
00001000
00000000
00000010
00000000
00000100
00000001
00000100
00000000
,
00000010
00000000
00010000
00001000
00010000
00000000
00011000
00000000
,
00100000
00010000
01000000
10000000
,
01000000
00001000
00010000
00010000
,
00001000
00010000
00100000
00010000
00002000
00000000
00013000
00000000
,
00010000
00001000
00000100
00001000
00010000
00000000
00011000
00000000
,
00010010
00000000
00000000
00011000
,
01001000
00000000
00000000
00001000
,
00010000
00000100
00000100
00010000
,
00001000
01000000
01000000
00001000
,
00011000
00010000
00011000
00000010
,
00000010
00000000
00000100
00000000
00000100
00000000
00000001
00001000
,
00000001
00000000
00000100
00010000
00000100
00000000
00010000
00001000
,
00010000
00000000
00001000
01000000
00001000
00000000
00000000
00000000
,
00000000
00000000
10000000
01000000
,
00010000
00001000
00000010
00000001
;

//---------------dance-double - ----------------
#NOTES:
     dance-double:
     :
     Hard:
     8:
     0.461294,0.578842,0.353016,0.166125,0.223230,311.000000,277.000000,34.000000,16.000000,0.000000,0.000000,0.461294,0.578842,0.353016,0.166125,0.223230,311.000000,277.000000,34.000000,16.000000,0.000000,0.000000:
00000000
00000000
00000000
00000000
,
00000000
00000000
00000000
00000000
,
00000000
00000000
00000000
00000000
,
00000000
00000000
00000000
00000000
,
10000000
01000000
00010000
00001000
00000100
00000000
00000001
00000000
,
00000001
00000100
00000000
00001000
00010000
00000000
11000000
00000000
,
00010000
00001000
00100000
00001000
00010000
00000000
00011000
00000000
,
00000010
00001000
00000000
00000010
00000100
00000000
00000101
00000000
,
00000001
00000010
00001000
00010000
00100000
00000000
10000000
00000000
,
00100000
00010000
00000000
00001000
00000010
00000000
00000011
00000000
,
00001000
00000100
00010000
00000100
00001000
00000000
00011000
00000000
,
01000000
00001000
00000000
00010000
00001000
00000000
00010000
00000100
,
00001000
00000000
00000000
00000000
00000000
00000000
00000000
00000000
00000000
00000000
00000000
00000000
00000000
00000000
00000000
00000010
00000100
00000000
00000000
00000000
00000000
00000000
00000100
00000000
00000000
00000000
00000000
00000000
00000100
00000000
00000000
00000000
,
00001001
00000000
00000000
00000000
00000000
00000000
00000000
00000000
00000000
00000000
00000000
00000000
00000000
00000000
00000000
00000010
00010000
00000000
00000000
00000000
00000000
00000000
00010000
00000000
00000000
00000000
00000000
00000000
00010000
00000000
00000000
00000000
,
00010010
00000000
00000000
00000000
00000000
00000000
00000000
00000000
00000000
00000000
00000000
00000000
00000000
00000000
00000000
00001000
00010000
00000000
00000000
00000000
00000000
00000000
00010000
00000000
00000000
00000000
00000000
00000000
00010000
00000000
00000000
00000000
,
00002000
02003000
03200000
02300000
,
03010000
00000000
00000000
00000000
00000000
00000000
00000000
00000000
00000000
00000000
00000000
00000000
00000000
00000000
00000000
01000000
00100000
00000000
00000000
00000000
00000000
00000000
00100000
00000000
00000000
00000000
00000000
00000000
00100000
00000000
00000000
00000000
,
10010000
00000000
00000000
00000000
00000000
00000000
00000000
00000000
00000000
00000000
00000000
00000000
00000000
00000000
00000000
01000000
00001000
00000000
00000000
00000000
00000000
00000000
00001000
00000000
00000000
00000000
00000000
00000000
00001000
00000000
00000000
00000000
,
01001000
00000000
00000000
00000000
00000000
00000000
00000000
00000000
00000000
00000000
00000000
00000000
00000000
00000000
00000000
00010000
00001000
00000000
00000000
00000000
00000000
00000000
00001000
00000000
00000000
00000000
00000000
00000000
00001000
00000000
00000000
00000000
,
00020000
00030020
00000230
00000320
,
00001030
00000000
00000000
00000010
00000000
00000000
00000100
00000000
00000001
00000000
00000000
00001000
00000000
00000000
00000000
00000000
,
00010000
00000000
00000000
00001000
00000000
00000000
00100000
00000000
00010000
00000000
00000000
01000000
00000000
00000000
00000000
00000000
,
00100000
00000000
00000000
10000000
00000000
00000000
01000000
00000000
00010000
00000000
00000000
00001000
00000000
00000000
00001000
00000000
,
00000100
00000000
00000000
00000001
00000000
00000000
00000010
00000000
00000100
00000000
00000000
00001000
00000000
00000000
00001000
00000000
,
00010000
00000000
00000000
00100000
00000000
00000000
01000000
00000000
00010000
00000000
01000000
10000000
00000000
00000000
00000000
00000000
,
10000000
00000000
00000000
00100000
00000000
00000000
01000000
00000000
00001000
00000000
00010000
00001000
00000000
00000000
00010000
00000000
,
00000010
00000000
00000000
00000100
00000000
00000000
00000100
00000000
00001000
00000000
00000000
00001000
00000000
00000000
00000000
00000000
,
00010000
00000000
00000000
01000000
00000000
00000000
10000000
00000000
00100000
00000000
00000000
01000000
00000000
00000000
00001000
00000000
,
00011000
00000000
00000000
00000000
00000000
00000000
00000000
00000000
00000000
00000000
00000000
00000000
00000000
00000000
00000000
00000100
00000010
00000000
00000000
00000000
00000000
00000000
00000010
00000000
00000000
00000000
00000000
00000000
00000010
00000000
00000000
00000000
,
00001001
00000000
00000000
00000000
00000000
00000000
00000000
00000000
00000000
00000000
00000000
00000000
00000000
00000000
00000000
00000100
00010000
00000000
00000000
00000000
00000000
00000000
00010000
00000000
00000000
00000000
00000000
00000000
00010000
00000000
00000000
00000000
,
00011000
00000000
00000000
00000000
00000000
00000000
00000000
00000000
00000000
00000000
00000000
00000000
00000000
00000000
00000000
00100000
00010000
00000000
00000000
00000000
00000000
00000000
00010000
00000000
00000000
00000000
00000000
00000000
00010000
00000000
00000000
00000000
,
00200000
00302000
00023000
00030020
,
00000130
00000000
00000000
00000000
00000000
00000000
00000000
00000000
00000000
00000000
00000000
00000000
00000000
00000000
00000000
00000001
00001000
00000000
00000000
00000000
00000000
00000000
00001000
00000000
00000000
00000000
00000000
00000000
00001000
00000000
00000000
00000000
,
00000110
00000000
00000000
00000000
00000000
00000000
00000000
00000000
00000000
00000000
00000000
00000000
00000000
00000000
00000000
00010000
00001000
00000000
00000000
00000000
00000000
00000000
00001000
00000000
00000000
00000000
00000000
00000000
00001000
00000000
00000000
00000000
,
00011000
00000000
00000000
00000000
00000000
00000000
00000000
00000000
00000000
00000000
00000000
00000000
00000000
00000000
00000000
00001000
01000000
00000000
00000000
00000000
00000000
00000000
01000000
00000000
00000000
00000000
00000000
00000000
01000000
00000000
00000000
00000000
,
02000000
03002000
00203000
02300000
,
13000000
01000000
00010000
00001000
00000010
00000000
00000011
00000000
,
00000001
00000100
00000000
00001000
00010000
00000000
01010000
00000000
,
10000000
00100000
00010000
00001000
00000010
00000000
00000011
00000000
,
00000001
00000100
00000000
00001000
00010000
00000000
01010000
00000000
,
10000000
00100000
00000000
01000000
00001000
00000000
00011000
00000000
,
00000100
00001000
00000000
00000010
00000100
00000000
00000101
00000000
,
00000001
00000010
00000100
00010000
00001000
00000000
00011000
00000000
,
00100000
00010000
00000000
01000000
01100000
00000000
11000000
00000000
,
00100000
00000000
00000000
00000000
01000000
00000000
00000000
00000000
00001000
00000000
00000000
00000000
00010000
00000000
00000000
00000000
00011000
00000000
00000000
00000000
00000000
00000000
00000000
00000000
00010000
00001000
00010000
00001000
00010000
00000000
00000000
00000000
,
00010000
00000010
00000000
00000100
00000101
00000000
00000010
00001000
,
00000010
00000000
00010000
00001000
00010000
00000000
00001000
00100000
,
00001000
00000000
00010000
00001000
00010000
00000000
00001000
00000000
,
01001000
00000000
01000000
00001000
00010000
00000000
00010000
00000010
,
00000100
00000000
00000100
00000010
00010000
00000000
00011000
00000000
,
00010100
00011000
01001000
00011000
,
00110000
00000000
00011000
00000000
00010010
00000000
00000010
00000100
,
00000001
00000000
00000001
00000010
00000100
00010000
00001000
01000000
,
00010000
10000000
00100000
01000000
00001000
00010000
00001000
00000000
,
00000000
00000000
10000000
01000000
,
00010000
00001000
00000010
00000001
;
