#TITLE:Text Me Too Much;
#SUBTITLE:;
#ARTIST:Lucky Princess;
#TITLETRANSLIT:;
#SUBTITLETRANSLIT:;
#ARTISTTRANSLIT:;
#GENRE:Pop;
#CREDIT:;
#BANNER:textmetoomuch-bn.png;
#BACKGROUND:textmetoomuch-bg.png;
#LYRICSPATH:;
#CDTITLE:;
#MUSIC:Text Me Too Much.ogg;
#OFFSET:-0.020000;
#SAMPLESTART:32.200005;
#SAMPLELENGTH:12.000000;
#SELECTABLE:YES;
#BPMS:0.000000=146.000000
;
#STOPS:
;
#BGCHANGES:;
#KEYSOUNDS:;
#ATTACKS:;

//---------------dance-single - ----------------
#NOTES:
     dance-single:
     :
     Hard:
     8:
     0.487872,0.604443,0.231703,0.050370,0.382814,339.000000,316.000000,23.000000,5.000000,0.000000,0.000000,0.487872,0.604443,0.231703,0.050370,0.382814,339.000000,316.000000,23.000000,5.000000,0.000000,0.000000:
// measure 0
0000
0000
0000
0000
,  // measure 1
0000
0000
0000
0000
,  // measure 2
0000
0000
0000
0000
,  // measure 3
0000
0000
0001
0000
0000
0001
0000
0000
1000
0000
0000
1000
0000
0000
1000
0000
,  // measure 4
0010
0000
0000
0100
0000
0000
0001
0000
0100
0000
0000
0010
0000
0000
1000
0000
,  // measure 5
0001
1000
0000
0000
0001
1000
0010
0000
,  // measure 6
0010
0000
0000
1000
0000
0000
0100
0000
1000
0000
0000
0010
0000
0000
0100
0000
,  // measure 7
0001
0000
0000
0100
0000
0000
1000
0000
0100
0000
0000
0000
0001
0000
0001
0000
,  // measure 8
0100
0000
0000
0001
0000
0000
1000
0000
0010
0000
0000
0100
0000
0000
0010
0000
,  // measure 9
1000
0001
0000
0000
1000
0100
0010
0000
,  // measure 10
0001
0000
0000
1000
0000
0000
0010
0000
0100
0000
0000
0001
0000
0000
0010
0000
,  // measure 11
0100
0000
0000
0010
0000
0000
0001
0000
1000
0000
0000
0000
1001
0000
0000
0000
,  // measure 12
0010
0000
0000
1000
0000
0000
0001
0000
0000
0000
0000
0000
0000
0000
0010
0000
,  // measure 13
0100
0000
0000
0010
0000
0000
1000
0000
0000
0000
1001
0000
0000
0000
0001
0000
,  // measure 14
0100
0000
0010
0000
0000
1000
0000
0000
0001
0000
0000
0010
0000
0000
0001
0000
,  // measure 15
0100
0000
0001
0000
0000
1000
0000
0000
0001
0000
0000
0010
0000
0000
0100
0000
,  // measure 16
1000
0000
0000
0010
0000
0000
0100
0000
0000
0000
0001
0000
0000
0010
0000
0000
,  // measure 17
0100
0000
0000
1000
0000
0000
0010
0000
0000
0000
0000
0000
0000
0000
0000
0000
,  // measure 18
1000
0000
0000
0100
0000
0000
1000
0000
0001
0000
0000
0010
0000
0000
0001
0000
,  // measure 19
0100
0000
0000
0100
0000
0000
0110
0000
0000
0000
0100
0000
0001
0000
1000
0000
,  // measure 20
0001
0000
0000
0000
0011
0000
0000
0000
1000
0000
0000
1010
0000
0000
0000
0000
,  // measure 21
0001
0000
0000
0011
0000
0000
0010
0000
0001
0000
0000
0000
0000
0000
0100
0000
,  // measure 22
0010
0000
0000
1000
0000
0000
0100
0000
0010
0000
0000
0100
0000
0000
1000
0000
,  // measure 23
0010
0000
0000
0100
0000
0000
0001
0000
1000
0000
0010
0000
0100
0000
0001
0000
,  // measure 24
0010
0000
0000
0011
0000
0000
0000
0000
1000
0000
0000
1100
0000
0000
0000
0000
,  // measure 25
0010
0000
0000
1010
0000
0000
0000
0000
0100
0000
0000
0101
0000
0000
0000
0000
,  // measure 26
0001
1000
0010
0100
0000
0000
0000
1000
,  // measure 27
0100
1000
0010
0100
0010
1000
0001
0000
,  // measure 28
1001
0000
1000
0000
0000
1000
0000
0000
1001
0000
0000
0001
0000
0000
0001
0000
,  // measure 29
0020
0000
0000
0030
,  // measure 30
2000
0000
0000
3000
,  // measure 31
0020
0000
0000
0030
,  // measure 32
0002
0000
0000
0000
2000
0000
0000
3003
,  // measure 33
1000
0100
0010
0100
0001
0100
1000
0001
,  // measure 34
1000
0010
0100
0010
0001
0010
1000
0000
,  // measure 35
0001
0100
0010
0100
1000
0100
0001
1000
,  // measure 36
0001
0010
0100
0010
1000
0010
0001
0001
,  // measure 37
1000
0000
0010
0000
0000
0100
0000
0000
0001
0000
0000
0100
0000
0000
0010
0000
,  // measure 38
0000
0000
1000
0000
0000
0100
0000
0000
0010
0000
0000
0100
0000
0000
1000
0000
,  // measure 39
0000
0000
0010
0000
0000
1000
0000
0000
0001
0000
0000
1000
0000
0000
0010
0000
,  // measure 40
0000
0000
0100
0000
0000
0100
0000
0000
0010
0000
0000
0010
0000
0000
0010
0000
,  // measure 41
0000
0000
1000
0000
0000
0001
0000
0000
0010
0000
0000
0001
0000
0000
1000
0000
,  // measure 42
0000
0000
0001
0000
0000
0100
0000
0000
1000
0000
0000
0100
0000
0000
0001
0000
,  // measure 43
0000
0000
0100
0000
0000
0010
0000
0000
1000
0000
0000
0010
0000
0000
0100
0000
,  // measure 44
0000
0000
0001
0000
0000
0001
0000
0000
1000
0000
0000
1000
0000
0000
1000
0000
,  // measure 45
0100
0001
0100
1000
0010
0100
0001
1000
,  // measure 46
0001
0100
0010
1000
0010
0100
0001
1000
,  // measure 47
0001
0000
0000
0000
0011
0000
0000
0000
1000
0000
0000
1010
0000
0000
0000
0000
,  // measure 48
0001
0000
0000
0011
0000
0000
0001
0000
1000
0000
0000
0000
0001
0000
1000
0000
,  // measure 49
1000
0000
0000
0001
0000
0000
0100
0000
0010
0000
0000
1000
0000
0000
0010
0000
,  // measure 50
0100
0000
0000
0001
0000
0000
0010
0000
0100
0000
1000
0000
0010
0000
0100
0000
,  // measure 51
0001
0000
0000
0011
0000
0000
0000
0000
1000
0000
0000
1100
0000
0000
0000
0000
,  // measure 52
0010
0000
0000
1010
0000
0000
0000
0000
0100
0000
0000
0101
0000
0000
0000
0000
,  // measure 53
0001
1000
0010
0100
0000
0000
0000
0100
,  // measure 54
0010
1000
0010
0100
0010
1000
0100
0010
,  // measure 55
0001
0000
0100
0001
0000
0100
0001
0000
0010
0100
0000
0010
0100
0000
1000
0000
,  // measure 56
0000
0000
0010
1000
0000
0010
1000
0000
0100
1000
0000
0100
1000
0000
0001
0000
,  // measure 57
0000
0000
0010
0001
0000
0010
0001
0000
0100
0001
0000
0100
0001
0000
1000
0000
,  // measure 58
0000
0000
0001
0000
0000
0011
0000
0000
1000
0000
0000
1010
0000
0000
0001
0000
,  // measure 59
0100
0000
0010
0000
0000
1100
0000
0000
0010
0000
0000
0101
0000
0000
0001
0000
,  // measure 60
1000
0000
0000
0000
;

//---------------dance-single - ----------------
#NOTES:
     dance-single:
     :
     Medium:
     6:
     0.348274,0.362666,0.030222,0.161185,0.241777,242.000000,239.000000,3.000000,16.000000,0.000000,0.000000,0.348274,0.362666,0.030222,0.161185,0.241777,242.000000,239.000000,3.000000,16.000000,0.000000,0.000000:
0000
0000
0000
0000
,
0000
0000
0000
0000
,
0000
0000
0000
0000
,
0000
0000
1000
0000
0000
1000
0000
0000
0001
0000
0000
0001
0000
0000
0001
0000
,
1000
0010
0100
0010
,
1000
0100
0000
0000
0000
1000
0001
0000
,
0001
0100
0010
0100
,
0001
0000
0000
1000
0000
0000
0001
0000
1000
0000
0000
0000
0010
0000
0010
0000
,
0010
1000
0001
0100
,
0010
0100
0000
0000
0000
0100
0010
0000
,
1000
0001
0100
0001
,
2000
3200
0320
0032
,
1003
0000
0000
0100
0000
0000
0010
0000
0000
0000
0000
0000
0000
0000
0000
0000
,
0001
0000
0000
0010
0000
0000
0100
0000
0000
0000
0000
0000
0000
0000
0000
0000
,
1000
1000
1000
1001
,
0001
0001
0001
1001
,
1000
0000
0000
0001
0000
0000
0010
0000
0000
0000
0000
0000
1000
0000
0000
0000
,
0001
0000
0000
1000
0000
0000
0010
0000
0000
0000
0000
0000
0000
0000
0000
0000
,
0100
0000
0000
0010
0000
0000
0100
0000
0010
0000
0000
0100
0000
0000
0010
0000
,
1000
0000
0000
1000
0000
0000
2000
0000
0000
0000
0000
0000
0000
0000
0000
0000
,
3001
0001
1000
1000
,
0001
0000
0000
1000
0000
0000
0001
0000
1000
0000
0000
0000
0000
0000
0010
0000
,
0100
0001
1000
0010
,
0010
1000
0001
0100
,
0001
0000
0000
0100
0000
0000
0000
0000
1000
0000
0000
0100
0000
0000
0000
0000
,
0001
0000
0000
0100
0000
0000
0000
0000
1000
0000
0000
0100
0000
0000
0000
0000
,
0001
0100
0010
1000
0000
0000
0000
1000
,
0001
0000
0100
0010
0100
0010
0100
0000
,
0000
0000
0001
0000
0000
1000
0000
0000
0010
0000
0000
0100
0000
0000
0001
0000
,
2000
0000
0000
3000
,
0200
0000
0000
0300
,
0020
0000
0000
0030
,
0002
0000
2003
0000
,
3020
0100
0100
0130
,
0200
0001
0001
0301
,
2000
0100
0100
3100
,
0002
1000
2003
0001
,
3001
0000
0100
0000
0000
0010
0000
0000
0100
0000
0000
0010
0000
0000
0100
0000
,
0000
0000
0001
0000
0000
0010
0000
0000
0001
0000
0000
0010
0000
0000
0001
0000
,
0000
0000
1000
0000
0000
0010
0000
0000
1000
0000
0000
0010
0000
0000
1000
0000
,
0000
0000
0001
0000
0000
0001
0000
0000
1000
0000
0000
1000
0000
0000
1000
0000
,
0000
0000
0010
0000
0000
1000
0000
0000
0010
0000
0000
1000
0000
0000
0010
0000
,
0000
0000
0100
0000
0000
0001
0000
0000
0100
0000
0000
0001
0000
0000
0100
0000
,
0000
0000
0001
0000
0000
1000
0000
0000
0001
0000
0000
1000
0000
0000
0001
0000
,
0000
0000
0100
0000
0000
0100
0000
0000
0010
0000
0000
0010
0000
0000
0010
0000
,
0000
0000
0000
0001
1000
0000
0110
0000
,
0020
0000
0000
0030
,
1000
1000
0001
0001
,
1000
0000
0000
0001
0000
0000
1000
0000
0001
0000
0000
0000
0000
0000
0100
0000
,
0010
1000
0001
0100
,
0100
0001
1000
0010
,
1000
0000
0000
0010
0000
0000
0000
0000
0001
0000
0000
0010
0000
0000
0000
0000
,
0001
0000
0000
0100
0000
0000
0000
0000
1000
0000
0000
0100
0000
0000
0000
0000
,
1000
0010
0100
0001
0000
0000
0000
0001
,
1000
0000
0010
0100
0010
0100
0010
0000
,
0000
0000
1000
0000
0000
0100
0000
0000
1000
0000
0000
0010
0000
0000
1000
0000
,
0000
0000
0001
0000
0000
0010
0000
0000
0001
0000
0000
0100
0000
0000
0001
0000
,
0000
0000
0100
0000
0000
0010
0000
0000
0100
0000
0000
0001
0000
0000
0100
0000
,
0000
0000
0010
0000
0000
0010
0000
0000
0100
0000
0000
0100
0000
0000
0100
0000
,
0001
0000
1000
0000
0000
0010
0000
0000
0100
0000
0000
0001
0000
0000
1000
0000
,
0001
0000
0000
0000
;

//---------------dance-single - ----------------
#NOTES:
     dance-single:
     :
     Easy:
     4:
     0.266243,0.302221,0.030222,0.161185,0.000000,185.000000,182.000000,3.000000,16.000000,0.000000,0.000000,0.266243,0.302221,0.030222,0.161185,0.000000,185.000000,182.000000,3.000000,16.000000,0.000000,0.000000:
0000
0000
0000
0000
,
0000
0000
0000
0000
,
0000
0000
0000
0000
,
0000
2002
0000
0000
0000
0000
0000
3003
,
1000
0100
1000
0001
,
0001
0100
0000
0000
0000
0000
0000
0000
,
0001
0010
0001
0000
1000
0000
0001
0000
,
1000
0000
0010
0000
,
0100
0001
0010
0100
,
1000
0010
1000
0000
0000
0000
0000
0010
,
0100
0000
0001
0000
1000
0000
0010
0100
,
0020
0000
0000
0030
,
0010
0000
0000
1000
0000
0000
0000
0000
,
0100
0000
0000
0010
0000
0000
0000
0001
,
1000
0001
1000
0010
,
0001
1000
0001
0010
,
1000
0000
0000
0001
0000
0000
0000
0000
,
0100
0000
0000
0010
0000
0000
0000
0000
,
1000
0010
0100
0001
,
0020
0000
0000
0030
,
0100
1000
0100
1000
,
0001
0000
1000
0000
,
0001
1000
0001
0010
,
1000
0001
1000
0010
,
0001
0100
0010
0000
,
1000
0010
0100
0000
,
0001
1000
0010
0100
0000
0000
0000
0010
,
0100
0001
1000
0010
,
2000
0000
0000
3000
,
0002
0000
0000
0003
,
0020
0000
0000
0030
,
0200
0000
0000
0300
,
2000
0000
3002
0000
,
0103
0001
0010
0100
,
0010
0001
1000
0100
,
0010
0100
1000
0001
,
0010
0000
0001
0000
1000
0000
0010
0100
,
0001
0000
0010
0000
0001
0000
0000
1000
,
0010
0000
1000
0000
0010
0000
0000
1000
,
0100
0000
0010
0000
0100
0000
0000
0010
,
0001
0000
1000
0000
0001
0000
0100
0010
,
1000
0000
0010
0000
0100
0000
0000
0001
,
0100
0000
0001
0000
0010
0000
0000
0001
,
1000
0000
0100
0000
0010
0000
0000
0100
,
1000
0000
0010
0000
0100
0000
0001
1000
,
0020
0000
0000
0030
,
0202
0000
0000
0303
,
0010
0001
0010
0001
,
1000
0000
0001
0000
,
1000
0001
1000
0100
,
0001
1000
0001
0100
,
1000
0010
0100
0000
,
0001
0100
0010
0000
,
1000
0001
0100
0010
0000
0000
0000
0100
,
0010
1000
0001
0100
,
0001
0010
0100
1000
,
0001
0100
0010
1000
,
1000
0010
0100
0001
,
0000
0220
0000
0000
0000
0000
0000
0330
,
0002
0000
0000
0000
,
1003
0000
0000
0000
;

//---------------dance-single - ----------------
#NOTES:
     dance-single:
     :
     Beginner:
     2:
     0.116571,0.151111,0.040296,0.080592,0.000000,81.000000,77.000000,4.000000,8.000000,0.000000,0.000000,0.116571,0.151111,0.040296,0.080592,0.000000,81.000000,77.000000,4.000000,8.000000,0.000000,0.000000:
0000
0000
0000
0000
,
0000
0000
0000
0000
,
0000
0000
0000
0000
,
0000
0000
0000
0000
,
1000
0000
0010
0000
,
0100
0000
0000
0000
,
0010
0000
0100
0000
,
0001
0000
1000
0000
,
0001
0000
0000
0000
,
1000
0000
0000
0000
,
1000
0000
0000
0000
,
0001
0000
0000
0000
,
0100
0000
0000
0000
,
0010
0000
0000
0000
,
1000
0000
1000
0000
,
0001
0000
0001
0000
,
0001
0000
0000
0000
,
0010
0000
0000
0000
,
0100
0000
0000
0000
,
0020
0000
0030
0000
,
0010
0000
0100
0000
,
0110
0000
0000
0000
,
1000
0000
0001
0000
,
1000
0000
0001
0000
,
0100
0000
0100
0000
,
0010
0000
0010
0000
,
1000
0000
0000
0000
,
0001
0000
0000
0000
,
0110
0000
0000
0000
,
0200
0000
0300
0000
,
0002
0000
0003
0000
,
0020
0000
0030
0000
,
0100
0000
1000
0000
,
0020
0000
0030
0000
,
0200
0000
0300
0000
,
0002
0000
0003
0000
,
1000
0000
0001
0000
,
1000
0000
0000
0000
,
0010
0000
0000
0000
,
0100
0000
0000
0000
,
0001
0000
0000
0000
,
0100
0000
0000
0000
,
0010
0000
0000
0000
,
1000
0000
0000
0000
,
1000
0000
0001
0000
,
0010
0000
0000
0000
,
0200
0000
0300
0000
,
1000
0000
0001
0000
,
1001
0000
0000
0000
,
0010
0000
0100
0000
,
0010
0000
0100
0000
,
0001
0000
1000
0000
,
1000
0000
0001
0000
,
0010
0000
0000
0000
,
0100
0000
0000
0000
,
0001
0000
1000
0000
,
1000
0000
0001
0000
,
0001
0000
1000
0000
,
0000
0000
0000
0000
,
0010
0000
0000
0000
,
1001
0000
0000
0000
;
